#TITLE:BlythE;
#SUBTITLE:;
#ARTIST:M2U;
#TITLETRANSLIT:;
#SUBTITLETRANSLIT:;
#ARTISTTRANSLIT:;
#GENRE:Synth DnB;
#CREDIT:Telperion;
#BANNER:blythe-bn.png;
#BACKGROUND:../fallback-bg.png;
#LYRICSPATH:;
#CDTITLE:;
#MUSIC:blythe.ogg;
#OFFSET:-0.238;
#SAMPLESTART:36.243;
#SAMPLELENGTH:21.253;
#SELECTABLE:YES;
#DISPLAYBPM:180.000;
#BPMS:0.000=180.000
,1.000=135.000
,1.375=270.000
,1.750=180.000
,3.750=360.000
,4.000=180.000
,5.000=360.000
,6.250=180.000
,8.000=360.000
,8.250=180.000
,10.250=270.000
,10.625=135.000
,11.000=360.000
,11.375=180.000
,177.500=360.000
,178.000=270.000
,179.000=135.000
,180.000=180.000
,381.000=135.000
,381.375=270.000
,381.750=180.000
,383.750=360.000
,384.000=180.000
,385.000=360.000
,386.250=180.000
,388.000=360.000
,388.250=180.000
,389.500=135.000
,389.750=270.000
,390.000=360.000
,390.250=180.000
,391.000=360.000
,392.750=180.000
,393.500=360.000
,394.375=180.000
,395.500=135.000
,396.125=270.000
,396.750=360.000
,397.250=180.000
;
#STOPS:3.750=0.042,
5.000=0.028,
5.167=0.027,
5.333=0.028,
5.500=0.028,
5.667=0.027,
5.833=0.028,
6.000=0.042,
8.000=0.041,
11.000=0.063,
177.500=0.020,
177.625=0.021,
177.750=0.020,
177.875=0.021,
383.750=0.042,
385.000=0.028,
385.167=0.027,
385.333=0.028,
385.500=0.028,
385.667=0.027,
385.833=0.028,
386.000=0.042,
388.000=0.042,
390.000=0.041,
391.000=0.063,
391.375=0.062,
391.750=0.063,
392.125=0.062,
392.500=0.042,
393.500=0.083,
394.000=0.020,
394.125=0.020,
394.250=0.020,
396.750=0.042,
397.000=0.041
;
#BGCHANGES:;
#KEYSOUNDS:;
#ATTACKS:;

//---------------dance-double - Telperion----------------
#NOTES:
     dance-double:
     Telperion:
     Hard:
     9:
     0.652,0.569,0.113,0.294,0.004,552.000,15.000,39.000,0.000,0.000,0.000,0.652,0.569,0.113,0.294,0.004,552.000,15.000,39.000,0.000,0.000,0.000:
00000000
00000000
00000000
00000000
,
00000000
00000000
00000000
00000000
,
00000000
00000000
00000000
00000000
,
01000000
10000000
01000000
00100000
00000000
00010000
01000000
20000000
,
00000000
31000000
00100000
01000000
00010000
00100000
20000000
00000000
,
30100000
00010000
00100000
01000000
00010000
01000000
00100000
00001000
,
00000000
00000000
00001000
00000000
00000100
00000000
00000000
00000000
00000100
00000000
00000002
00000000
00000000
00000000
00001003
00000001
,
00000100
00000001
00000010
00000100
00000010
00001000
00000000
00010000
,
00001000
00000000
00010000
00100000
00000000
02000000
03000000
00000000
,
00100000
10000000
01000000
00100000
00001000
00010000
00000100
00000020
,
00000000
00000130
00001000
00000001
00000000
00000000
00000000
00000000
,
00000100
00000001
00000100
00000000
00001000
00001000
00000000
00010000
,
00000100
00010000
00001000
00010000
01000000
01000000
00000000
10000000
,
00100000
01000000
00010000
01000000
10000000
01000000
00010000
00100000
,
00000000
00000000
02000000
00000000
13000000
02000000
00000000
03000000
,
00100000
01000000
10000000
00000000
01000000
00010000
00000000
00001000
,
00000100
00000000
00000001
00000010
00000000
00000100
00000000
00000000
,
00000001
00000100
00001000
00000001
00001000
00000100
00000010
00000001
,
00000000
00000000
00000200
00000000
00000301
00000200
00000000
00000300
,
00000010
00000100
00000010
00000000
00001000
00001000
00000000
00000001
,
00000010
00001000
00010000
00000100
00010000
00010000
00000000
00001000
,
01000000
00010000
01000000
00100000
00010000
00100000
01000000
00001000
,
00000000
00000000
02000000
00000000
03010000
02000000
00000000
03000000
,
00100000
10000000
01000000
00000000
00010000
00001000
00000000
00001000
,
00000100
00000000
00000001
00000010
00000000
00000100
00000000
00000000
,
00000010
00000001
00000100
00000010
00010000
00001000
01000000
00200000
,
00000000
01300000
00010000
10000000
00000000
00000000
11000000
00000000
,
00010000
10000000
01000000
10000000
01000000
00100000
00000000
00010000
,
10000000
01000000
00010000
00001000
00000010
00000100
00001000
00000001
,
00001000
00000010
00000100
00000001
00000100
00000010
00000000
00001000
,
00000000
00000001
00000100
00001000
00010000
00100000
01000000
00010000
,
10000000
01000000
00100000
01000000
00100000
00010000
00000000
10000000
,
01000000
00010000
00001000
00000010
00000100
00000010
00001000
00000010
,
00000001
00000100
00000010
00000000
00000110
00000000
00001000
00001001
,
00000000
00000100
00002100
00000000
00003000
00000011
00000000
00000011
,
00001000
00000001
00000100
00000001
00000100
00000010
00000000
00001000
,
00000001
00000100
00001000
00010000
00100000
01000000
00010000
10000000
,
00010000
00100000
01000000
00100000
01000000
00100000
00000000
00010000
,
00000000
10000000
01000000
00010000
00001000
00000010
00000000
00000100
,
00001000
00000001
00000100
00000000
00000001
00000010
00000000
00001000
,
00010000
00000000
00010000
00100000
01000000
00100000
10000000
00000000
,
00100000
10000000
01000000
00100000
00001000
00010000
00000100
00000020
,
00000000
00000130
00001000
00000002
00000000
00000000
00000003
00000000
,
00001000
00000010
00010000
00000010
00001000
00000100
00000000
00001000
,
00000010
00010000
00001000
20000000
00000000
00000000
30000000
00000000
,
00100000
10000000
01000000
00010000
00001000
00000010
00000000
00000100
,
00010000
00001000
00010000
00000100
00001000
00000001
00000100
00000000
,
00000001
00000100
00000001
00000010
00000100
00001000
00000000
00000010
,
00001000
00000100
00000010
00000100
00010000
00000010
00010000
00000000
,
00001000
01000000
00010000
01000000
00100000
01000000
00010000
00100000
,
00000000
00100000
01000000
00000000
00000000
11000000
00000000
00000000
,
00010000
10000000
00100000
00000000
01000000
00001000
00000000
00010000
,
00001000
01000000
00001000
00010000
00000100
00001000
00000001
00000000
,
00000010
00000001
00000100
00000010
00001000
00100000
10000000
00000000
,
00100000
01000000
00010000
20000000
00000000
30010000
01000000
00000000
,
01000000
10000000
01000000
00010000
00100000
01000000
00010000
00000000
,
00001000
00000100
00000010
00001000
00000010
00000100
00000001
00000000
,
00000010
00000001
00000100
00000010
00010000
00001000
01000000
00200000
,
00000000
01300000
00010000
10000000
00000000
00000000
00000000
00000000
,
00010000
00100000
00010000
01000000
00100000
01000000
00000000
00010000
,
10000000
01000000
00010000
00001000
00000010
00000100
00001000
00000100
,
00000010
00000001
00001000
00000010
00000100
00000010
00000000
00001000
,
00000000
00000001
00000100
00001000
00010000
00100000
01000000
00000000
,
00010000
10000000
00010000
00100000
01000000
00100000
00000000
00010000
,
10000000
01000000
00010000
00001000
00000010
00000001
00001000
00000001
,
00000100
00000010
00001000
00000000
00000110
00000000
00000001
00001001
,
00000000
00001000
00002100
00000000
00003000
00000101
00000000
00000101
,
00001000
00000001
00000100
00000000
00000010
00000100
00000000
00000100
,
00000001
00000100
00001000
00010000
01000000
00100000
01000000
00000000
,
10000000
01000000
00000000
01000000
00100000
00000000
00001000
01000000
,
00100000
01000000
00010000
10000000
00100000
01000000
00001000
00000000
,
00010000
00000100
00000010
00000100
00001000
00000010
00000000
00000100
,
00000001
00000100
00000010
00001000
00000001
00000100
00000000
00000001
,
00000010
00000001
00000100
00000010
00010000
00001000
01000000
00200000
,
00000000
01300000
00010000
20000000
30000000
00000000
00000000
00000000
,
01000000
00000000
00200000
00000000
01300000
00200000
00000000
01300000
,
20000000
00000000
00000000
00020000
00000000
00000000
30030000
00000000
,
01010000
00000000
00002000
00000000
01003000
00002000
00000000
00103000
,
00000000
01000000
00000000
02000000
00000000
00000000
03000000
00000000
,
11000000
00000000
00010000
00000000
10000000
00010000
00000000
01000000
,
00001000
00000000
00010000
00000020
00000030
00000200
00000300
00000000
,
00001010
00000000
00001000
00000001
00001000
00000000
00000100
00000010
,
00000000
00000000
00000200
00000000
00001300
00000200
00000000
00000300
,
00001000
00000010
00000001
00000010
00000100
00000001
00000000
00000001
,
00001000
00000000
00001000
00000020
00000000
00000000
00001030
00000000
,
00000100
00000010
00000002
00000000
00001003
00000001
00000000
00001000
,
00000000
00000100
00000000
00010000
00000000
00002000
00003000
00000000
,
01000000
00010000
00100000
00010000
01000000
10000000
00000000
01000000
,
00100000
10000000
00100000
01000000
00000000
00010000
00000000
01000000
,
00100000
10000000
01000000
00100000
00001000
00010000
00000100
00000020
,
00000000
00000130
00001000
00000001
00000000
00000020
00000000
00000030
,
00000001
00000100
00000010
00001000
00000010
00000001
00000000
00000010
,
00000100
00000001
00001000
00000100
00000000
00010000
00001000
00010000
,
00100000
10000000
01000000
00100000
00001000
00010000
00000100
00000020
,
00000000
00000130
00001000
00000002
00000003
00000000
00000000
00000000
;

//---------------dance-double - Telperion----------------
#NOTES:
     dance-double:
     Telperion:
     Challenge:
     12:
     0.861,0.860,0.136,0.136,0.474,764.000,18.000,18.000,61.000,0.000,15.000,0.861,0.860,0.136,0.136,0.474,764.000,18.000,18.000,61.000,0.000,15.000: // measure 0
M0000000
00000000
00000000
000M0000
0M000000
00000000
00000000
0000M000
00M00000
00000000
00000000
00000000
00000000
00000000
00000000
00M00000
,  // measure 1
00M00000
00000000
00000000
00000000
00000000
00000000
00000000
00000000
00000000
00000000
00000000
00000000
000M0000
00000000
0000M000
00000000
0000000M
00000000
000000M0
00000000
00000M00
00000000
0000M000
00000000
0000000M
00000000
00000000
000000M0
00000000
00000000
00000000
00000000
00000000
00000000
00000000
00000000
0000M000
00000000
00000000
00000M00
00000000
00000000
0000M000
00000000
00000000
00000M00
00000000
00000000
,  // measure 2
000000M0
00000000
000000M0
00000000
00000000
00000000
00000000
00000000
00000000
00000000
00000000
00000000
00000M00
00000000
00000000
00000000
0000000M
00000000
0000M000
00000000
00000000
00000000
00000000
00000000
00M00000
00000000
00000000
000M0000
00000000
00000000
00000000
00000000
,  // measure 3
10000000
01000000
10000000
00100000
00000000
01000000
00001000
00040000
,  // measure 4
00000000
00030000
00000000
00000000
00001000
00000000
00010000
00000000
00000100
00000000
00000010
00000000
00000004
00000000
00000000
00000003
,  // measure 5
00000100
00000010
00000100
00000001
00000010
00000000
00000010
00004000
,  // measure 6
00000000
00003000
00001000
00000000
00010000
00000000
00000000
00000000
00010000
00000000
00100000
00000000
00000000
00000000
01000000
00010000
,  // measure 7
01000000
10000000
01000000
00010000
00200000
00300000
00000000
00001000
,  // measure 8
00010000
00000000
00000000
00000000
00000100
00000000
00000001
00000000
00000000
00000000
00000400
00000000
00000000
00000300
00000000
00000000
,  // measure 9
00001000
00000000
00000001
00000100
00001000
00010000
00100000
10000000
,  // measure 10
00000000
10000000
01000000
00000000
00000000
00100000
00010000
10000000
00100000
01000000
00100000
00000000
00000000
00000000
00000000
00000000
,  // measure 11
10010000
00000000
00010000
00000000
00100000
00000000
01000000
00000000
10000000
01000000
10000000
00000000
00010000
00000000
01010000
00000000
,  // measure 12
00001000
00000000
00010000
00000000
00001000
00000000
00100000
00000000
00000100
00001000
00000100
00000000
00010000
00000000
00010000
00000000
,  // measure 13
00001000
00000100
00000001
00000010
00000100
00010000
00001000
00011000
,  // measure 14
01000000
00000000
00001000
00000000
01000000
00000000
00040000
00000000
10030000
00100000
10000000
00000000
00010000
00100000
00010000
00000000
,  // measure 15
01000000
00000000
00100000
00000000
00010000
00000000
00001000
01000000
00001000
00000000
00010000
00000000
00000100
00000000
00001100
00000000
,  // measure 16
00002000
00000000
00003001
00000000
00000100
00000000
00001000
00000000
00010000
00001000
00100000
00000000
00010000
00000000
00110000
00000000
,  // measure 17
00001000
00010000
00000100
00001000
00000010
00010000
00000010
00011000
,  // measure 18
00100000
00000000
00010000
00000000
00010000
00000000
00040000
00000000
01030000
00100000
01000000
00000000
00040000
00000000
00130000
01000000
,  // measure 19
10000000
00000000
00010000
00000000
00100000
00000000
10010000
00000000
10000000
00100000
10000000
00000000
00010000
00000000
00110000
00000000
,  // measure 20
00100000
00000000
00001000
00000000
00010000
00000000
00000010
00000000
00010000
00001000
00010000
00000000
00000100
00000000
00000100
00000000
,  // measure 21
00010000
00001000
00000100
00000001
00000010
00000001
00001000
00011000
,  // measure 22
00001000
00000000
00100000
00000000
00010000
00000000
00040000
00000000
10030000
00010000
01000000
00000000
00010000
10000000
00100000
00000000
,  // measure 23
01000000
00000000
00100000
00000000
01000000
00000000
00010000
00000000
01000000
00100000
01000000
00000000
00001000
00000000
00011000
00000000
,  // measure 24
00010000
00000000
00000100
00000000
00000010
00000000
00000002
00000000
00000003
00001000
00000010
00000000
00000000
00001000
00000001
00000000
,  // measure 25
00000010
00000100
00000001
00000100
00001000
00010000
00100000
20000000
,  // measure 26
00000000
30100000
00010000
02000000
00000000
00000000
03000000
00000000
,  // measure 27
00010000
00000000
10000000
00000000
00010000
00000000
01000000
00001000
01000000
00001000
00010000
00000000
00000100
00010000
00000100
00010000
,  // measure 28
00001000
00000000
00010000
00000000
00000100
00000000
00001000
00000001
00001000
00000001
00000010
00000000
00000010
00000000
00000010
00000000
,  // measure 29
00000001
00001000
00000100
00000100
00010000
00001000
00001000
00100000
,  // measure 30
01000000
00000000
10000000
00000000
00010000
00000000
00040000
00000000
01030000
00100000
01000000
00000000
00010000
10000000
00010000
10000000
,  // measure 31
00010000
00000000
10000000
00000000
00010000
00000000
00100000
00001000
00010000
00001000
00010000
00000000
00000010
00010000
00001000
00010000
,  // measure 32
00001000
00010000
00000010
00000010
00000100
00000010
00000010
00010000
,  // measure 33
00001000
00010000
01000000
10000000
00100000
10000000
00001000
00110000
,  // measure 34
10000000
00000000
01000000
00000000
00010000
00000000
00004000
00000000
00013000
00000100
00010000
00000000
00000100
00000000
00000100
00000000
,  // measure 35
00001000
00000000
00000001
00000000
00001000
00000000
00000100
00010000
00001000
00010000
00001000
00000000
01000000
00001000
00010000
00001000
,  // measure 36
00010000
00000000
00001000
00000000
00100000
00000000
00010000
10000000
00100000
10000000
00010000
00000000
00100000
00000000
00100000
00000000
,  // measure 37
00010000
10000000
00100000
00010000
00001000
00100000
00001000
00000010
,  // measure 38
00000001
00000000
00000001
00000000
00001000
00000000
00001000
00000000
00000001
00000010
00000001
00000000
00000100
00000010
00000100
00000010
,  // measure 39
00001000
00000000
00000001
00000000
00001000
00000000
00000100
00010000
00001000
00010000
00001000
00000000
01000000
00010000
01000000
00000000
,  // measure 40
00010000
00000000
00100000
00000000
00100000
00000000
00001000
00010000
00000010
00010000
00000010
00000000
00010000
00001000
00100000
00000000
,  // measure 41
00010000
00100000
10000000
00100000
00010000
00001000
00000100
00000002
,  // measure 42
00000000
00000103
00001000
00000020
00000000
00000000
00000030
00000000
,  // measure 43
00000100
00000000
00000001
00000000
00000100
00000000
00000010
00000000
00010000
00001000
00010000
00000000
00000100
00001000
00000100
00001000
,  // measure 44
00000001
00000010
00001000
20000000
00000000
00000000
00000000
00000000
,  // measure 45
30100000
01000000
01100000
10000000
00010000
00011000
00010000
00000100
,  // measure 46
00001000
00000000
00000010
00000000
00000100
00000000
00000100
00000000
00000001
00000010
00000001
00000000
00001000
00000010
00000100
00000000
,  // measure 47
00000010
00001000
00000100
00010000
00001000
00110000
00100000
00100000
,  // measure 48
00001000
00000000
00010000
00000000
00100000
00000000
01000000
00000000
00010000
00100000
00010000
00000000
10000000
00000000
00100000
00000000
,  // measure 49
00010000
00001000
00000100
00000010
00001000
00000010
00010000
00011000
,  // measure 50
00000000
00100000
00100000
00000000
01000000
01000000
00000000
00000000
,  // measure 51
10000000
00000000
00010000
00000000
01000000
00000000
00001000
00000000
00100000
00010000
00100000
00000000
00001000
00010000
00001000
00010000
,  // measure 52
00000010
00000000
00000010
00000000
00000100
00000000
00000001
00000000
00001000
00000100
00001000
00000000
00000010
00000000
00000010
00000000
,  // measure 53
00001000
00000100
00010000
00110000
00010000
01000000
00000010
00001000
,  // measure 54
00000001
00000000
00000010
00000000
00000100
00000000
00000400
00000000
00010300
00001000
00010000
00000000
00000100
00000000
00010000
00000000
,  // measure 55
00001000
00000100
00000010
00000001
00000010
00000100
00001000
00000100
,  // measure 56
00000010
00010000
00001000
00000100
00000010
00010000
00001000
00100000
,  // measure 57
01000000
00100000
10000000
00100000
00010000
00001000
00000100
00000002
,  // measure 58
00000000
00000103
00001000
00000020
00000000
00000030
00000000
00000000
,  // measure 59
00001000
00000000
00000001
00000000
00000010
00000000
00000001
00001000
00000001
00001000
00000100
00000000
00010000
00000100
00010000
00000100
,  // measure 60
00001000
00000000
00000100
00000000
00010000
00000000
00001000
00000000
01000000
00010000
01000000
00000000
00100000
00000000
01000000
00000000
,  // measure 61
00001000
00100000
00001000
00010000
01000000
00100000
01000000
01000000
,  // measure 62
10000000
00000000
00100000
00000000
00100000
00000000
00400000
00000000
10300000
00010000
10000000
00000000
01000000
00100000
00010000
00000000
,  // measure 63
00100000
00000000
00001000
00000000
00010000
00000000
00000010
00001000
00000010
00001000
00000100
00000000
00010000
00000010
00010000
00000010
,  // measure 64
00000100
00000000
00000001
00000000
00000010
00000000
00000100
00000000
00001000
00000010
00001000
00000000
00000100
00000000
00000100
00000000
,  // measure 65
00010000
00001000
00100000
00001000
00000010
00001000
00010000
00011000
,  // measure 66
00010000
00000000
00001000
00000000
00001000
00000000
00004000
00000000
00103000
01000000
00100000
00000000
00010000
00000000
00100000
00000000
,  // measure 67
00010000
00000000
10000000
00000000
00100000
00000000
01000000
00010000
01000000
00010000
00100000
00000000
00000100
00010000
00001000
00010000
,  // measure 68
00000010
00000000
00000100
00000000
00000010
00000000
00001000
00000000
00000001
00000010
00000001
00000000
00001000
00000000
00001000
00000000
,  // measure 69
00000100
00010000
00001000
00100000
00010000
00100000
00000010
00001000
,  // measure 70
00000100
00000000
00010000
00000000
00010000
00000000
00040000
00000000
00030010
00000100
00000010
00000000
00010000
00000000
00001000
00000000
,  // measure 71
00100000
01000000
10000000
10000000
00010000
00010000
00100000
00010000
,  // measure 72
10000000
00000000
01000000
00000000
00010000
00000000
00010000
00000000
00001000
00010000
00001000
00000000
00000100
00000000
00000001
00000000
,  // measure 73
00001000
00000010
00000001
00000010
00001000
00010000
01000000
20000000
,  // measure 74
00000000
31000000
00010000
00200000
00000000
00000000
00300000
00000000
,  // measure 75
01000000
10000000
00010000
00100000
00000010
00001000
00000000
00000001
,  // measure 76
00000010
00000100
00100000
00001000
01000000
00000010
00010000
00010000
,  // measure 77
00000100
00000010
00000001
00001000
00000010
00100000
00000000
00010000
,  // measure 78
10000000
00000000
00100000
00000000
01000000
00000000
01000000
00000000
00000100
00001000
00000100
00000000
00000000
00000000
00010000
00000000
,  // measure 79
00011000
00001000
00100000
00000010
00001000
00000001
00000000
00000100
,  // measure 80
00000010
00000000
00010000
00000000
00000100
00000000
00100000
00000000
01000000
00100000
01000000
00000000
10000000
00000000
10000000
00000000
,  // measure 81
00010000
00100000
00000010
00001000
00000001
00000100
00000000
00000100
,  // measure 82
00000010
00000000
00010000
00000000
00000010
00000000
00000010
00000000
01000000
00010000
01000000
00000000
00001000
00010000
00001000
00010000
,  // measure 83
00001000
00000000
00100000
00000000
01000000
00000000
10000000
01000000
10000000
01000000
10000000
00000000
00010000
01000000
00010000
00000000
,  // measure 84
00100000
00000000
00001000
00000000
01000000
00000000
00010000
00000000
00100000
01000000
00100000
00000000
00002000
00000000
00003000
00000000
,  // measure 85
00010000
00000010
00010000
00001000
00000100
00000100
00000010
00000010
,  // measure 86
00001000
00000000
00000001
00000000
00000001
00000000
00000004
00000000
00000013
00000100
00001000
00000000
00000200
00000000
00000300
00000000
,  // measure 87
00010000
00000000
00001000
00000000
00000100
00000000
00000001
00000000
00000010
00000100
00000010
00000000
00000001
00000000
00001000
00000000
,  // measure 88
00000010
00000000
00000100
00000000
00001000
00000000
00010000
00000000
00000100
00001000
00000100
00000000
00010000
00000000
00010000
00000000
,  // measure 89
01000000
00100000
10000000
00100000
00010000
00001000
00000100
00000002
,  // measure 90
00000000
00000103
00001000
00000020
00000000
00000000
00000030
00000000
,  // measure 91
00010000
00000000
00001000
00000000
00100000
00000000
00010000
00000000
01000000
00100000
01000000
00000000
00010000
00000000
00100000
00000000
,  // measure 92
01000000
00000000
10000000
00000000
00010000
00000000
01000000
00000000
00000100
00001000
00000100
00000000
00010000
00000000
00001000
00000000
,  // measure 93
00000100
00000010
00000001
00000010
00001000
00010000
01000000
20000000
,  // measure 94
00000000
31000000
00010000
00200000
00000000
00000000
00300000
00000000
,  // measure 95
M0000000
00000000
00000000
000M0000
0M000000
00000000
00000000
0000M000
00M00000
00000000
00000000
00000000
00000000
00000000
00000000
00M00000
,  // measure 96
00M00000
00000000
00000000
00000000
00000000
00000000
00000000
00000000
00000000
00000000
00000000
00000000
000M0000
00000000
0000M000
00000000
0000000M
00000000
000000M0
00000000
00000M00
00000000
0000M000
00000000
0000000M
00000000
00000000
000000M0
00000000
00000000
00000000
00000000
00000000
00000000
00000000
00000000
00000000
00000000
00000000
00000000
00000000
00000000
00000000
00000000
00000000
00000000
00000000
00000000
,  // measure 97
000000M0
00000000
000000M0
00000000
00000000
00000000
00000000
00000000
00000000
00000000
00000000
00000000
0000M000
00000000
00000000
00000000
00000M00
00000000
000M0000
00000000
00000000
00000000
00000000
00000000
0M000000
00000000
00000000
M0000000
00000000
00000000
000M0000
00000000
,  // measure 98
00000000
0M000000
00000000
00000000
00M00000
00000000
0M000000
00000000
00000000
00000000
00000000
00000000
00M00000
00000000
00000000
00000000
M0000000
0M000000
00M00000
000M0000
00000000
00000000
00000000
00000000
00000000
00000000
00000000
00000000
0000M000
00000000
00000000
00000000
,  // measure 99
00000000
00000000
00000000
000M0000
0000M000
000M0000
00000000
00000000
00000000
00000000
00000000
00000000
00000000
00000000
00000000
00000000
;
