#TITLE:A Warrior's Call;
#SUBTITLE:;
#ARTIST:Volbeat;
#TITLETRANSLIT:;
#SUBTITLETRANSLIT:;
#ARTISTTRANSLIT:;
#GENRE:Rock;
#CREDIT:Telperion;
#BANNER:awc-bn.png;
#BACKGROUND:../fallback-bg.png;
#LYRICSPATH:;
#CDTITLE:;
#MUSIC:awc-1.ogg;
#OFFSET:-0.355;
#SAMPLESTART:54.348;
#SAMPLELENGTH:13.197;
#SELECTABLE:YES;
#DISPLAYBPM:141.250:150.000;
#BPMS:0.000=150.000
,28.000=145.750
,35.000=141.250
,36.000=145.000
,64.000=149.000
,68.000=145.000
,96.000=149.000
,100.000=146.000
,108.000=147.000
,132.000=145.000
,160.000=149.000
,164.000=145.000
,192.000=149.000
,196.000=146.000
,204.000=147.000
,252.000=145.000
,276.000=144.000
;
#STOPS:
;
#BGCHANGES:;
#KEYSOUNDS:;
#ATTACKS:;

//---------------dance-double - Telperion----------------
#NOTES:
     dance-double:
     Telperion:
     Challenge:
     11:
     0.532,0.741,0.275,0.089,0.951,398.000,34.000,11.000,54.000,18.000,20.000,0.532,0.741,0.275,0.089,0.951,398.000,34.000,11.000,54.000,18.000,20.000:
M00M0000
00000000
M00M0000
00000000
00000000
00000000
00000000
00000000
00000000
00000000
00000000
00000000
,
M00M0000
00000000
M00M0000
00000000
00000000
00000000
00000000
00000000
00000000
00000000
00000000
00000000
,
0000M00M
00000000
0000M00M
00000000
00000000
00000000
00000000
00000000
00000000
00000000
00000000
00000000
,
0000M00M
00000000
0000M00M
00000000
00000000
00000000
00000000
00000000
00000000
00000000
00000000
00000000
,
M00M0000
00000000
M00M0000
00000000
00000000
00000000
00000000
00000000
00000000
00000000
00000000
00000000
,
M00M0000
00000000
M00M0000
00000000
00000000
00000000
00000000
00000000
00000000
00000000
00000000
00000000
,
0000M00M
00000000
0000M00M
00000000
00000000
00000000
00000000
00000000
00000000
00000000
00000000
00000000
,
00002002
00000000
00000000
00000000
,
00000000
00000000
00000000
00003013
,
00001100
00000000
00000100
00010000
01000000
10000000
00100000
00000000
01000000
00001000
00000100
00000001
,
00001000
00000000
00000000
00000000
,
00001010
00000000
00000010
00010000
00100000
10000000
01000000
00000000
00100000
00001000
00000010
00000100
,
00001000
00000000
00000000
00000000
,
01010000
00000000
00001000
00000100
00000001
00001000
00000100
00000000
00010000
01000000
10000000
00010000
,
01000000
00000000
00000000
00000000
,
00110000
00000000
00000000
00000000
00100000
00000000
00001000
00000000
00000010
00000000
00000001
00000000
00000100
00000000
00000000
00000000
00000100
00000001
00000100
00000000
00000010
00000000
00000100
00000000
,
00000001
00000000
00000010
00000000
00000100
00000000
00001000
00000000
00000100
00000000
00010000
00001000
00010000
00000000
00000100
00000000
00010000
00000000
00001000
00000000
00100000
00000000
01000000
00000000
,
10000000
00000000
10000000
00100000
00000000
00100000
01000000
00000000
01000000
00001000
00000000
00011000
,
00000000
00000000
00000000
00000000
00001000
00000000
00010000
00000000
00000000
00000000
00010000
00000000
00000100
00000000
00000000
00000000
00000100
00001000
00000100
00000000
00000000
00000000
00000010
00000000
,
00000001
00000000
00000001
00000010
00000000
00000100
00010000
00000000
00001000
00010000
00000000
00100000
,
00000000
00000000
00000000
00000000
01010000
00000000
00000000
00000000
00000000
00000000
00100000
00000000
01000000
00000000
00000000
00000000
01000000
00010000
01000000
00000000
00000000
00000000
00010000
00000000
,
10000000
00000000
10000000
01000000
00000000
00100000
00001000
00000000
00100000
00010000
00000000
00000010
,
00000000
00000000
00000000
00000000
00000100
00000000
00010000
00000000
00000000
00000000
00001000
00000000
00000100
00000000
00000000
00000000
00000001
00000100
00000001
00000000
00000000
00000000
00000010
00000000
,
00000100
00000000
00000000
00000000
00000100
00000000
00000001
00000000
00000100
00000000
00001000
00000000
00000001
00000000
00000000
00000000
00000100
00000000
00000010
00000000
00000100
00000000
00000001
00000010
,
00000001
00000100
00000010
00001000
00000100
00010000
00001000
00100000
00010000
01000000
00100000
10000000
,
00400000
40000000
00000000
00000000
00000000
00000000
00000000
00000000
00000000
00000000
00300000
00000000
,
00040000
00000000
00000000
00000000
00000000
00000000
00000000
00000000
00000000
00000000
00030000
30000000
,
01000000
11100000
00000000
00111000
,
00000000
00000000
00000000
00001110
00000000
00000000
00000000
00000000
00000000
00000111
00000000
00000001
,
00000040
00000004
00000000
00000000
00000000
00000000
00000000
00000000
00000000
00000000
00000030
00000000
,
00004000
00000000
00000000
00000000
00000000
00000000
00000000
00000000
00000000
00000000
00003000
00000003
,
00000100
00000111
00000000
00011010
,
00000000
00000000
00000000
01110000
00000000
00010000
00100000
01000000
10000000
01010000
10000000
00010000
,
10000000
00000000
00100000
00010000
00001000
00000010
00000001
00000000
00000100
00001000
00010000
01000000
,
10000000
00001000
01000000
00000010
00010000
00001000
00100000
00000100
00010000
00000002
00000000
00000003
,
00000011
00000000
00000010
00001000
00010000
00100000
10000000
00000000
01000000
00010000
00001000
00000100
,
00000002
00000003
00000001
00000010
00000001
00001000
00000020
00000000
00020030
00000000
00032000
00000000
,
10003000
00000000
00100000
00010000
00001000
00000010
00000001
00000000
00000100
00001000
00010000
01000000
,
20000000
00000000
30010000
10000000
00001000
00010000
00000001
00010000
00000100
00000020
00000000
00000030
,
00000011
00000000
00000000
00000000
00000010
00000000
00001000
00000000
00010000
00000000
00100000
00000000
10000000
00000000
00000000
00000000
01000000
00100000
01000000
00000000
00000000
00000000
10000000
00000000
,
00010000
10000000
00010000
00000000
01000000
00000000
00001000
01000000
00001000
00000000
00010000
00000000
00000010
00010000
00000010
00000000
00001000
00000000
00000100
00001000
00000100
00000000
00000010
00000000
,
00000001
00000000
00000001
00000010
00000000
00000010
00000100
00000000
00000100
00010000
00000000
00011000
,
00000000
00000000
00000000
00000000
00010000
00000000
00001000
00000000
00000000
00000000
00001000
00000000
01000000
00000000
00000000
00000000
00010000
10000000
00010000
00000000
00000000
00000000
01000000
00000000
,
00100000
00000000
10000000
00100000
00000000
01000000
00001000
00000000
00010000
00001000
00000000
00000010
,
00000000
00000000
00000000
00000000
00001100
00000000
00000000
00000000
00000000
00000000
00000010
00000000
00000100
00000000
00000000
00000000
00001000
00000001
00001000
00000000
00000000
00000000
00000100
00000000
,
00000010
00000000
00000001
00000010
00000000
00000100
00010000
00000000
00000100
00001000
00000000
01000000
,
00000000
00000000
00000000
00000000
00100000
00000000
00001000
00000000
00000000
00000000
00010000
00000000
01000000
00000000
00000000
00000000
10000000
01000000
10000000
00000000
00000000
00000000
00100000
00000000
,
01000000
00000000
00000000
00000000
01000000
00000000
10000000
00000000
01000000
00000000
00010000
00000000
10000000
00000000
00000000
00000000
01000000
00000000
00100000
00000000
01000000
00000000
10000000
01000000
,
10000000
01000000
00100000
00010000
01000000
00001000
00010000
00000010
00001000
00000100
00000010
00000100
,
00000004
00000400
00000000
00000000
00000000
00000000
00000000
00000000
00000000
00000000
00000003
00000000
,
00000040
00000000
00000000
00000000
00000000
00000000
00000000
00000000
00000000
00000000
00000030
00000300
,
00001000
000M1110
00000000
000111M0
,
00000000
00000000
00000000
01M11000
00000000
00000000
00000000
00000000
00000000
0111M000
00000000
01000000
,
40000000
04000000
00000000
00000000
00000000
00000000
00000000
00000000
00000000
00000000
30000000
00000000
,
00400000
00000000
00000000
00000000
00000000
00000000
00000000
00000000
00000000
00000000
00300000
03000000
,
00010000
111M0000
00000000
01M11000
,
00000000
00000000
00000000
00000000
00000000
00000000
0011M010
00000000
00000000
00000000
00000000
00000000
00000000
00000000
00000000
00000000
00001000
00000100
00000011
00000000
00000000
00000000
00000000
00000000
,
00000040
00000400
00000000
00000000
00000000
00000000
00000000
00000000
00000000
00000300
00000030
00000001
,
00004000
00000004
00000000
00000000
00000000
00000000
00000000
00000000
00000000
00000000
00003000
00000003
,
00000100
0000M111
00000000
00M11100
,
00000000
00000000
00000000
00000000
00000000
00000000
001M1010
00000000
00000000
00000000
00000000
00000000
00000000
00000000
00000000
00000000
00010000
01000000
1010M000
00000000
00000000
00000000
00000000
00000000
,
00400000
04000000
00000000
00000000
00000000
00000000
00000000
00000000
00000000
03000000
00300000
10000000
,
00004000
00040000
00000000
00000000
00000000
00000000
00000000
00000000
00000000
00030000
00003000
00000100
,
00000010
00000000
00000100
00000001
00000010
00000100
00000010
00000000
00001000
00100000
01000000
10000000
,
00100000
00000000
01000000
00100000
00000000
01000000
00100000
00000000
01000000
00100000
00000000
01000000
,
01010000
00000000
01000000
00001000
00000100
00000001
00000010
00000000
00000100
00010000
01000000
10000000
,
00100000
00000000
01000000
00100000
00000000
01000000
00100000
00000000
01000000
00100000
00000000
01000000
,
01010000
00000000
01000000
00001000
00000100
00000001
00000010
00000000
00000100
00010000
01000000
10000000
,
00010000
00000000
00000000
00000000
10000000
00000000
00010000
00000000
00000000
00000000
10000000
00000000
00010000
00000000
00000000
00000000
10000000
00010000
10000000
00000000
00000000
00000000
00010000
00000000
,
002200MM
00000000
000000M0
00000000
00000000
00000000
00000000
00000000
00000000
00000000
00000000
00000000
,
00000MM0
00000000
00000M00
00000000
00000000
00000000
00000000
00000000
00000000
00000000
00000000
00000000
,
0033MM00
00000000
0000M000
00000000
00000000
00000000
00000000
00000000
00000000
00000000
00000000
00000000
,
000MM000
00000000
000M0000
00000000
00000000
00000000
00000000
00000000
00000000
00000000
00000000
00000000
,
00MM0000
00000000
00M00000
00000000
00000000
00000000
00000000
00000000
00000000
00000000
00000000
00000000
;

//---------------dance-double - Telperion----------------
#NOTES:
     dance-double:
     Telperion:
     Hard:
     9:
     0.459,0.612,0.259,0.105,0.700,352.000,32.000,13.000,0.000,0.000,0.000,0.459,0.612,0.259,0.105,0.700,352.000,32.000,13.000,0.000,0.000,0.000: // measure 0
00000000
00000000
00000000
00000000
,  // measure 1
00000000
00000000
00000000
00000000
,  // measure 2
00000000
00000000
00000000
00000000
,  // measure 3
00000000
00000000
00000000
00000000
,  // measure 4
00000000
00000000
00000000
00000000
,  // measure 5
00000000
00000000
00000000
00000000
,  // measure 6
00000000
00000000
00000000
00000000
,  // measure 7
00000000
00000000
00000000
00000000
,  // measure 8
00000000
00000000
00000000
00000000
,  // measure 9
00001001
00000000
00000001
00000100
00000010
00000100
00000001
00000000
00001000
00000100
00000010
00000100
,  // measure 10
00001000
00000000
00000000
00000000
,  // measure 11
00011000
00000000
00010000
01000000
00100000
01000000
10000000
00000000
00010000
01000000
00100000
01000000
,  // measure 12
00010000
00000000
00000000
00000000
,  // measure 13
10010000
00000000
00010000
00100000
01000000
00100000
00010000
00000000
10000000
00100000
01000000
00100000
,  // measure 14
10000000
00000000
00000000
00000000
,  // measure 15
01010000
00000000
01000000
00001000
00010000
00000100
00001000
00000000
00000100
00010000
00001000
01000000
,  // measure 16
00100000
01000000
00010000
01000000
00001000
00010000
01000000
10000000
01000000
00100000
01000000
10000000
,  // measure 17
00010000
00000000
10000000
00100000
00000000
00100000
01000000
00000000
01000000
00001000
00000000
00011000
,  // measure 18
00000000
00000000
00010000
00000100
00000000
00010000
00001000
00000000
00001000
00000100
00000000
00000100
,  // measure 19
00000001
00000000
00000000
00001000
00000000
00000001
00000100
00000000
00000001
00001000
00000000
00010100
,  // measure 20
00000000
00000000
00011000
00000000
00000000
01000000
00001000
00000000
00001000
00010000
00000000
00100000
,  // measure 21
10000000
00000000
10000000
00100000
00000000
00100000
01000000
00000000
01000000
00001000
00000000
00011000
,  // measure 22
00000000
00000000
00010000
00000100
00000000
00010000
00001000
00000000
00001000
00000100
00000000
00000100
,  // measure 23
00000001
00000000
00000001
00000010
00000000
00001000
00010000
00000000
00100000
10000000
00000000
01000000
,  // measure 24
00100000
01000000
10000000
00010000
00100000
01000000
00010000
00001000
00100000
00001000
00010000
00000100
,  // measure 25
00000020
00000000
00000000
00000000
,  // measure 26
00000230
00000000
00000000
00000000
,  // measure 27
00001300
00000101
00000010
00001100
,  // measure 28
00010000
00001100
00001000
01010000
,  // measure 29
00200000
00000000
00000000
00000000
,  // measure 30
02300000
00000000
00000000
00000000
,  // measure 31
03010000
11000000
00100000
01010000
,  // measure 32
00001000
00000000
00000000
00001100
00000000
00010000
00001000
00010000
00000100
00001000
00000100
00000010
,  // measure 33
00000001
00000000
00001000
00000010
00000001
00000010
00001000
00000000
00000001
00000010
00001000
00000010
,  // measure 34
00000001
00000000
00000000
00000000
,  // measure 35
00001100
00000000
00010000
00000100
00001000
00000100
00010000
00000000
00001000
01000000
00100000
01000000
,  // measure 36
00010000
00000000
00000000
00000000
,  // measure 37
10010000
00000000
10000000
00100000
00010000
00100000
10000000
00000000
00010000
00100000
10000000
00100000
,  // measure 38
00010000
00000000
00000000
00000000
,  // measure 39
01010000
00000000
00001000
00010000
00000100
00010000
00001000
00000000
01000000
00001000
00010000
00000100
,  // measure 40
00000010
00000100
00001000
00000100
00010000
00001000
00000100
00000010
00001000
00000010
00000100
00000001
,  // measure 41
00001000
00000000
00000001
00000010
00000000
00000010
00000100
00000000
00000100
00010000
00000000
00011000
,  // measure 42
00000000
00000000
00001000
01000000
00000000
00001000
00010000
00000000
00010000
01000000
00000000
01000000
,  // measure 43
10000000
00000000
00000000
00010000
00000000
10000000
01000000
00000000
10000000
00010000
00000000
01001000
,  // measure 44
00000000
00000000
00011000
00000000
00000000
00000100
00010000
00000000
00010000
00001000
00000000
00000010
,  // measure 45
00000001
00000000
00000001
00000010
00000000
00000010
00000100
00000000
00000100
00010000
00000000
00011000
,  // measure 46
00000000
00000000
00001000
01000000
00000000
00001000
00010000
00000000
00010000
01000000
00000000
01000000
,  // measure 47
10000000
00000000
10000000
01000000
00000000
00010000
00001000
00000000
00000010
00000001
00000000
00000100
,  // measure 48
00000010
00000100
00000001
00001000
00000010
00000100
00001000
00010000
00000010
00010000
00001000
01000000
,  // measure 49
00200000
00000000
00000000
00000000
,  // measure 50
02300000
00000000
00000000
00000000
,  // measure 51
03010000
10100000
01000000
00101000
,  // measure 52
00010000
00001100
00000010
00000101
,  // measure 53
00000020
00000000
00000000
00000000
,  // measure 54
00000230
00000000
00000000
00000000
,  // measure 55
00001300
00000101
00000010
00010100
,  // measure 56
00001000
01010000
00100000
10010000
,  // measure 57
00200000
00000000
00000000
00000000
,  // measure 58
02300000
00000000
00000000
00000000
,  // measure 59
03010000
00000000
00000000
11000000
00000000
00000000
00010000
10000000
01000000
00100000
00000000
00000000
,  // measure 60
00001000
00000000
00000000
00010010
00000000
00000000
00001000
00000100
00000010
00000001
00000000
00000000
,  // measure 61
00000020
00000000
00000000
00000000
,  // measure 62
00000230
00000000
00000000
00000000
,  // measure 63
00001300
00000000
00000001
00000100
00000010
00000100
00000001
00000000
00001000
00000100
00000010
00000100
,  // measure 64
00001000
00000000
00000100
00010000
00000000
00001000
00010000
00000000
00001000
01000000
00000000
00010000
,  // measure 65
01000000
00000000
00010000
00100000
01000000
00100000
00010000
00000000
10000000
00100000
01000000
00100000
,  // measure 66
10000000
00000000
10000000
01000000
00000000
00010000
00001000
00000000
00001000
00000100
00000000
00000001
,  // measure 67
00000010
00000000
00000001
00000100
00000010
00000100
00000001
00000000
00001000
00000100
00000010
00000100
,  // measure 68
00001000
00000000
00000100
00010000
00000000
00010000
00001000
00000000
00010000
00000100
00000000
00000100
,  // measure 69
00002000
00000000
00000000
00000000
,  // measure 70
00000000
00000000
00000000
00000000
,  // measure 71
00000000
00000000
00000000
00000000
,  // measure 72
00003000
00000000
00000000
00000000
;
