#TITLE:Tell Me Tell Me;
#SUBTITLE:;
#ARTIST:S#arp;
#TITLETRANSLIT:;
#SUBTITLETRANSLIT:;
#ARTISTTRANSLIT:;
#CREDIT:;
#BANNER:Disc.png;
#BACKGROUND:Title.png;
#LYRICSPATH:;
#CDTITLE:;
#MUSIC:Song.mp3;
#OFFSET:-3.650;
#SAMPLESTART:49.364;
#SAMPLELENGTH:12.000;
#SELECTABLE:YES;
#BPMS:0.000=130.000;
#STOPS:;
#BGCHANGES:;

//---------------techno-single4 - easy----------------
#NOTES:
     techno-single4:
     :
     Easy:
     3:
     0.242,0.230,0.121,0.000,0.000: // measure 1
0000
0000
0000
0000
,  // measure 1
0001
0001
0100
0100
,
0001
0001
1000
1000
,
0001
0010
0100
0010
,
0001
0010
1000
0010
,
0001
0001
0100
0100
,
0001
0001
1000
1000
,  // measure 2
0001
0010
0100
0010
,
0001
0010
1000
0000
,
0000
0010
0000
0010
,
0000
0001
0010
0100
,
0010
0001
0010
0100
,
0010
0001
0010
1000
,  // measure 3
0010
0001
0010
1000
,
0010
0001
0000
0001
,
0000
1000
0000
1000
,
0000
1000
1000
0001
,
0001
1000
0001
1000
,
0001
0100
0001
0100
,  // measure 4
0001
0100
0000
0001
,
0000
0001
0100
0001
,
0100
0001
1000
0001
,
1000
0001
0000
1000
,
0000
1100
0000
1100
,
0000
0011
0000
0011
,  // measure 5
0000
0100
0001
0100
,
0001
0001
0100
0001
,
0100
1000
1000
0001
,
0001
0100
0001
0100
,
0000
0110
0000
0011
,
0000
1100
0000
0011
,  // measure 6
0000
0100
0000
0100
,
0000
0001
0000
0001
,
0000
0100
0100
0001
,
0001
1000
1000
0001
,
0001
1000
0000
0001
,
0000
0100
0000
0001
,  // measure 7
0000
0001
0001
0100
,
0100
0001
0001
1000
,
1000
0001
0000
0100
,
0000
0001
0000
1000
,
0000
0100
0100
0001
,
0001
1000
1000
0001
,  // measure 8
0001
0100
0000
0001
,
0000
1000
0000
1000
,
0000
0011
0000
0110
,
0000
1100
0000
0011
,
0000
0100
0000
0001
,
0000
1000
0001
1000
,  // measure 9
0001
0100
0001
0100
,
0001
1000
0000
0001
;

//---------------techno-single5 - easy----------------
#NOTES:
     techno-single5:
     :
     Easy:
     3:
     0.242,0.230,0.121,0.000,0.000: // measure 1 // measure 1
00000
00000
00000
00000
,  // measure 2
00010
00010
01000
01000
,  // measure 3
00001
00001
10000
10000
,  // measure 4
00010
00100
01000
00100
,  // measure 5
00001
00100
10000
00100
,  // measure 6
00010
00010
01000
01000
,  // measure 7
00001
00001
10000
10000
,  // measure 8
00010
00100
01000
00100
,  // measure 9
00001
00100
10000
00000
,  // measure 10
00000
00100
00000
00100
,  // measure 11
00000
00010
00100
01000
,  // measure 12
00100
00010
00100
01000
,  // measure 13
00100
00001
00100
10000
,  // measure 14
00100
00001
00100
10000
,  // measure 15
00100
00001
00000
00001
,  // measure 16
00000
10000
00000
10000
,  // measure 17
00000
10000
10000
00001
,  // measure 18
00001
10000
00001
10000
,  // measure 19
00001
01000
00010
01000
,  // measure 20
00010
01000
00000
00010
,  // measure 21
00000
00010
01000
00010
,  // measure 22
01000
00001
10000
00001
,  // measure 23
10000
00001
00000
10000
,  // measure 24
00000
10100
00000
10100
,  // measure 25
00000
00101
00000
00101
,  // measure 26
00000
01000
00010
01000
,  // measure 27
00010
00010
01000
00010
,  // measure 28
01000
10000
10000
00001
,  // measure 29
00001
01000
00010
01000
,  // measure 30
00000
01100
00000
00110
,  // measure 31
00000
10100
00000
00101
,  // measure 32
00000
01000
00000
01000
,  // measure 33
00000
00010
00000
00010
,  // measure 34
00000
01000
01000
00010
,  // measure 35
00010
10000
10000
00001
,  // measure 36
00001
10000
00000
00001
,  // measure 37
00000
01000
00000
00010
,  // measure 38
00000
00010
00010
01000
,  // measure 39
01000
00001
00001
10000
,  // measure 40
10000
00010
00000
01000
,  // measure 41
00000
00001
00000
10000
,  // measure 42
00000
01000
01000
00010
,  // measure 43
00010
10000
10000
00001
,  // measure 44
00001
01000
00000
00010
,  // measure 45
00000
10000
00000
10000
,  // measure 46
00000
00110
00000
01100
,  // measure 47
00000
10100
00000
00101
,  // measure 48
00000
01000
00000
00010
,  // measure 49
00000
10000
00001
10000
,  // measure 50
00001
01000
00010
01000
,  // measure 51
00010
10000
00000
00001
;

//---------------techno-single8 - ----------------
#NOTES:
     techno-single8:
     :
     Easy:
     3:
     0.242,0.230,0.121,0.000,0.000: // measure 1
00000000
00000000
00000000
00000000
,  // measure 2
00000100
00000100
00100000
00100000
,  // measure 3
00000001
00000001
10000000
10000000
,  // measure 4
00000100
00010000
00100000
00010000
,  // measure 5
00000001
00010000
10000000
00010000
,  // measure 6
00000100
00000100
00100000
00100000
,  // measure 7
00000010
00000010
01000000
01000000
,  // measure 8
00000100
00001000
00100000
00001000
,  // measure 9
00000010
00000100
01000000
00000000
,  // measure 10
00000000
00001000
00000000
00001000
,  // measure 11
00000000
00001000
00010000
00100000
,  // measure 12
00010000
00001000
00010000
00100000
,  // measure 13
00010000
00000100
00010000
01000000
,  // measure 14
00010000
00000100
00010000
01000000
,  // measure 15
00010000
00000100
00000000
00000100
,  // measure 16
00000000
01000000
00000000
01000000
,  // measure 17
00000000
10000000
10000000
00000001
,  // measure 18
00000001
10000000
00000001
10000000
,  // measure 19
00000001
00100000
00001000
00100000
,  // measure 20
00001000
00100000
00000000
00001000
,  // measure 21
00000000
00001000
00100000
00001000
,  // measure 22
00100000
00000001
10000000
00000001
,  // measure 23
10000000
00000001
00000000
01000000
,  // measure 24
00000000
01010000
00000000
01010000
,  // measure 25
00000000
00010010
00000000
00010010
,  // measure 26
00000000
00100000
00000100
00100000
,  // measure 27
00000100
00000100
00100000
00000100
,  // measure 28
00100000
01000000
01000000
00000001
,  // measure 29
00000001
00100000
00001000
00100000
,  // measure 30
00000000
00110000
00000000
00011000
,  // measure 31
00000000
10010000
00000000
00010001
,  // measure 32
00000000
00100000
00000000
00100000
,  // measure 33
00000000
00001000
00000000
00001000
,  // measure 34
00000000
00100000
00100000
00001000
,  // measure 35
00001000
01000000
01000000
00000100
,  // measure 36
00000100
01000000
00000000
00000100
,  // measure 37
00000000
00100000
00000000
00001000
,  // measure 38
00000000
00001000
00001000
00100000
,  // measure 39
00100000
00000001
00000001
01000000
,  // measure 40
01000000
00001000
00000000
00100000
,  // measure 41
00000000
00000100
00000000
01000000
,  // measure 42
00000000
00100000
00100000
00001000
,  // measure 43
00001000
01000000
01000000
00000001
,  // measure 44
00000001
00100000
00000000
00001000
,  // measure 45
00000000
01000000
00000000
01000000
,  // measure 46
00000000
00011000
00000000
00110000
,  // measure 47
00000000
10010000
00000000
00010001
,  // measure 48
00000000
00100000
00000000
00001000
,  // measure 49
00000000
01000000
00000001
01000000
,  // measure 50
00000001
00100000
00001000
00100000
,  // measure 51
00001000
01000000
00000000
00000100
;
