#TITLE:Shadow;
#SUBTITLE:;
#ARTIST:NRG;
#TITLETRANSLIT:;
#SUBTITLETRANSLIT:;
#ARTISTTRANSLIT:;
#CREDIT:;
#BANNER:Disc.png;
#BACKGROUND:Title.png;
#LYRICSPATH:;
#CDTITLE:;
#MUSIC:Song.mp3;
#OFFSET:0.000;
#SAMPLESTART:41.667;
#SAMPLELENGTH:12.000;
#SELECTABLE:YES;
#BPMS:0.000=144.000;
#STOPS:;
#BGCHANGES:;

//---------------techno-single4 - normal----------------
#NOTES:
     techno-single4:
     :
     Medium:
     6:
     0.505,0.543,0.825,0.000,0.000,243.000,74.000,0.000,0.000,0.000,0.000,0.505,0.543,0.825,0.000,0.000,243.000,74.000,0.000,0.000,0.000,0.000:
0000
0000
0000
0000
,
0000
0000
0000
0000
,  // measure 1
0000
0011
0011
1010
,
1010
0101
0101
1100
,
1100
0000
0010
1000
0001
0000
0010
0001
,
1000
0000
0100
1000
0001
0000
0100
0001
,
1000
1010
1010
0011
,
0011
1100
1100
0101
,  // measure 2
0101
0000
0010
0001
1000
0000
0010
1000
,
0001
0000
0100
0001
1000
0000
0100
1000
,
0001
0010
0100
0010
,
0100
0000
0001
0001
0100
0000
1000
1000
,
0100
0000
0001
0001
0100
0000
1000
1000
,
0100
0000
0001
1000
1001
0000
1000
0001
,  // measure 3
1001
0000
0001
0100
1000
0000
0001
0100
,
1000
0000
0010
0001
0100
0000
0010
1000
,
0100
0000
0001
0001
0010
0000
1000
1000
,
0100
0000
0010
0000
0001
0000
0010
0001
,
0011
0000
0010
0000
1000
0000
0010
1000
,
1010
0000
1000
1000
0100
0000
0001
0001
,  // measure 4
0100
0000
1000
1000
0100
0000
0001
0001
,
0100
0000
1000
0001
1001
0000
0001
1000
,
1001
0000
1000
0100
0001
0000
1000
0100
,
0001
0000
0010
1000
0100
0000
0010
0001
,
0100
0000
1000
1000
0010
0000
0001
0001
,
0100
0000
0010
0000
1000
0000
0010
1000
,  // measure 5
1010
0000
0010
0000
0001
0000
0010
0001
,
0011
1000
0100
0001
,
0010
0011
0101
1100
,
1010
0010
0001
0100
,
1000
1001
0110
1001
,
0110
0000
0010
0000
0001
0000
0100
1000
,  // measure 6
0010
0000
0001
0000
0100
0000
1000
0010
,
0001
0000
0001
0100
1000
0001
1000
0100
,
0001
0011
1100
1010
,
0101
0001
0100
1000
,
0010
1010
1100
0101
,
0011
0010
1000
0100
,  // measure 7
0001
1001
0110
1001
,
0110
0000
0010
0000
1000
0000
0100
0001
,
0010
0000
1000
0000
0100
0000
0001
0010
,
1000
0000
1000
0100
0001
1000
0001
0100
,
1000
1010
0101
0011
,
1100
0010
0001
0010
,  // measure 8
1000
0000
0010
0001
0010
0000
0100
1000
,
0100
0010
0001
0010
,
1000
0000
0001
0001
1000
1000
0001
1000
,
0001
1000
0010
0000
1000
0000
0010
0000
,
0001
0000
0010
1000
0010
0000
0100
0001
,
0100
0010
1000
0010
,  // measure 9
0001
0000
1000
1000
0001
0001
1000
0001
,
1000
0001
1001
0000
;

//---------------techno-single4 - normal----------------
#NOTES:
     techno-single4:
     :
     Hard:
     8:
     0.505,0.543,0.825,0.000,0.000,243.000,74.000,0.000,0.000,0.000,0.000,0.505,0.543,0.825,0.000,0.000,243.000,74.000,0.000,0.000,0.000,0.000:
0000
0000
0000
0000
,
0000
0000
0000
0000
,  // measure 1
0000
0000
0011
0011
1010
0000
0011
0011
,
1010
0000
0101
0101
1100
0000
0101
0101
,
1100
0000
0010
0100
0001
0000
0010
0100
,
1000
0000
1000
0100
0010
0000
0001
0010
,
0100
0000
1100
1100
0101
0000
1100
1100
,
0101
0000
1010
1010
0011
0000
1010
1010
,  // measure 2
0011
0000
1000
0001
0010
0000
0001
1000
,
0010
0000
0001
0010
0100
0000
1000
0100
,
0010
0000
0010
0001
0100
1000
0010
0001
,
0100
0000
0001
1000
0100
0000
1000
0001
,
0100
0000
0001
1000
0100
0000
1000
0001
,
0100
1001
0011
1001
,  // measure 3
0101
1001
1010
1001
,
1100
0000
0010
0010
0001
0000
0100
0100
,
1000
0000
0010
0010
0001
0000
0100
0100
,
1000
0000
0001
1000
0001
0000
1000
0001
,
1000
0000
0011
1001
0101
0000
1010
1001
,
1100
0000
1000
0001
0010
0000
0001
1000
,  // measure 4
0010
0000
1000
00001
0010
0000
0001
1000
,
0010
1001
0101
1001
,
0011
1001
1100
1001
,
1010
0000
0010
0010
1000
0000
0100
0100
,
0001
0000
0010
0010
1000
0000
0100
0100
,
0001
0000
1000
0001
1000
0000
0001
1000
,  // measure 5
0001
0000
1010
1001
1100
0000
0011
1001
,
0101
0000
0010
0001
0100
1000
0010
0001
,
0100
0000
0010
0001
0010
0000
0100
1000
,
0100
0000
0001
0100
1000
0010
0001
0010
,
1000
0000
0001
0100
0001
0000
1000
0010
,
1000
0000
0010
0001
1000
0000
0010
1000
,  // measure 6
0001
0000
0010
0001
1000
0100
0010
0001
,
1000
0110
1001
0110
,
1001
0010
0001
0100
,
1000
0000
0010
0100
1000
0010
0001
0100
,
1000
0000
0001
0100
0001
0000
1000
0010
,
1000
0000
0010
0001
0100
1000
0010
0001
,  // measure 7
0100
0000
0010
0001
0010
0000
0100
1000
,
0100
0000
0010
1000
0001
0000
0010
0001
,
1000
0000
0010
1000
0001
0100
0010
1000
,
0001
0110
1001
0110
,
1001
0010
1000
0100
,
0001
0010
0001
0100
,  // measure 8
1000
0001
0100
1000
,
0100
0000
0010
0001
0100
0000
0010
1000
,
0100
0000
0010
0001
1000
0100
0010
0100
,
1000
0001
0010
0000
1000
0000
0010
0000
,
0001
1000
0100
0001
,
0100
0000
0010
1000
0100
0000
0010
0001
,  // measure 9
0100
0000
0010
1000
0001
0100
0010
0100
,
0001
1000
1001
0000
;

//---------------techno-single5 - normal----------------
#NOTES:
     techno-single5:
     :
     Medium:
     6:
     0.605,0.628,1.000,0.000,0.000: // measure 1 // measure 1
00000
00000
00000
00000
,  // measure 2
00000
00000
00000
00000
,  // measure 3
00000
00110
00110
01100
,  // measure 4
01100
00101
00101
10100
,  // measure 5
10100
00000
00010
00100
00001
00000
10000
00100
,  // measure 6
01000
00000
01000
00100
10000
00000
00001
00100
,  // measure 7
00010
01100
01100
00110
,  // measure 8
00110
10100
10100
00101
,  // measure 9
00101
00000
01000
00100
10000
00000
00001
00100
,  // measure 10
00010
00000
00010
00100
00001
00000
10000
00100
,  // measure 11
01000
01000
00010
10000
,  // measure 12
00001
00000
00010
00000
00100
00000
00010
00100
,  // measure 13
00110
00000
01000
00000
00100
00000
01000
00100
,  // measure 14
01100
00000
00100
01000
00010
00000
00100
00010
,  // measure 15
01000
00000
00100
10000
00001
00000
00100
00001
,  // measure 16
10000
01010
01010
10001
,  // measure 17
10001
00000
00100
01010
00100
00000
00010
00000
,  // measure 18
00100
00000
00100
01010
00100
00000
01000
00000
,  // measure 19
00100
00000
00100
00100
01010
00000
00100
00100
,  // measure 20
10001
00000
00001
00000
00100
00000
00001
00100
,  // measure 21
00101
00000
10000
00000
00100
00000
10000
00100
,  // measure 22
10100
00000
00100
10000
00001
00000
00100
00001
,  // measure 23
10000
00000
00100
01000
00010
00000
00100
00010
,  // measure 24
01000
10001
10001
01010
,  // measure 25
01010
00000
00100
10001
00100
00000
00001
00000
,  // measure 26
00100
00000
00100
10001
00100
00000
10000
00000
,  // measure 27
00100
00000
00100
00100
10001
00000
00100
00100
,  // measure 28
01010
00100
00010
01000
,  // measure 29
00100
00000
10000
00000
00001
00000
10000
00001
,  // measure 30
10001
00000
00010
00100
00001
00000
01000
00100
,  // measure 31
10000
00000
00010
01000
00010
00000
00001
10000
,  // measure 32
00100
00000
10000
00001
10000
00000
01000
00010
,  // measure 33
00100
10001
00000
01010
,  // measure 34
00000
00100
00100
01010
,  // measure 35
00100
00100
10001
00100
,  // measure 36
00100
00010
00100
00100
,  // measure 37
01000
00000
00010
00000
01000
00000
00010
01000
,  // measure 38
01010
00000
00001
00100
00010
00000
10000
00100
,  // measure 39
01000
00000
00001
10000
00001
00000
00010
01000
,  // measure 40
00100
00000
01000
00010
01000
00000
10000
00001
,  // measure 41
00100
01010
00000
10001
,  // measure 42
00000
01010
01010
00100
,  // measure 43
10001
10001
00100
01010
,  // measure 44
01010
00000
01010
00110
01100
00000
01010
01100
,  // measure 45
00110
10010
00100
01001
,  // measure 46
00100
00000
01010
00100
01010
00000
10001
00100
,  // measure 47
10001
00001
00010
01000
,  // measure 48
10000
00000
01010
01100
00110
00000
01010
00110
,  // measure 49
01100
01001
00100
10010
,  // measure 50
00100
00000
01010
00100
01010
00000
10001
00100
,  // measure 51
10001
10000
01000
00010
,  // measure 52
00001
00100
00000
00000
;

//---------------techno-single5 - hard----------------
#NOTES:
     techno-single5:
     :
     Hard:
     8:
     0.605,0.628,1.000,0.000,0.000: // measure 1
00000
00000
00000
00000
,
00000
00000
00000
00000
,
00000
00000
01010
01010
00100
00000
01010
01010
,
00100
00000
10001
10001
00100
00000
10001
10001
,
00100
00000
00010
00100
01000
00000
00100
10000
,
00001
00000
10000
00001
00100
00000
00010
00100
,
01000
00000
10001
10001
00100
00000
10001
10001
,
00100
00000
01010
01010
00100
00000
01010
01010
,
00100
00000
01000
00100
00010
00000
00100
00000
,
10000
00000
00001
10000
00100
00000
01000
00100
,
00010
00000
01000
00100
00010
00100
10000
00001
,
00000
00000
00010
00000
00100
00000
00100
10000
,
10100
00000
01000
00000
00100
00000
00100
00001
,
00101
00000
00010
00100
00001
00000
01000
00100
,
10000
00000
00100
01000
00010
00000
00100
00010
,
01000
00000
00100
10000
00010
00000
01000
00001
,
00100
00000
01010
00100
10001
00000
10001
00100
,
01010
00000
00010
00100
10000
00000
01000
00100
,
00001
00000
10000
00100
00010
00000
00001
00100
,
10000
00000
01000
00000
00100
00000
00100
00001
,
00101
00000
00010
00000
00100
00000
00100
10000
,
10100
00000
01000
00100
10000
00000
00010
00100
,
00001
00000
00100
00001
10000
00000
00100
10000
,
00001
00000
00100
00010
10000
00000
00001
01000
,
00100
00000
10001
00100
01010
00000
01010
00100
,
10001
00000
01000
00100
00001
00000
00010
00100
,
10000
00000
00001
00100
01000
00000
10000
00100
,
00001
00000
00010
00100
00001
00000
00100
00000
,
01000
00100
10000
00000
00100
00000
00010
00100
,
00110
00000
01000
00100
01100
00000
00100
00000
,
10001
00010
01000
00001
,
10000
00001
10000
00010
,
01000
00100
01010
00100
,
10001
00110
10100
01100
,
00101
00010
01000
00100
,
10001
00000
01000
00100
10000
00000
00100
00000
,
00010
00100
00001
00000
00100
00000
01000
00100
,
01100
00000
00010
00100
00110
00000
00100
00000
,
01010
10000
00001
01000
,
00010
01000
00010
10000
,
00001
00100
10001
00100
,
01010
10100
00110
00101
,
01100
10000
00001
00100
,
01010
00000
00010
10000
00100
00000
01000
00001
,
00100
00000
00010
00100
01000
00001
00100
10000
,
00001
00000
00100
00001
10000
00000
00100
10000
,
00001
00000
01000
00100
00001
10000
00100
00010
,
01000
00001
01000
00001
00100
00000
00010
10000
,
00100
00000
01000
00100
00010
10000
00100
00001
,
10000
00000
00100
10000
00001
00000
00100
00001
,
10000
00000
00010
00100
10000
00001
00100
01000
,
00010
10000
00100
00000
00000
00000
00000
00000
;

//---------------techno-single8 - ----------------
#NOTES:
     techno-single8:
     :
     Medium:
     6:
     0.605,0.628,1.000,0.000,0.000: // measure 1
00000000
00000000
00000000
00000000
,
00000000
00000000
00000000
00000000
,
00000000
00000000
00001000
01000000
00000010
00000000
01000000
00000010
,
00010000
00001010
00001010
01001000
,
01001000
00010010
00010010
01010000
,
01010000
00000000
00000100
00001000
00100000
00000000
00000100
00001000
,
00100000
00000000
00001000
00000010
01000000
00000000
00000010
01000000
,
00010000
01001000
01001000
00001010
,
00001010
01010000
01010000
00010010
,
00010010
00000000
00100000
00001000
00000100
00000000
00100000
00001000
,
00000100
00000000
00000100
00100000
00000010
01000000
00000001
10000000
,
00000001
00000000
00000100
00000000
00000100
00000000
00100000
00000100
,
00100100
00000000
00001000
00100000
00000010
00000000
00001000
00000100
,
01000000
00000000
00000001
00000000
00000001
00000000
10000000
00000001
,
10000001
00000000
00010000
10000000
00000010
00000000
00010000
00000001
,
01000000
00000000
00000010
00010000
00000010
00000000
01000000
00010000
,
01000000
00000000
00000100
00010000
00100000
00000000
00000001
00001000
,
10000000
00000000
00001000
00000010
00001000
00000000
00010000
01000000
,
00010000
00000000
00000001
00001000
10000000
00000000
00000100
00010000
,
00100000
00100001
10000100
00100001
,
10000100
00000000
00001000
00001000
00000100
00100000
00000010
01000000
,
00000001
10000100
00100001
10000100
,
00100001
00000000
00001000
00001000
00100000
00000100
01000000
00000010
,
10000000
00000000
00001000
00000010
00010000
00000000
00001000
01000000
,
00010000
00001100
00101000
00001100
,
00101000
00000000
00000010
00010000
01000000
00000000
00000010
00010000
,
01000000
00010001
10010000
00010001
,
10010000
00100100
00100100
10000001
,
10000001
00000000
00000100
00100000
00100100
00000000
00000001
10000000
,
10000001
00001010
00001010
01010000
,
01010000
01001000
01001000
00010010
,
00010010
00000000
00001000
00000000
00001000
00000000
00001000
00001000
,
00001000
00000000
00010000
00000000
00010000
00000000
00010000
00010000
,
00010000
00000100
00100000
00000001
,
10000000
00100000
00000100
10000000
,
00000001
00011000
01000010
00011000
,
01000010
00001000
00000010
00010000
,
01000000
00100100
00100100
10000001
,
10000001
00001000
01000000
00010000
,
00000010
00000000
00000100
00100000
00000010
01000000
00000001
10000000
,
00100001
00000000
00100000
00000100
01000000
00000010
10000000
00000001
,
10000100
00000000
00001000
00001000
00010000
00000000
00000010
00010000
,
01000000
00000000
00001000
00001000
00010000
00000000
01000000
00010000
,
00000010
00000000
00000100
00001000
00100000
00000000
00000100
00001000
,
00100000
00000000
00000001
00010000
10000000
00000000
00000001
00010000
,
10000000
00001000
00010000
01000000
,
00001000
00000000
00000010
00000000
00010000
00000000
00011000
01000010
,
00011000
00000000
00100000
00001000
00000100
00000000
00100000
00001000
,
00000100
00000000
10000000
00010000
00000001
00000000
10000000
00010000
,
00000001
00001000
00010000
00000010
,
00001000
00000000
01000000
00000000
00010000
00000000
00011000
01000010
,
00011000
01000010
00000000
00000000
;

//---------------techno-single8 - ----------------
#NOTES:
     techno-single8:
     :
     Hard:
     8:
     0.605,0.628,1.000,0.000,0.000: // measure 1
00000000
00000000
00000000
00000000
,  // measure 2
00000000
00000000
00000000
00000000
,  // measure 3
00000000
00000010
00001000
00010000
,  // measure 4
01000000
00000000
00001100
00001100
00101000
00000000
00001100
00001100
,  // measure 5
00101000
00000000
00000100
00100000
00100100
00000000
00000001
10000000
,  // measure 6
10000001
00000000
00010001
00010001
10010000
00000000
00010001
00010001
,  // measure 7
10010000
01000000
00001000
00010000
,  // measure 8
00000010
00000000
10010000
10010000
00010001
00000000
10010000
10010000
,  // measure 9
00010001
00000000
10000000
00000001
10000001
00000000
00100000
00000100
,  // measure 10
00100100
00000000
00101000
00101000
00001100
00000000
00101000
00101000
,  // measure 11
00001100
00000000
00000100
00100000
00000010
01000000
00000001
10000000
,  // measure 12
10000001
00000000
00000100
00001000
00000001
00000000
00100000
00010000
,  // measure 13
10000000
00000000
00001000
00000010
00001000
00000000
00010000
01000000
,  // measure 14
00010000
00000000
00000001
00010000
00000100
00000000
10000000
00010000
,  // measure 15
00100000
00000000
00000010
00010000
00000010
00000000
01000000
00010000
,  // measure 16
01000000
00000000
00001000
00000100
00000010
00000000
00010000
10000000
,  // measure 17
01000000
00000000
00001000
00100000
01000000
00000000
00010000
00000001
,  // measure 18
00000010
00000000
01001000
01001000
00001010
00000000
00010010
00010010
,  // measure 19
01010000
00100100
10000100
00100001
,  // measure 20
10000001
00000000
00100000
00001000
10000000
00000000
00000100
00001000
,  // measure 21
00000001
00000000
00010000
00000010
00010000
00000000
00001000
01000000
,  // measure 22
00001000
00000000
10000000
00010000
00100000
00000000
00000001
00010000
,  // measure 23
00000100
00000000
01000000
00001000
01000000
00000000
00000010
00001000
,  // measure 24
00000010
00000000
00100000
00001000
00000100
00000000
00000001
00010000
,  // measure 25
10000000
00000000
00100000
01000000
10000000
00000000
00000001
00000010
,  // measure 26
00000100
00100100
00100001
10000100
,  // measure 27
10000001
00000000
00001010
00001010
01001000
00000000
01010000
01010000
,  // measure 28
00010010
00000000
00000100
00000100
00000100
00000000
00100000
00100000
,  // measure 29
00100000
10000100
00100001
10000100
,  // measure 30
00100001
00001000
00000010
01000000
,  // measure 31
00010000
00000000
00001100
00001000
00101000
00000000
00010001
00010000
,  // measure 32
10010000
00000000
00010000
10000000
00000100
00000000
00001000
00000001
,  // measure 33
00100000
00000000
00010000
00100000
00000001
00000000
00010000
00000100
,  // measure 34
10000000
00100100
00100100
10000001
,  // measure 35
10000001
00011000
00011000
01000010
,  // measure 36
01000010
00000000
00100000
00100000
00100000
00000000
00000100
00000100
,  // measure 37
00000100
00100001
10000100
00100001
,  // measure 38
10000100
00001000
01000000
00000010
,  // measure 39
00010000
00000000
00101000
00001000
00001100
00000000
10010000
00010000
,  // measure 40
00010001
00000000
00001000
00000001
00100000
00000000
00001000
10000000
,  // measure 41
00000100
00000000
00010000
00000100
10000000
00000000
00010000
00100000
,  // measure 42
00000001
10000001
10000001
00100100
,  // measure 43
00100100
01000010
01000010
00011000
,  // measure 44
00011000
00000000
00001100
00001100
00101000
00000000
00001100
00001100
,  // measure 45
00101000
00000000
00010001
00010001
10010000
00000000
00010001
00010001
,  // measure 46
10010000
00000000
00000100
00000010
00000001
00000000
00100000
01000000
,  // measure 47
10000000
00000000
00100100
00000000
00100000
00000000
00000100
00000100
,  // measure 48
00100000
00100000
00101000
00101000
00001100
00000000
00101000
00101000
,  // measure 49
00001100
00000000
10010000
10010000
00010001
00000000
10010000
10010000
,  // measure 50
00010001
00000000
00100000
01000000
10000000
00000000
00000100
00000010
,  // measure 51
00000001
00000000
00100100
00000000
00000100
00000000
00100000
00100000
,  // measure 52
00000100
00000100
10000001
00000000
00000000
00000000
00000000
00000000
;
