#TITLE:Recollection;
#SUBTITLE:;
#ARTIST:TURBO;
#TITLETRANSLIT:;
#SUBTITLETRANSLIT:;
#ARTISTTRANSLIT:;
#CREDIT:;
#BANNER:Disc.png;
#BACKGROUND:Title.png;
#LYRICSPATH:;
#CDTITLE:;
#MUSIC:Recollection.mp3;
#OFFSET:-2.470;
#SAMPLESTART:45.408;
#SAMPLELENGTH:12.000;
#SELECTABLE:YES;
#BPMS:0.000=103.060;
#STOPS:;
#BGCHANGES:;

//---------------techno-single4 - easy----------------
#NOTES:
     techno-single4:
     :
     Easy:
     3:
     0.212,0.180,0.035,0.000,0.000: // measure 1
0000
0000
0000
0000
0000
0000
0000
0000
,  // measure 2
0000
0000
0000
0000
0000
0000
0000
0000
,  // measure 3
0000
0000
0000
0000
0000
0000
0000
0000
,  // measure 5 -- begin
0010
0000
0010
0000
0100
0000
0100
0000
,  // measure 6
0001
0000
0001
0000
1000
0000
1000
0000
,  // measure 7
1000
0000
0001
0000
1000
0000
1000
0000
,  // measure 8
0001
0000
0001
0000
1000
0000
1000
0000
,  // measure 9
0010
0000
0010
0000
0100
0000
0100
0000
,  // measure 10
0001
0000
0001
0000
0100
0000
0100
0000
,  // measure 11 -- end 1
0010
0000
1000
0000
0100
0000
0001
0000
,  // measure 12
0000
0000
0010
0000
0100
0000
0010
0000
,  // measure 13
0010
0000
0001
0000
1000
0000
0100
0000
,  // measure 14
0000
0000
0001
0000
1000
0000
0001
0000
,  // measure 15
0010
0000
1000
0000
0001
0000
0100
0000
,  // measure 16
0011
0000
0000
0000
1010
0000
0000
0000
,  // measure 17 '-- end 2
0001
0000
0001
0000
1000
0000
0001
0000
,  // measure 18
0101
0000
0000
0000
1010
0000
0000
0000
,  // measure 19
1000
0000
1000
0000
0001
0000
1000
0000
,  // measure 20
0010
0000
0010
0000
0100
0000
0100
0000
,  // measure 21
1000
0000
0100
0000
1000
0000
0010
0000
,  // measure 22
1000
0000
0001
0000
0100
0000
0100
0000
,  // measure 23 -- end 3
0001
0000
0100
0000
0001
0000
1000
0000
,  // measure 24
0001
0000
1000
0000
0010
0000
0010
0000
,  // measure 25
1000
0000
0001
0000
1000
0000
1000
0000
,  // measure 26
1000
0000
0100
0000
0010
0000
0001
0000
,  // measure 27
0010
0000
1000
0000
0100
0000
0001
0000
,  // measure 28
0010
0000
0001
0000
0010
0000
0100
0000
,  // measure 31 -- end 4
0100
0000
0001
0000
0100
0000
0001
0000
,  // measure 32
0001
0000
0010
0000
0100
0000
1000
0000
,  // measure 33
0010
0000
0001
0000
0100
0000
1000
0000
,  // measure 34
0001
0000
0010
0000
0001
0000
1000
0000
,  // measure 35
1000
0000
0100
0000
1000
0000
0000
0000
,  // measure 36
1000
0000
0100
0000
0010
0000
0010
0000
,  // measure 29 -- end 5
0001
0000
1000
0000
0100
0000
0001
0000
,  // measure 30
1000
0000
0001
0000
1000
0001
1001
0000
;

//---------------techno-single5 - easy----------------
#NOTES:
     techno-single5:
     :
     Easy:
     3:
     0.212,0.185,0.035,0.000,0.000,126.000,3.000,0.000,0.000,0.000,0.000,0.212,0.185,0.035,0.000,0.000,126.000,3.000,0.000,0.000,0.000,0.000: // measure 1
00000
00000
00000
00000
,  // measure 2
00000
00000
00000
00000
,  // measure 3
00000
00000
00000
00000
,  // measure 4
00000
00000
00000
00000
,  // measure 5
00010
00010
01000
01000
,  // measure 6
00001
00001
10000
10000
,  // measure 7
10000
00001
10000
10000
,  // measure 8
00001
00001
10000
10000
,  // measure 9
00100
00100
01000
01000
,  // measure 10
00010
00010
00100
00100
,  // measure 11
00001
00001
10000
10000
,  // measure 12
00001
10000
00001
00001
,  // measure 13
10000
00001
10000
10000
,  // measure 14
00001
00001
10000
10000
,  // measure 15
00100
00100
01000
01000
,  // measure 16
00010
00010
00110
00000
,  // measure 17
00010
00010
01000
01000
,  // measure 18
00010
00010
00110
00000
,  // measure 19
00100
00001
10000
10000
,  // measure 20
00001
00001
10000
10000
,  // measure 21
10000
01000
10000
00100
,  // measure 22
10000
00001
00100
00100
,  // measure 23
00001
00010
00001
00100
,  // measure 24
00001
10000
00100
00100
,  // measure 25
10000
00001
10000
10000
,  // measure 26
00001
10000
00001
00001
,  // measure 27
10000
00001
10000
10000
,  // measure 28
00001
10000
00001
10000
,  // measure 29
10000
00001
10000
00001
,  // measure 30
01000
00010
01000
00010
,  // measure 31
00100
00001
10000
00001
,  // measure 32
10000
00001
10000
00001
,  // measure 33
10000
01000
10000
00100
,  // measure 34
10000
00001
00100
00100
,  // measure 35
00001
00010
00001
00100
,  // measure 36
00001
10000
00100
10001
;

//---------------techno-single8 - ----------------
#NOTES:
     techno-single8:
     :
     Easy:
     3:
     0.212,0.180,0.035,0.000,0.000: // measure 1
00000000
00000000
00000000
00000000
,  // measure 2
00000000
00000000
00000000
00000000
,  // measure 3
00000000
00000000
00000000
00000000
,  // measure 4
00000100
00000100
00100000
00100000
,  // measure 5
00000001
00000001
10000000
10000000
,  // measure 6
10000000
00000001
10000000
10000000
,  // measure 7
00000001
00000001
10000000
10000000
,  // measure 8
00001000
00001000
00100000
00100000
,  // measure 9
00000100
00000100
00010000
00010000
,  // measure 10
00000001
00000001
10000000
10000000
,  // measure 11
00000001
10000000
00000001
00000001
,  // measure 12
10000000
00000001
10000000
10000000
,  // measure 13
00000001
00000001
10000000
10000000
,  // measure 14
00001000
00001000
00100000
00100000
,  // measure 15
00000100
00000100
00010100
00000000
,  // measure 16
00000100
00000100
00100000
00100000
,  // measure 17
00000100
00000100
00001100
00000000
,  // measure 18
00001000
00000001
10000000
10000000
,  // measure 19
00000001
00000001
10000000
10000000
,  // measure 20
10000000
00100000
01000000
00001000
,  // measure 21
01000000
00000010
00010000
00010000
,  // measure 22
00000001
00000100
00000001
00010000
,  // measure 23
00000001
10000000
00010000
00010000
,  // measure 24
01000000
00000010
01000000
01000000
,  // measure 25
00000010
01000000
00000010
00000010
,  // measure 26
01000000
00000010
01000000
01000000
,  // measure 27
00000010
01000000
00000010
01000000
,  // measure 28
01000000
00000010
01000000
00000010
,  // measure 29
00010000
00001000
00010000
00001000
,  // measure 30
00010000
00000001
10000000
00000001
,  // measure 31
10000000
00000001
10000000
00000001
,  // measure 32
10000000
00100000
10000000
00001000
,  // measure 33
10000000
00000001
00001000
00001000
,  // measure 34
00000001
00000100
00000001
00001000
,  // measure 35
00000001
10000000
00001000
01000010
;
