#TITLE:Love Story;
#SUBTITLE:;
#ARTIST:See U;
#TITLETRANSLIT:;
#SUBTITLETRANSLIT:;
#ARTISTTRANSLIT:;
#CREDIT:;
#BANNER:Disc.png;
#BACKGROUND:Title.png;
#LYRICSPATH:;
#CDTITLE:;
#MUSIC:Song.mp3;
#OFFSET:-4.850;
#SAMPLESTART:65.751;
#SAMPLELENGTH:12.000;
#SELECTABLE:YES;
#BPMS:0.000=98.520;
#STOPS:;
#BGCHANGES:;

//---------------techno-single4 - ----------------
#NOTES:
     techno-single4:
     :
     Medium:
     5:
     0.339,0.370,0.393,0.000,0.000: // measure 1
1000
0000
1100
0000
0010
0100
0010
0000
,
0001
0000
0101
0000
0101
0101
0011
0000
,
0100
0000
0011
0000
1000
1000
1001
0000
,
0010
0000
1100
0000
0011
0011
0110
0000
,
0010
1000
0001
0000
0100
0001
1000
0000
,
0010
0100
0101
0000
0100
0010
1010
0000
,  // measure 2
0001
1000
1001
0000
1000
0001
1001
0000
,
0001
0000
1000
0000
0001
1000
1001
0000
,
0010
0010
1010
0000
0001
0001
0101
0000
,
0010
0010
0001
1000
0100
0010
0010
0000
,
1000
1000
1010
0000
0001
0001
0101
0000
,
0100
0100
1000
0001
0010
0100
0100
0000
,  // measure 2
0001
0001
1000
0000
1001
1001
0101
0000
,
1000
1000
0001
0000
1000
0001
1000
0000
,
0100
1000
0010
0000
1000
0001
1000
0000
,
0100
0100
0010
1010
0001
1000
0001
0000
,
0010
0001
1001
0000
1001
1001
0110
0000
,
1000
1000
1001
1100
0101
1100
0000
0000
,  // measure 4
1000
1000
1010
0000
0001
0001
0101
0000
,
1000
1000
0010
0000
0101
0000
0101
0000
,
0010
0001
1001
0000
1001
1001
0110
0000
,
1000
1000
1001
0000
1100
0101
1100
0000
,
0010
0000
0110
0000
0001
1000
1001
0000
,
0001
0100
0010
0100
1001
1001
0110
0000
,  // measure 5
0010
0001
1000
0000
0010
0001
1000
0000
,
0100
0100
1000
0100
0001
1000
1001
0000
,
0100
0010
1000
0000
0100
0010
1000
0000
,
0001
0001
0100
0000
0010
0100
0110
0000
,
0001
0010
1010
0000
0001
1000
1001
0000
,
1000
1000
0001
0000
1100
0101
1001
0000
,  // measure 6
0010
0010
0100
0000
0010
0100
0110
0000
,
0100
0000
0010
0000
0100
0000
0110
0000
,
1001
0000
0000
0000
0000
0000
0000
0000
;

//---------------pump-single - normal----------------
#NOTES:
     pump-single:
     :
     Medium:
     5:
     0.339,0.370,0.393,0.000,0.000: // measure 1
01000
00000
00010
00000
00100
00010
00100
00000
,
00001
00000
10000
00000
00100
10000
01100
00000
,
10000
00000
01000
00000
11000
00100
00011
00000
,
00100
00000
00110
00000
00001
10000
00001
00000
,
01000
00000
00100
00000
01000
00010
01000
00000
,
00010
00000
00100
00000
00010
01000
00010
00000
,
10000
00000
00100
00000
10000
00001
10000
00000
,
00001
00000
00100
00000
00001
10000
00001
00000
,
00100
00000
01000
00000
10000
10000
11000
00000
,
00100
00000
00010
00000
00001
00001
00011
00000
,
01000
01000
01100
00000
00010
00010
00011
00000
,
00100
00000
01000
00000
10000
10000
11000
00000
,
00100
00000
01000
00000
10000
10000
11000
00000
,
00100
00000
00010
00000
00001
00001
00011
00000
,
00010
00000
00110
00000
01000
01000
11000
00000
,
00100
00000
00001
00000
00010
00010
00011
00000
,
01000
01000
00010
00000
00001
00001
10000
00000
,
00100
01100
00110
00000
01000
00100
01010
00000
,
00100
00100
01000
00000
00010
00010
01000
00000
,
00100
00110
00100
10001
,
01000
01000
00010
00000
00001
00001
10000
00000
,
00100
01100
00110
00000
01000
00100
01010
00000
,
00100
00100
01000
00000
00010
00010
01000
00000
,
00100
00110
00100
10001
,
01010
00100
01010
00000
10001
00100
10001
00000
,
00001
10000
00100
00000
00010
00010
00011
00000
,
01010
00100
01010
00000
10001
00100
10001
00000
,
10000
00001
00100
00000
01000
01000
11000
00000
,
01000
00000
00100
00000
10000
01000
10000
00000
,
00001
00000
00100
00000
00010
00001
00010
00000
,
01000
00100
10000
00001
,
00100
00010
10000
10001
,
01010
00000
00000
00000
;

//---------------techno-single8 - ----------------
#NOTES:
     techno-single8:
     :
     Medium:
     5:
     0.339,0.370,0.393,0.000,0.000: // measure 1
00100000
00000000
00000100
00000000
00000000
00000100
00000000
00000000
,  // measure 2
00000001
00000000
10000000
00000000
00000000
10000000
01000000
00000000
,  // measure 3
10000000
01100000
10100000
00000111
,  // measure 4
00010000
00010100
10000000
11000000
,  // measure 5
00000100
00000000
00100000
00000000
00000100
00100000
00000100
00000000
,  // measure 6
00100000
00000000
00000100
00000000
00100000
00000100
00100000
00000000
,  // measure 7
00001000
01000000
00000010
00000000
00010000
00000010
01000000
00000000
,  // measure 8
00100000
00100100
00000001
10000001
,  // measure 9
00001100
00101000
00001100
00101000
,  // measure 10
00010000
00000001
10000000
00000000
00001000
00100000
00000100
00000000
,  // measure 11
00001000
00000010
00000010
00000000
00001000
01000000
01000000
00000000
,  // measure 12
00000010
01000000
00000010
00000000
01000000
00000010
01000000
00000000
,  // measure 13
00010001
10010000
00010001
10010000
,  // measure 14
00001000
00100000
00000100
00000000
00010000
00000001
10000000
00000000
,  // measure 15
00010000
00000010
00000010
00000000
00010000
01000000
01000000
00000000
,  // measure 16
00001000
00010000
00001000
00000000
00010000
00001000
00010000
00000000
,  // measure 17
00001000
00000000
00000100
00100000
00000010
01000000
10000001
00000000
,  // measure 18
00001000
00000100
00001100
00000000
00001000
00100000
00101000
00000000
,  // measure 19
00001000
00000010
00001000
00000000
00010000
01000000
00010000
00000000
,  // measure 20
00001000
00000010
00010000
01000000
,  // measure 21
00001000
00000000
00100000
00000100
01000000
00000010
10000001
00000000
,  // measure 22
00001000
00100000
00101000
00000000
00001000
00000100
00001100
00000000
,  // measure 23
00000010
00010000
00000010
00000000
01000000
00001000
01000000
00000000
,  // measure 24
00000100
00000001
10000000
00100000
,  // measure 25
00000100
00000100
00100100
00000000
00100000
00100000
00100100
00000000
,  // measure 26
00001000
01000000
00000010
00000000
01000000
00000010
00010000
00000000
,  // measure 27
00000010
01000000
00000001
00000000
01000000
00000010
10000000
00000000
,  // measure 28
00000010
01000000
00000100
00000000
01000000
00000010
10000000
00000000
,  // measure 29
00000100
00000100
00100000
00100000
00000100
00100000
00100100
00100100
,  // measure 30
00000001
00000001
10000000
10000000
00000001
10000000
10000001
10000001
,  // measure 31
00000000
00001010
01000010
01010000
,  // measure 32
00000000
01010000
01000010
00001010
,  // measure 33
01000010
00000000
00000000
00000000
;
