#TITLE:Heartlessness;
#SUBTITLE:;
#ARTIST:Chae Jeong An;
#TITLETRANSLIT:;
#SUBTITLETRANSLIT:;
#ARTISTTRANSLIT:;
#CREDIT:;
#BANNER:Disc.png;
#BACKGROUND:Title.png;
#LYRICSPATH:;
#CDTITLE:;
#MUSIC:Heartlessness.mp3;
#OFFSET:0.000;
#SAMPLESTART:53.571;
#SAMPLELENGTH:12.000;
#SELECTABLE:YES;
#BPMS:0.000=137.000;
#STOPS:;
#BGCHANGES:;

//---------------techno4-single - Easy----------------
#NOTES:
     techno-single4:
     :
     Easy:
     1:
     0.203,0.246,0.073,0.000,0.000:
0000
0000
0000
0000
,
0000
0000
0000
0000
,  // column 1
0000
0000
0100
0000
0000
0000
0100
0000
,
0000
0000
0010
0000
0000
0000
0010
0000
,
0000
0000
0001
0000
0000
0000
0001
0000
,
0000
0000
1000
0000
0000
0000
1000
0000
,
0000
0000
0100
0000
0000
0000
0001
0000
,
0000
0000
0100
0000
0000
0000
0001
0000
,  // column 2
0000
0000
0010
0000
0000
0000
1000
0000
,
0000
0000
0010
0000
0000
0000
1000
0000
,
0000
0000
0001
0000
0000
0000
0100
0000
,
0000
0000
0001
0000
0000
0000
0100
0000
,
0000
0000
1000
0000
0000
0000
0100
0000
,
0000
0000
1000
0000
0000
0000
0100
0000
,  // column 3
0000
0000
0100
0000
0000
0000
0100
0000
,
0000
0000
0110
0000
0000
0000
0010
0000
,
0000
0000
0010
0000
0000
0000
0010
0000
,
0000
0000
1001
0000
0000
0000
0000
0000
,
0000
0000
0010
0000
0000
0000
0000
0000
,
0000
0000
0100
0000
0000
0000
0010
0000
,  // column 4
0000
0000
0100
0000
0000
0000
0001
0000
,
0000
0000
1000
0000
0000
0000
0100
0000
,
0000
0000
0100
0000
0000
0000
0010
0000
,
0000
0000
0010
0000
0000
0000
0001
0000
,
0000
0000
1000
0000
0000
0000
0100
0000
,
0000
0000
1000
0000
0000
0000
0001
0000
,  // column 5
0000
0000
1000
0000
0000
0000
0010
0000
,
0000
0000
0100
0000
0000
0000
0010
0000
,
0100
0000
0110
0000
0000
0000
1000
0000
,
0001
0000
1001
0000
0000
0000
0010
0000
,
0100
0000
0110
0000
0000
0000
1000
0000
,
0001
0000
1001
0000
0000
0000
1000
0000
,  // column 6
0000
0000
0100
0000
0001
0000
0010
0000
,
0000
0000
0100
0000
1000
0000
0010
0000
,
0000
0000
0100
0000
0010
0000
0100
0000
,
0010
0000
0100
0000
0010
0000
0100
0000
,
0010
0000
0100
0000
0010
0000
0100
0000
,
0010
0000
0100
0000
0010
0000
0100
0000
,  // column 7
0010
0000
0100
0000
0001
0000
0010
0000
,
0000
0000
1000
0000
0000
0000
0001
0000
,
1000
0000
1000
0000
0000
0000
0100
0000
,
0000
0000
1000
0000
0010
0000
0001
0000
,
0000
0000
1000
0000
0000
0000
0010
0000
,
0001
0000
0100
0000
0000
0000
1000
0000
,  // column 8
0000
0000
0100
0000
0001
0000
0010
0000
,
0000
0000
1000
0000
0000
0000
0001
0000
,
0001
0000
1000
0000
1000
0000
0001
0000
,
0000
0000
1000
0000
1000
0000
0001
0000
,
0001
0000
1000
0000
1000
0000
0001
0000
,  // column 9
0001
0000
1000
0000
1000
0000
0001
0000
,
0001
0000
1000
0000
1000
0000
0001
0000
,
0001
0000
1000
0000
1000
0000
0001
0000
,
0001
0000
1001
0000
0000
0000
0000
0000
;

//---------------techno-single4 - Medium----------------
#NOTES:
     techno-single4:
     :
     Medium:
     6:
     0.203,0.246,0.073,0.000,0.000:
0000
0000
0000
0000
0000
0000
0000
0000
,
0000
0000
0000
0000
0000
0000
0000
0000
,  // column 1
0000
0000
1000
1000
0001
0001
1000
1000
,
0001
0001
1000
1000
0001
0001
1000
0000
,
1000
0000
0001
0001
1000
1000
0001
0001
,
1000
1000
0001
0001
1000
1000
0001
0000
,
0001
0000
1000
0000
0010
1000
0100
0000
,
0001
0000
1000
0000
0010
1000
0100
0000
,  // column 2
0001
0000
1000
0000
0100
0001
0010
0000
,
0001
0000
1000
0000
0100
0001
0010
0000
,
0001
0000
0001
0000
0100
0000
1000
0000
,
0010
0000
0001
0000
1000
0000
0001
0010
,
0001
1000
0001
0100
1000
0100
0001
0000
,
1000
0100
0001
0100
1000
1000
1000
0000
,  // column 3
1000
0000
0010
0000
0100
0000
0001
0001
,
1000
0000
1000
1000
0001
0000
1000
1000
,
0001
0000
0001
0001
1000
0000
0001
0000
,
1000
0000
0001
0000
1000
0000
0001
1000
,
0100
0000
1000
0001
0100
0000
0001
0000
,
0100
0000
1000
0000
0010
0000
0001
0000
,  // column 4
0000
0000
1000
0100
0001
0100
1000
0100
,
0001
0000
0001
0100
1000
0100
0001
0000
,
0000
0000
0001
0100
1000
0000
0001
0100
,
1000
0000
0001
0000
0100
0000
1000
0000
,
0100
0000
0000
0000
1000
0100
0001
0000
,
1000
0100
0001
0000
0010
0010
0010
0000
,  // column 5
0010
0000
1000
0100
0001
0000
1000
0100
,
0001
0000
1000
0000
0010
0000
0001
0000
,
0100
0000
0000
0000
0001
0100
1000
0000
,
0001
0100
1000
0000
0100
0100
0100
0000
,
0100
0000
1000
0001
0100
0000
0001
1000
,
0100
0000
1000
0000
0100
0000
0010
0000
,  // column 6
0010
0000
0001
0010
0100
0000
1000
0010
,
0100
0000
0001
0000
0010
0000
0100
0000
,
0100
0000
1000
0000
0001
0001
1000
0000
,
0001
0001
1000
0000
0001
0000
1000
0000
,
1000
0000
0001
0000
1000
1000
0001
0000
,
1000
1000
0001
0000
1000
0000
0001
0000
,  // column 7
0001
0000
0000
0000
0010
0000
0000
0000
,
0100
0000
0001
0000
0100
0000
1000
0000
,
0010
0000
0010
0000
1000
0000
0100
0000
,
0001
0000
0100
0000
0010
0000
0100
0000
,
0010
0000
0100
0000
0100
0000
0010
0000
,
0100
0100
0010
0000
0100
0000
0010
0000
,  // column 8
0010
0010
0000
0000
0001
0001
0100
0000
,
0001
0001
0100
0000
1000
1000
0100
0000
,
1000
1000
0100
0000
0010
0000
0010
0000
,
1001
0000
0001
0000
0100
0000
1000
0000
,
0100
0000
0001
0000
0100
0000
1000
0000
,
0010
0010
1000
0000
0100
0000
0001
0000
,  // column 9
0100
0000
1000
0000
0001
0000
1000
0000
,
0000
0000
0001
1000
0001
1000
0010
0100
,
0001
0100
1001
0000
0000
0000
0000
0000
;

//---------------techno-single5 - Easy----------------
#NOTES:
     techno-single5:
     :
     Easy:
     1:
     0.203,0.246,0.073,0.000,0.000:
00000
00000
00000
00000
,
00000
00000
00000
00000
,
01000
00000
01000
00000
,
00010
00000
00010
00000
,
00001
00000
00001
00000
,
10000
00000
10000
00000
,
01000
00000
00100
00000
,
01000
00000
00100
00000
,
00010
00000
00100
00000
,
00010
00000
00100
00000
,
00001
00000
00100
00000
,
00001
00000
00100
00000
,
10000
00000
00100
00000
,
10000
00000
00100
00000
,
00100
00000
00100
00000
,
01010
00000
00100
00000
,
00100
00000
00100
00000
,
10001
00000
00000
00000
,
00100
00000
00000
00000
,
01000
00000
00010
00000
,
00100
00000
00001
00000
,
10000
00000
00100
00000
,
01000
00000
00010
00000
,
00100
00000
00001
00000
,
10000
00000
00100
00000
,
10000
00000
00001
00000
,
00100
00000
00010
00000
,
01000
00000
00100
01000
,
01010
00000
00100
00001
,
10001
00000
00100
01000
,
01010
00000
00100
00001
,
10001
00000
00100
00000
,
01000
00100
00010
00000
,
01000
00100
00010
00000
,
01000
00010
01000
00010
,
01000
00010
01000
00010
,
01000
00010
01000
00010
,
01000
00010
01000
00010
,
01000
00100
00010
00000
,
00100
00000
00001
00100
,
10000
00000
00100
00000
,
10000
00100
00001
00000
,
00100
00000
00010
00100
,
01000
00000
00100
00000
,
01000
00100
00010
00000
,
00100
00000
00001
00100
,
10000
00100
00001
00000
,
10000
10000
00001
00001
,
10000
10000
00001
00001
,
10000
10000
00001
00001
,
10000
10000
00001
00001
,
10000
10000
00001
00001
,
10001
00000
00000
00000
;

//---------------techno-single5 - Medium----------------
#NOTES:
     techno-single5:
     :
     Medium:
     6:
     0.203,0.246,0.073,0.000,0.000:
00000
00000
00000
00000
,
00000
00000
00000
00000
,
10000
10000
00001
00001
10000
10000
00001
00001
,
10000
10000
00001
00001
10000
00000
00100
00000
,
00001
00001
10000
10000
00001
00001
10000
10000
,
00001
00001
10000
10000
00001
00000
00100
00000
,
01000
00000
00100
01000
00010
00000
00001
00000
,
10000
00000
00100
00010
01000
00000
10000
00000
,
00001
00000
00100
00001
10000
00000
01010
00000
,
10001
00000
00010
01000
00100
00000
01010
00000
,
10001
01000
00010
00001
,
10000
00000
00001
00000
10000
00100
10000
01000
,
00001
00100
10000
00100
01000
00000
00010
00100
,
00001
00100
10000
10000
10000
00000
00100
00000
,
00001
00000
10000
00000
01000
01000
00001
00000
,
00001
00001
01000
00000
00001
00001
01000
00000
,
01000
01000
00001
00000
01000
00000
00001
00000
,
01000
00000
00001
00000
01000
10000
00010
00000
,
00001
00010
10000
00000
00100
00000
01000
00000
,
00100
10000
00001
00000
,
10000
00100
01000
00100
00010
00100
01000
00000
,
00010
00100
00001
00100
10000
00000
00000
00000
,
00010
00100
01000
00000
00010
00100
01000
00000
,
00001
10000
01000
00010
,
00000
00000
10000
00100
00001
00000
10000
00100
,
00001
00000
00010
00010
00010
00000
00100
00000
,
01000
00100
00010
00000
01000
00100
00010
00000
,
10000
00001
00010
01000
,
00000
00000
00001
00100
10000
00000
00001
00100
,
10000
00000
01000
01000
01000
00000
00100
00000
,
01000
00001
00100
00000
10000
00010
00100
00000
,
01000
00100
00011
00011
,
00100
00001
00001
00000
00100
00010
00010
00000
,
00100
11000
11000
01000
,
00001
00000
01000
01000
00001
00000
01000
01000
,
00001
01000
01000
00001
,
01000
00000
00001
00001
01000
00000
00001
00001
,
01000
00001
00001
00000
,
00010
00000
01000
00100
,
00001
10000
00100
00100
,
01000
00100
00010
00100
,
01010
10001
01010
10001
,
00100
00000
01000
00010
01000
00000
00100
00000
,
00001
10000
00001
00000
00100
00000
00010
00000
,
00100
00000
00010
00010
00100
00000
01000
01000
,
00100
00000
01000
01000
00100
00000
00010
00010
,
10000
10001
10001
00010
,
00100
01000
00100
00001
,
00100
00000
01000
00000
00100
00000
00001
00001
,
00100
10000
00100
00010
,
00100
01000
10000
00000
,
01000
00100
00010
00100
00010
01000
00001
01000
,
00100
00000
00000
00000
;

//---------------techno-single8 - ----------------
#NOTES:
     techno-single8:
     :
     Easy:
     1:
     0.203,0.246,0.073,0.000,0.000:
00000000
00000000
00000000
00000000
,
00000000
00000000
00000000
00000000
,
00000000
00100000
00000000
00100000
,
00000000
00000100
00000000
00000100
,
00000000
00000001
00000000
00000001
,
00000000
01000000
00000000
01000000
,
00000000
00100000
00000000
00000010
,
00000000
00010000
00000000
00000010
,
00000000
00000100
00000000
01000000
,
00000000
00001000
00000000
01000000
,
00000000
00000001
00000000
00010000
,
00000000
00000010
00000000
00010000
,
00000000
10000000
00000000
00010000
,
00000000
01000000
00000000
00010000
,
00000000
00010000
00000000
00010000
,
00000000
00011000
00000000
00001000
,
00000000
00001000
00000000
00001000
,
00000000
10000001
00000000
00000000
,
00000000
00001000
00000000
00000000
,
00000000
00010000
00000000
00001000
,
00000000
00010000
00000000
00000001
,
00000000
01000000
00000000
00010000
,
00000000
00100000
00000000
00000100
,
00000000
00001000
00000000
00000010
,
00000000
10000000
00000000
00001000
,
00000000
01000000
00000000
00000010
,
00000000
01000000
00000000
00000100
,
00000000
00010000
00000000
00001000
,
00100000
00100100
00000000
01000000
,
00000010
01000010
00000000
00001000
,
00100000
00100100
00000000
01000000
,
00000010
01000010
00000000
01000000
,
00000000
00100000
00000001
00000100
,
00000000
00010000
01000000
00001000
,
00000000
00100000
00000100
00100000
,
00000100
00100000
00000100
00100000
,
00000100
00100000
00000100
00100000
,
00000100
00100000
00000100
00100000
,
00000100
00100000
00000000
00000100
,
00000000
01000000
00000000
00000010
,
10000000
10000000
00000000
00010000
,
00000000
01000000
00001000
00000010
,
00000000
01000000
00000000
00000100
,
00001000
00100000
00000000
01000000
,
00000000
00100000
00001000
00000100
,
00000000
00100000
00000000
00000010
,
00000010
01000000
01000000
00000010
,
00000000
01000000
01000000
00000010
,
00000010
01000000
01000000
00000010
,
00000010
01000000
01000000
00000010
,
00000010
01000000
01000000
00000010
,
00000010
01000000
01000000
00000010
,
00000010
01000010
00000000
00000000
;

//---------------techno-single8 - ----------------
#NOTES:
     techno-single8:
     :
     Medium:
     6:
     0.383,0.410,0.073,0.000,0.000:
00000000
00000000
00000000
00000000
,
00000000
00000000
00000000
00000000
,
00000000
00000000
01000000
01000000
00000010
00000010
01000000
01000000
,
00000010
00000010
01000000
01000000
00000010
00000010
01000000
00000000
,
01000000
00000000
00000010
00000010
01000000
01000000
00000010
00000010
,
01000000
01000000
00000010
00000010
01000000
01000000
00000010
00000000
,
00000010
00000000
00100000
00000000
00001000
01000000
00010000
00000000
,
00000010
01000000
00000000
00000000
00001000
00000010
00010000
00000000
,
00000100
00000000
10000000
00000000
00001000
00100000
00010000
00000000
,
00100000
00000000
00000001
00000000
00001000
00000100
00010000
00000000
,
01000000
00000010
00001000
01000000
,
00010000
00000000
00000010
00000000
01000000
00000000
00000010
00100000
,
00000010
01000000
00000010
00010000
01000000
00010000
00000010
00000000
,
01000000
00010000
00000010
00010000
01000000
01000000
01000000
00000000
,
01000000
00100000
00000100
00000001
,
10000000
01000000
01000000
00000010
,
00000010
00000000
00100000
00100000
00000100
00000100
01000000
01000000
,
00000010
00000010
10000000
00000000
00000001
00000000
01000010
00000000
,
00100100
00000000
00001000
00001000
00001000
00000000
10000000
00000000
,
00100000
00000100
00000001
00000010
,
00000000
00000000
00000010
00010000
01000000
00110000
00000010
00010000
,
01000000
00000000
01000000
00010000
00000010
00010000
01000000
00000000
,
00000000
00000000
00000010
00010000
01000000
00000000
00000010
00010000
,
01000000
00000010
00001000
01000000
,
00010000
00000000
00000000
00000000
01000000
00010000
00000010
00000000
,
01000000
00010000
00000010
00000000
00001000
00001000
00001000
00000000
,
00001000
00000000
01000000
00010000
00000010
00000000
01000000
00010000
,
00000010
01000000
00010000
00000010
,
00001000
00000000
00000000
00000000
00000010
00010000
01000000
00000000
,
00000010
00010000
01000000
00000000
00010000
00010000
00010000
00000000
,
00010000
00000000
01000000
00000010
00010000
00000000
00000010
01000000
,
00010000
00100000
00010000
00000100
,
00010000
00000000
00001000
00000001
00001000
00000000
00000010
00001000
,
00010000
01000000
00010000
00000010
,
00001000
00000000
00010000
00000000
00010000
00010000
01000000
00000000
,
00000010
00000010
01000000
00000000
00000010
00000000
01000000
00000000
,
00000010
00000000
01000000
00000000
01000000
01000000
00000010
00000000
,
01000000
01000000
00000010
00000000
01000000
00000000
00000010
00000000
,
01000000
00000010
00000010
00000000
,
00010000
00100100
00001000
10000001
,
00010000
01000000
00010000
00000010
,
00010000
01000000
00010000
00000010
,
00010000
00000000
00010000
00000000
00100000
00000100
00100000
00000000
,
00001000
00000000
00000000
00000001
10000000
00000001
00000000
00000000
,
00010000
00001000
00010000
00001000
,
00010000
00010000
00001000
00001000
,
00001000
00010000
10000001
10000001
,
00001000
00000010
00010000
01000000
,
00001000
00000010
00010000
01000000
,
00010000
00000000
00001000
00000000
00010000
00001000
00010000
00000000
,
01000000
00000000
00000010
00000000
00010000
00000000
00010000
00010000
,
00000000
00010000
01000000
00000010
,
00001000
00010000
00000000
00000000
;
