#TITLE:Get Up;
#SUBTITLE:;
#ARTIST:Baby V.O.X.;
#TITLETRANSLIT:;
#SUBTITLETRANSLIT:;
#ARTISTTRANSLIT:;
#CREDIT:;
#BANNER:Disc.png;
#BACKGROUND:Title.png;
#LYRICSPATH:;
#CDTITLE:;
#MUSIC:Song.mp3;
#OFFSET:0.000;
#SAMPLESTART:53.571;
#SAMPLELENGTH:12.000;
#SELECTABLE:YES;
#BPMS:0.000=112.000;
#STOPS:;
#BGCHANGES:;

//---------------techno-single4 - Easy----------------
#NOTES:
     techno-single4:
     :
     Easy:
     4:
     0.229,0.270,0.086,0.000,0.000:
0000
0000
0000
0000
,
0000
0000
0000
0000
,  // column 1
0000
0000
1000
0000
0000
0000
0001
0000
,
0000
0000
1000
0000
0000
0000
0001
0000
,
0000
0000
0010
0000
0000
0000
0100
0000
,
0010
0000
0001
0000
0100
0000
1000
0000
,
0000
0000
0001
0000
0000
0000
1000
0000
,
0000
0000
0100
0000
0000
0000
0001
0000
,  // column 2
0000
0000
0010
0000
0000
0000
0100
0000
,
0010
0000
1000
0000
0100
0000
0001
0000
,
1001
0000
0000
0000
0000
0000
0000
0000
,
0010
0000
1000
0000
0001
0000
0100
0000
,
1001
0000
0000
0000
0000
0000
0000
0000
,
0001
0000
1000
0000
0001
0000
0100
0000
,  // column 3
0100
0000
0001
0000
0000
0000
0100
0000
,
0001
0000
0001
0000
0000
0000
0001
0000
,
1000
0000
1000
0000
0000
0000
1000
0000
,
0001
0000
0001
0000
0000
0000
0001
0000
,
0110
0000
0000
0000
0000
0000
0000
0000
,
1000
0000
0100
0000
0010
0000
0001
0000
,  // column 4
0110
0000
0000
0000
0000
0000
0000
0000
,
0001
0000
0010
0000
0100
0000
1000
0000
,
0000
0000
0001
0000
0000
0000
1000
0000
,
0000
0000
1000
0000
0000
0000
0001
0000
,
0000
0000
0001
0000
0000
0000
1000
0000
,
0001
0000
0001
0000
1000
0000
1000
0000
,  // column 5
0001
0001
1000
0000
1000
1000
0001
0000
,
0000
0000
0001
0100
0001
0100
0001
0000
,
1000
1000
0001
0000
0001
0001
1000
0000
,
0000
0000
1000
0010
1000
0010
1000
0000
,
0001
0001
1000
0000
1000
1000
0001
0000
,
0000
0000
0100
0000
0100
0000
0100
0000
,  // column 6
1000
0000
0100
0000
0001
0000
0001
0000
,
0010
0000
0100
0000
0010
0000
1001
0000
,
1000
1000
0010
0000
0001
0001
0010
0000
,
0000
0000
0100
0010
0100
0010
0100
0000
,
0001
0001
0100
0000
0100
0100
0001
0000
,
0000
0000
0010
0100
0010
0100
0010
0000
,  // column 7
0010
0010
1000
0000
0100
0100
0001
0000
,
1000
0000
0010
0000
0100
0000
0001
0000
,
1000
0000
0001
0000
0100
0000
0001
0000
,
1000
0000
0100
0000
0010
0000
1001
0000
,
1001
0000
0000
0000
0000
0000
0000
0000
;

//---------------techno-single5 - Easy----------------
#NOTES:
     techno-single5:
     :
     Easy:
     4:
     0.229,0.270,0.086,0.000,0.000:
00000
00000
00000
00000
,
00000
00000
00000
00000
,
00000
01000
00000
00001
,
00000
00010
00000
10000
,
00000
00100
00000
00100
,
10000
01000
00010
00001
,
00000
00010
00000
10000
,
00000
01000
00000
00001
,
00000
00100
00000
00100
,
00010
01000
10000
00001
,
01010
00000
00000
00000
,
00010
01000
00001
10000
,
10001
00000
00000
00000
,
00001
10000
00010
01000
,
01000
00010
00000
01000
,
00010
00010
00000
00010
,
10000
10000
00000
10000
,
00001
00001
00000
00001
,
01010
00000
00000
00000
,
00010
01000
10000
00001
,
10001
00000
00000
00000
,
00010
10000
01000
00001
,
00000
10000
00000
10000
,
00000
00001
00000
00001
,
00000
10100
00000
00001
,
10000
10000
00001
00001
,
10000
10000
00001
00000
00001
00001
10000
00000
,
00000
00000
10000
00100
10000
00100
10000
00000
,
00001
00001
10000
00000
10000
10000
00001
00000
,
00000
00000
00001
00100
00001
00100
00001
00000
,
10000
10000
00001
00000
00001
00001
10000
00000
,
00000
00100
00100
00100
,
00010
01000
00100
10000
,
00001
01000
00010
01010
,
01000
01000
00010
00000
00010
00010
01000
00000
,
00000
00000
01000
00100
01000
00100
01000
00000
,
00010
00010
01000
00000
01000
01000
00010
00000
,
00000
00000
00010
00100
00010
00100
00010
00000
,
00010
00010
01000
00000
01000
01000
00010
00000
,
01000
00100
10000
00001
,
10000
00001
00100
00010
,
01000
00001
10000
10001
,
10001
00000
00000
00000
;

//---------------pump-single - easy----------------
#NOTES:
     pump-single:
     easy:
     Easy:
     2:
     0.229,0.270,0.086,0.000,0.000:
00000
00000
00000
00000
,
00000
00000
00000
00000
,
00000
01000
00000
00001
,
00000
00010
00000
10000
,
00000
00100
00000
00100
,
10000
01000
00010
00001
,
00000
00010
00000
10000
,
00000
01000
00000
00001
,
00000
00100
00000
00100
,
00010
01000
10000
00001
,
01010
00000
00000
00000
,
00010
01000
00001
10000
,
10001
00000
00000
00000
,
00001
10000
00010
01000
,
01000
00010
00000
01000
,
00010
00010
00000
00010
,
10000
10000
00000
10000
,
00001
00001
00000
00001
,
01010
00000
00000
00000
,
00010
01000
10000
00001
,
10001
00000
00000
00000
,
00010
10000
01000
00001
,
00000
10000
00000
10000
,
00000
00001
00000
00001
,
00000
10100
00000
00001
,
10000
10000
00001
00001
,
10000
10000
00001
00000
00001
00001
10000
00000
,
00000
00000
10000
00100
10000
00100
10000
00000
,
00001
00001
10000
00000
10000
10000
00001
00000
,
00000
00000
00001
00100
00001
00100
00001
00000
,
10000
10000
00001
00000
00001
00001
10000
00000
,
00000
00100
00100
00100
,
00010
01000
00100
10000
,
00001
01000
00010
01010
,
01000
01000
00010
00000
00010
00010
01000
00000
,
00000
00000
01000
00100
01000
00100
01000
00000
,
00010
00010
01000
00000
01000
01000
00010
00000
,
00000
00000
00010
00100
00010
00100
00010
00000
,
00010
00010
01000
00000
01000
01000
00010
00000
,
01000
00100
10000
00001
,
10000
00001
00100
00010
,
01000
00001
10000
10001
,
10001
00000
00000
00000
;

//---------------techno-single8 - ----------------
#NOTES:
     techno-single8:
     :
     Easy:
     4:
     0.222,0.270,0.075,0.000,0.000:
00000000
00000000
00000000
00000000
,
00000000
00000000
00000000
00000000
,
00000000
01000000
00000000
00000010
,
00000000
10000000
00000000
00000100
,
00000000
00100000
00000000
00000001
,
01000000
00001000
00000010
00010000
,
00000000
01000000
00000000
00000010
,
00000000
00100000
00000000
00000001
,
00000000
10000000
00000000
00000100
,
00001000
00000010
00010000
00000010
,
00100100
00000000
00000000
00000000
,
00100000
00000001
10000000
00000100
,
10000001
00000000
00000000
00000000
,
10000000
00000100
00100000
00000001
,
00000000
01000000
00000000
00000001
,
00000000
00000001
00000000
10000000
,
00000000
10000000
00000000
00000010
,
00000000
00000010
00000000
01000000
,
00011000
00000000
00000000
00000000
,
01000000
10000000
00000010
00000100
,
00011000
00000000
00000000
00000000
,
00000010
00000100
01000000
10000000
,
00000000
00000010
00000000
00100000
,
00000000
00100000
00000000
00000100
,
00000000
00000100
00000000
01000000
,
01000000
01000000
00000010
00000010
,
10000000
10000000
00000001
00000000
00000001
00000001
10000000
00000000
,
00000000
00000000
10000000
00010000
10000000
00010000
10000000
00000000
,
00000001
00000001
10000000
00000000
10000000
10000000
00000001
00000000
,
00000000
00000000
00000001
00001000
00000001
00001000
00000001
00000000
,
01000000
01000000
00000010
00000000
00000010
00000010
01000000
00000000
,
00000000
00010000
00010000
00010000
,
01000000
00100000
00001000
00001000
,
00010000
00001000
00010000
01000010
,
01000000
01000000
00001000
00000000
00000010
00000010
00010000
00000000
,
00000000
00000000
00100000
00010000
00100000
00010000
00100000
00000000
,
00000100
00000100
00100000
00000000
00100000
00100000
00000100
00000000
,
00000000
00000000
00000100
00010000
00000100
00010000
00000100
00000000
,
00000100
00000100
00100000
00000000
00100000
00100000
00000100
00000000
,
00100000
00001000
10000000
00010000
,
00000010
00000001
00010000
00010000
,
00001000
00010000
00001000
10000001
,
10000001
00000000
00000000
00000000
;
