#TITLE:EMOTION;
#SUBTITLE:;
#ARTIST:Yoo chae-young;
#TITLETRANSLIT:;
#SUBTITLETRANSLIT:;
#ARTISTTRANSLIT:;
#CREDIT:;
#BANNER:Disc.png;
#BACKGROUND:Title.png;
#LYRICSPATH:;
#CDTITLE:;
#MUSIC:Song.mp3;
#OFFSET:-4.930;
#SAMPLESTART:46.026;
#SAMPLELENGTH:12.000;
#SELECTABLE:YES;
#BPMS:0.000=146.000;
#STOPS:;
#BGCHANGES:;

//---------------techno-single4 - Medium----------------
#NOTES:
     techno-single4:
     :
     Medium:
     5:
     0.477,0.444,0.796,0.000,0.000:
0000
0000
0000
0000
0000
0000
0000
0000
,  // column 1
1000
1000
0001
0001
0100
0010
0100
0100
,
1010
0000
0101
0000
0010
0010
0100
0000
,
1001
0000
1001
0000
0010
0100
0010
0000
,
0011
0000
1100
0000
0100
0100
0010
0000
,
1001
0000
1001
0000
0010
0100
0010
0000
,
0001
0100
1000
0100
0001
1000
1001
0000
,  // column 2
1001
0000
0110
0000
1000
0100
0001
0000
,
0100
0000
0010
0000
1100
0000
0011
0000
,
1010
0000
0101
0000
1010
0000
0011
0000
,
1001
0000
0110
0000
0001
0100
1000
0100
,
0010
0000
0100
0000
1100
0000
0011
0000
,
0010
0000
0010
0000
1000
0001
1000
0000
,  // column 3
1000
0100
1000
0000
0001
0100
0001
0000
,
1000
1000
0010
1000
0100
0000
0110
0000
,
1100
0000
0101
0000
0011
0000
1010
0000
,
0110
0000
1001
0000
0010
0000
0100
0010
,
1000
0000
0001
0000
1000
0000
1010
0000
,
0001
0000
0011
0000
1000
0000
1010
0000
,  // column 4
0010
0000
1000
0000
0100
0000
0001
0000
,
1000
0000
0001
0100
1000
0000
1001
0000
,
0010
0000
1000
0000
0100
0000
0001
0000
,
0100
0000
1000
0001
0100
0000
1001
0000
,
0010
1000
0100
0000
0010
0001
0100
0000
,
0010
1000
0100
0001
0010
0001
0100
1000
,  // column 5
0001
0000
1000
0000
0001
0000
0101
0000
,
0010
0000
1010
0000
0001
0000
0101
0000
,
1000
0000
0001
0000
0001
0000
1000
0000
,
0010
0000
0100
1000
0010
0000
0110
0000
,
0001
0000
0010
0000
1000
0000
0100
0000
,
0010
0000
0001
1000
0010
0000
1001
0000
,  // column 6
0100
0001
0010
0000
0100
1000
0010
0000
,
0010
1000
0100
0001
0010
0001
0100
1000
,
1001
0000
1001
0000
0000
0100
0010
0000
,
1001
0000
1001
0000
0000
0010
0100
0000
,
0110
0000
0110
0000
0000
0001
1000
0000
,
0110
0000
0110
0000
0000
1000
0001
0000
,  // column 7
0110
0000
1001
0000
0100
0100
0100
0000
,
0010
0000
1001
0000
1000
0000
0110
0000
,
1000
0001
0100
0000
1000
0001
0100
0000
,
0001
0000
0011
0000
1001
0000
0100
0100
,
1001
0000
0110
0000
1000
0100
0001
0000
,
0100
0000
0010
0000
1100
0000
0011
0000
,  // column 8
1010
0000
0101
0000
1010
0000
0011
0000
,
1001
0000
0110
0000
0001
0100
1000
0100
,
0010
0000
0100
0000
1010
0000
0101
0000
,
0100
0000
1001
0000
0010
0000
1001
0000
,
0001
0010
1000
0000
0001
0010
1000
0000
,
0010
0010
1000
0001
0100
0000
0110
0000
,  // column 9
1010
0000
0101
0000
0100
1000
0001
0000
,
0010
0000
1000
0000
0001
0000
0100
0000
,
0011
0000
1100
0000
1000
0000
0010
0000
,
0101
0000
1100
0000
0001
1000
0010
0000
,
1000
0000
0000
0000
0000
0000
0000
0000
;

//---------------techno-single5 - Medium----------------
#NOTES:
     techno-single5:
     :
     Medium:
     5:
     0.477,0.444,0.796,0.000,0.000:
00000
00000
00000
00000
,
01000
01000
00010
00010
00100
00100
00001
10000
,
10100
00000
00101
00000
00100
00010
01000
00000
,
00110
00000
00110
00000
01000
00100
10000
00000
,
00101
00000
10100
00000
00100
00010
01000
00000
,
10100
00000
10100
00000
00010
00100
00001
00000
,
00010
01000
00100
10000
00001
10000
00100
00000
,
10001
00000
00100
00000
10000
00100
00001
00000
,
01000
00010
01100
00110
,
10100
00101
10100
00101
,
01010
00000
00100
00000
00010
00100
10000
00100
,
00010
01000
00101
10100
,
00010
01000
10001
10001
,
00010
00100
00010
00000
01000
00100
01000
00000
,
01000
00010
00100
00010
00010
00000
10001
00000
,
01100
10100
00110
00101
,
01010
00000
00100
00000
10001
00000
00100
00100
,
01000
00010
01000
10100
,
00010
01100
00010
00101
,
00010
00100
01000
00100
,
01010
00000
00100
00100
10001
00000
00100
00000
,
00010
00100
10000
01000
,
01000
00000
00100
01000
00001
00000
01010
00000
,
00100
00100
10000
00000
00100
00100
00001
00000
,
10000
00100
10000
00100
00001
00100
00001
00100
,
00010
01000
00010
00101
,
01000
00110
01000
10100
,
00001
01000
10000
00010
,
01010
00000
00100
00100
10001
00000
00100
00000
,
01000
00100
00001
00010
,
00010
00000
00100
00010
10000
00000
01010
00000
,
00100
00100
00001
00000
00100
00100
10000
00000
,
00001
00100
00001
00100
01000
00100
01000
00100
,
01010
00000
01010
00000
00000
00001
10000
00000
,
01010
00000
01010
00000
00000
10000
00001
00000
,
10010
00000
01001
00000
00000
00010
01000
00000
,
01001
00000
10010
00000
00000
01000
00010
00000
,
10001
00000
01010
00000
00100
00100
00100
00000
,
01000
00100
00001
10001
,
01000
00010
00100
00000
00010
01000
00100
00000
,
00001
00000
00101
00000
10001
00000
01000
01000
,
10001
00000
00100
00000
00001
00100
10000
00000
,
00010
01000
00110
01100
,
10100
00101
10100
00101
,
00001
00000
01000
00000
00001
10000
00100
00100
,
00010
01000
01100
00101
,
01000
01010
10000
10001
,
00010
00100
00010
00000
01000
00100
01000
00000
,
10000
00100
00001
00100
10000
00100
00001
00000
,
01010
00000
10001
00000
01000
00100
00001
00000
,
00100
00100
00100
10001
,
01010
10001
00010
10000
,
00100
00000
00100
00000
10000
00001
10000
00000
,
00100
00000
00000
00000
;

//---------------techno-single8 - ----------------
#NOTES:
     techno-single8:
     :
     Medium:
     6:
     0.477,0.444,0.796,0.000,0.000: // measure 1
00000000
00000000
00000000
00000000
,  // measure 2
01000000
01000000
00000010
00000010
00010000
00001000
00010000
00010000
,  // measure 3
10000100
00000000
10000100
00000000
01000000
01000000
00000001
00000000
,  // measure 4
00100100
00000000
00100100
00000000
00001000
00010000
00001000
00000000
,  // measure 5
00100001
00000000
00100001
00000000
00000010
00000010
10000000
00000000
,  // measure 6
00100100
00000000
00100100
00000000
00001000
00010000
00001000
00000000
,  // measure 7
00000001
00000000
00000000
00000000
,  // measure 8
00011000
00000000
01000010
00000000
00000100
01000000
01000000
00000000
,  // measure 9
00000010
00000101
01000000
10100000
,  // measure 10
01000010
00001010
01000010
01010000
,  // measure 11
01000010
00000000
00100100
00000000
01000000
01000000
00000100
00000000
,  // measure 12
00001000
01001000
00010000
00010010
,  // measure 13
01000000
00000000
00000010
00000000
00000010
00010000
01000000
00000000
,  // measure 14
00100100
00000000
00100000
00000000
00001000
00001000
00011000
00000000
,  // measure 15
00001000
01000000
00000010
00010000
01000000
00000010
00010000
00000000
,  // measure 16
00100000
00000010
00001000
00010000
,  // measure 17
00100100
00000000
10000001
00000000
00010000
00000000
00001000
00001000
,  // measure 18
10000000
00000100
10000000
10001000
,  // measure 19
00000100
00001010
00000100
10000100
,  // measure 20
00100000
00100001
00010000
10000001
,  // measure 21
00000100
00000000
00100000
01000000
00000100
00000000
00100100
00000000
,  // measure 22
10000000
00001000
00100000
10000000
,  // measure 23
00010000
00000000
00000010
00000010
10000000
00000000
01000010
00000000
,  // measure 24
00100000
00000100
00010000
00000000
00000100
00100000
00010000
00000000
,  // measure 25
00001000
00000100
01000000
01000000
00000010
00000010
01000000
01000000
,  // measure 26
00000001
10000000
00000001
00001010
,  // measure 27
10000000
01010000
00100000
01001000
,  // measure 28
00000100
00001010
00010000
10000001
,  // measure 29
00100000
00000000
10000000
10000000
00000100
00000000
10000001
00000000
,  // measure 30
00001000
01000000
00010000
00000010
,  // measure 31
00000100
00000000
00000010
00000010
01000000
00000000
10000001
00000000
,  // measure 32
00010000
00000010
01000000
00000000
00010000
01000000
00000010
00000000
,  // measure 33
00000010
00000010
00001010
00000000
01000000
01000000
01010000
00000000
,  // measure 34
00100100
00100100
00010000
00010000
,  // measure 35
10000001
10000001
00001000
00001000
,  // measure 36
00100000
00000000
00000001
00000000
00100000
00000001
00100000
00000000
,  // measure 37
00000100
00000000
10000000
00000000
00000100
10000000
00000100
00000000
,  // measure 38
01000010
00001000
01000010
00010000
,  // measure 39
00000010
00011000
01000000
00011000
,  // measure 40
01000010
00010000
01000010
00001000
,  // measure 41
01000000
00000000
00010000
00000000
00000010
00000000
00010000
00010000
,  // measure 42
00011000
00000000
01000010
00000000
01000000
00010000
00000010
00000000
,  // measure 43
00100000
00000100
01001000
00010010
,  // measure 44
10000001
10000001
01010000
00001010
,  // measure 45
00100100
00000000
10000001
00000000
00000010
01000000
00010000
00000010
,  // measure 46
00001000
00001000
00100001
10000100
,  // measure 47
01000000
01000010
00000010
01000010
,  // measure 48
10000000
10000100
00000100
10000100
,  // measure 49
00001000
00011000
00010000
00011000
,  // measure 50
00100100
00000000
00100100
00000000
00000100
00100000
00000100
00000000
,  // measure 51
10000000
10000000
00000001
00000001
,  // measure 52
01000010
00011000
01000000
10000001
,  // measure 53
01000010
00011000
00000010
10000001
,  // measure 54
00010000
00000000
00000000
00000000
;
