#TITLE:Dream;
#SUBTITLE:;
#ARTIST:Sung Min Hyung;
#TITLETRANSLIT:;
#SUBTITLETRANSLIT:;
#ARTISTTRANSLIT:;
#CREDIT:;
#BANNER:Disc.png;
#BACKGROUND:Title.png;
#LYRICSPATH:;
#CDTITLE:;
#MUSIC:Dream.mp3;
#OFFSET:-2.110;
#SAMPLESTART:45.408;
#SAMPLELENGTH:12.000;
#SELECTABLE:YES;
#BPMS:0.000=118.900;
#STOPS:;
#BGCHANGES:;

//---------------techno-single4 - Medium----------------
#NOTES:
     techno-single4:
     :
     Medium:
     5:
     0.418,0.447,0.577,0.000,0.000:
0000
0000
0000
0000
,  // column 1
1000
0000
0001
0000
0001
0010
0001
0000
,
0010
0000
1000
0000
0010
1000
0010
0000
,
0001
0000
1000
0000
1000
0010
1000
0000
,
0010
0000
0001
0000
0010
0001
0010
0000
,
1000
0001
1000
0001
0010
0010
0010
0000
,
0001
1000
0001
1000
0100
0100
0100
0000
,  // column 2
1000
0001
1000
0001
0010
0010
0010
0000
,
1100
0000
1001
0000
0011
0000
0110
0000
,
0100
0000
0010
0000
0001
1000
1000
0000
,
0010
0000
0001
0000
0100
1000
1000
0000
,
1000
0000
0001
0000
0010
1000
1000
0000
,
0001
0000
0001
0000
0010
1000
0001
0000
,  // column 3
0100
0000
0010
0000
0001
0001
1000
1000
,
0001
0000
0100
0000
1000
0000
0100
0000
,
1000
0000
1010
0000
0001
0000
0101
0000
,
1000
0100
0001
0100
1000
0000
0000
0000
,
1000
0000
0010
0000
0001
0001
1000
0000
,
0010
0000
0100
0000
0001
0100
0001
0000
,  // column 4
0001
0000
0100
0000
1000
1000
0001
0000
,
1000
0000
0001
0000
0110
1001
0110
0000
,
0001
0000
0010
0000
1000
1000
0001
0000
,
0100
0000
0010
0000
1001
0110
1001
0000
,
1000
0000
0100
0000
0001
0001
1000
0100
,
0000
1001
1001
0000
0000
0000
0100
0000
,  // column 5
0010
0000
1010
0000
0100
0000
0101
0000
,
1000
1000
0001
0001
1001
1001
0000
0000
,
0010
0010
0100
0100
0010
0100
0110
0000
,
1001
0000
1001
0000
0000
0010
0100
0000
,
1000
0000
0100
0000
0001
0000
1001
0000
,
0001
0000
0100
0000
1000
0000
1001
0000
,  // column 6
0010
0010
0100
0100
1001
0000
1001
0100
,
0000
1001
1001
0000
0000
0000
0000
0000
,
0001
0000
0011
0000
1000
0000
1100
0000
,
0010
0001
0100
1000
0110
0110
0110
0000
,
1000
1000
0001
0001
1000
0001
1001
0000
,
0100
0000
0010
0000
0000
1001
1001
0000
,  // column 7
1000
0000
0100
0000
0001
0000
1001
0000
,
0001
0000
0100
0000
1000
0000
1001
0000
,
1000
1000
0100
0100
1001
0000
1001
0100
,
1000
0000
1000
0000
0001
0100
0001
0010
,
1000
0001
0000
1000
0001
0000
0100
0000
,
0010
0001
1000
0100
0001
0000
0010
0010
,  // column 8
0100
0010
1001
1001
0000
0000
0010
0000
,
1000
0000
0000
0000
0000
0000
0000
0000
;

//---------------techno-single5 - Medium----------------
#NOTES:
     techno-single5:
     :
     Medium:
     5:
     0.418,0.447,0.577,0.000,0.000: // measure 1
00000
00000
00000
00000
,  // measure 3
01000
00000
00010
00000
00010
00100
00010
00000
,  // measure 4
00100
00000
10000
00000
00100
10000
00100
00000
,  // measure 5
00010
00000
01000
00000
01000
00100
01000
00000
,  // measure 6
00100
00000
00001
00000
00100
00001
00100
00000
,  // measure 7
10000
00001
10000
00001
00100
00100
00100
00000
,  // measure 8
00001
10000
00001
10000
00100
00100
00100
00000
,  // measure 9
10000
00001
10000
00001
00100
00100
00100
00000
,  // measure 10
11000
10001
00011
01010
,  // measure 11
01000
00000
00010
00000
00001
10000
10000
00000
,  // measure 12
01000
00000
00010
00000
00001
10000
10000
00000
,  // measure 13
10000
00000
00001
00000
00010
01000
01000
00000
,  // measure 14
00010
00000
00010
00000
00100
00010
00100
00000
,  // measure 15
00001
10000
00001
10000
00100
00000
00100
00000
,  // measure 16
10000
00001
10000
00001
00100
00000
00100
01000
,  // measure 17
10000
11000
00010
00011
,  // measure 18
10000
00001
10000
00100
00100
00000
00000
00000
,  // measure 19
01000
10000
00010
00001
,  // measure 20
01000
00000
01000
00000
00001
00100
00001
00000
,  // measure 21
00010
00001
01000
10000
,  // measure 22
00010
00000
00010
00000
00100
10000
00100
00000
,  // measure 23
00001
00000
00001
00000
00100
00001
00100
00000
,  // measure 24
01000
00000
01000
00000
01000
00100
01000
00000
,  // measure 25
10000
10000
00100
01000
,  // measure 26
00000
01010
01010
00000
00100
00000
00100
00000
,  // measure 27
01000
01001
00010
10010
,  // measure 28
10000
00000
00001
00000
10001
10001
10001
00000
,  // measure 29
01000
00001
01000
00100
01000
00100
01000
00001
,  // measure 30
10000
00100
00100
00000
00000
10001
10001
00000
,  // measure 31
00010
10000
00010
00100
00010
00100
00010
00000
,  // measure 32
00100
00000
00100
00000
01000
00100
10000
00000
,  // measure 33
11000
10100
00101
00011
,  // measure 34
00000
01010
01010
00000
01010
01010
00000
00000
,  // measure 35
01000
00001
01000
00001
00100
00100
00100
00001
,  // measure 36
00001
10000
00001
00000
00001
10000
00001
00000
,  // measure 37
00010
10000
00010
10000
00100
00100
00100
00000
,  // measure 38
10000
00001
10000
00000
00001
10000
00001
00000
,  // measure 39
00001
10000
00001
10000
00100
00100
00100
00000
,  // measure 40
01000
00000
00010
00000
01000
00010
01000
00000
,  // measure 41
10000
00001
10000
00001
00100
00100
00100
00000
,  // measure 42
00010
00000
01000
00000
00010
01000
00010
00000
,  // measure 43
01000
00010
00000
00100
10000
00000
01001
00000
,
00000
00000
00000
00000
00000
00000
00000
00000
,
01000
00010
00100
00001
10000
00001
00000
00000
,
00001
00000
00000
00000
00000
00000
00000
00000
;

//---------------techno-double5 - double5----------------
#NOTES:
     techno-double5:
     :
     Medium:
     5:
     0.418,0.447,0.577,0.000,0.000:
0000000000
0000000000
0000000000
0000000000
,
0010000000
0001000000
0100000000
0010000000
,
0000100000
1000000000
0000100000
0010000000
,
1010000000
0001000000
0000001000
0000000100
,
0000010100
0000000101
0000000110
0000001100
,
0001000000
0010000000
1000000000
1000100000
,
0010000000
0001000000
0000100000
0000001000
,
0000010000
0000000100
0000001000
0000000100
,
0001000000
0010000000
0000010000
0000110000
,
0000000100
0000000001
0010000000
1000000000
,
0100000000
0000100000
0000010000
0000000010
,
0000000100
0000001000
0001000000
0100100000
,
0010000000
0001000000
0000001000
0000010010
,
0000001000
0000000001
0000000100
0001000000
,
0010000000
0000100000
0000001000
0001000000
,
0000010000
0000100000
0000010000
0000000000
0010000000
0000000000
0001100000
0000000000
,
0000011000
0000000000
0000001000
0000100000
0001000000
0000000000
0000110000
0000000000
,
0010000000
0000100000
0000010000
0000000000
0000000100
0000010000
0000100000
0000000000
,
0000000010
0000000001
0000010000
0000001000
,
0001000000
0010000000
0100000000
0000000000
1000000000
0000000000
0100000000
0000000000
,
0010000000
0000100000
0000010000
0000000100
,
0000000010
0000010001
0000000100
0000100000
,
0010000000
0000000000
0001000000
0100000000
0010000000
1000000000
0000100000
0000000000
,
1000100000
0010000000
1000000000
0000000100
,
0000000001
0000001000
0000100000
0001000000
,
0000010000
0000110000
0010000000
0000110000
,
0000000100
0000000000
0000000010
0000000001
0000000010
0000000000
0000001000
0000000000
,
0001000000
0000000000
0100000000
1000000000
0100000000
0000000000
0001000000
0100000000
,
0001000000
0000000000
0100000000
0001000000
0100000000
0000000000
0010000000
0000000000
,
0000100000
0000001000
0000000010
0000000001
,
0000010000
0000000001
0000000100
0000001010
,
0000010000
0001000000
0010000000
0101000000
,
1000000000
0010000000
0000100000
0010000000
1000000000
0000100000
1000100000
0000000000
,
0100000000
0000100000
0010000000
0001000000
,
0000001000
0000000100
0000010000
0000000010
,
0000000100
0000000000
0000000100
0000000000
0000001000
0000000010
0000001000
0000000000
,
0000000010
0000001000
0000000010
0000000000
0000000100
0000000000
0000010000
0000000000
,
0000000100
0000001000
0001000000
0100100000
,
0010000000
0001000000
0000001000
0000010010
,
0000000100
0000000000
0000001000
0000000100
0000010000
0000000000
0000100000
0010000000
,
0001000000
0010000000
0000100000
0000010000
,
0000000100
0000010000
0000000000
0000100000
0010000000
0000000000
0100000000
0000000000
,
0001000000
0010000000
0000100000
0000001000
,
0000000100
0000010000
0000000010
0000001000
0000000001
0000000100
0000000000
0000000000
,
0000101000
0000000000
0000000000
0000000000
;

//---------------techno-single8 - ----------------
#NOTES:
     techno-single8:
     :
     Medium:
     5:
     0.418,0.447,0.577,0.000,0.000: // measure 1
00000000
00000000
00000000
00000000
,  // measure 2
00100100
00000000
00001000
00000000
00000100
00100000
00010000
00000000
,  // measure 3
10000000
00000000
10000000
00000000
00010000
00000000
10000000
00000001
,  // measure 4
00100100
00000000
00001000
00000000
00100000
00000100
00010000
00000000
,  // measure 5
00000001
00000000
00000001
00000000
00010000
00000001
10000000
10000000
,  // measure 6
00000100
00000000
00100000
00000000
00000010
00000010
01000000
01000000
,  // measure 7
00010000
00000000
00010000
00000000
00100000
00000100
00100000
00000000
,  // measure 8
01000000
01000010
00000010
01000010
,  // measure 9
00010000
00000010
00010000
01000000
00010000
00000010
00010000
01000000
,  // measure 10
01000010
00000000
00001000
00001000
00000010
00000010
00011000
00000000
,  // measure 11
00000010
00000010
00000010
00000000
00010000
00000001
10000000
00000000
,  // measure 12
01000010
00000000
00010000
00010000
01000000
01000000
00011000
00000000
,  // measure 13
10000000
10000000
10000000
00000000
00010000
10000000
00000001
00000000
,  // measure 14
01000000
00000000
10000000
00000000
00000010
00000010
00000100
00100000
,  // measure 15
01000000
01000000
00000010
00000010
,  // measure 16
01000000
01010000
00000010
00010010
,  // measure 17
01000000
01000000
00001000
00100000
00000010
00000000
00000000
00000000
,  // measure 18
00001000
00000000
00100000
00000000
00000010
00000010
01000000
00000000
,  // measure 19
10000000
00000000
10000000
00000000
00000001
00001000
00000001
00000000
,  // measure 20
00001000
00000000
00000100
00000000
00000010
00000010
01000000
00000000
,  // measure 21
00000001
00000000
00000001
00000000
01001000
00001000
00001010
00000000
,  // measure 22
10000000
00000000
01000000
00000000
00100000
00100000
00000010
00000000
,  // measure 23
01000000
00000000
01000000
00000000
00001010
00001000
01001000
00000000
,  // measure 24
00000001
00000000
00000010
00000000
00000100
00000100
01000000
00001000
,  // measure 25
00000000
01000010
01000010
00000000
00000000
00000000
00010000
00000000
,  // measure 26
00100000
01001000
00000100
00011000
,  // measure 27
10000000
00010000
00000001
00010000
10000001
10000001
10000001
00000000
,  // measure 28
00100000
00100000
10000000
10000000
00000100
01000000
00000001
00000000
,  // measure 29
10000100
00000000
00100001
00000000
00000000
01000010
01000010
00000000
,  // measure 30
00011000
00100001
10000100
00011000
,  // measure 31
00000010
01000000
00010000
00001000
,  // measure 32
00011000
00000000
00100001
00000000
10000100
00000000
01000010
00001000
,  // measure 33
00000000
00100100
00100100
00000000
00000000
00000000
00000000
00000000
,  // measure 34
00000100
00001010
00100000
01001000
,  // measure 35
00000010
00001000
01000000
00001000
01000010
01000010
01000010
00000000
,  // measure 36
00001000
00001000
00010000
00010000
10000001
00000000
10000001
00000000
,  // measure 37
00001000
00000000
00010000
00000000
00000000
10000001
10000001
00000000
,  // measure 38
00011000
10000100
00100001
00011000
,  // measure 39
01000000
00000010
00010000
00001000
,  // measure 40
01001000
01001000
00010010
00010010
,  // measure 41
10000000
00000000
10000000
00000000
00000001
10000000
00000001
10000000
,  // measure 42
00100000
00000100
00000000
00100000
00000100
00000000
00010000
00000000
,  // measure 43
10000000
00000001
01000000
00000010
00000010
00000000
00000100
00000100
,  // measure 44
00001000
00001000
00100100
00100100
00000000
00000000
00010000
00000000
,  // measure 45
01000000
00000000
00000000
00000000
;
