#TITLE:Choice of Cinderella;
#SUBTITLE:;
#ARTIST:Keoun So-young;
#TITLETRANSLIT:;
#SUBTITLETRANSLIT:;
#ARTISTTRANSLIT:;
#CREDIT:;
#BANNER:Choice of Cinderella-banner.png;
#BACKGROUND:Choice of Cinderella-bg.png;
#LYRICSPATH:;
#CDTITLE:;
#MUSIC:Choice of Cinderella.mp3;
#OFFSET:0.000;
#SAMPLESTART:42.857;
#SAMPLELENGTH:12.000;
#SELECTABLE:YES;
#BPMS:0.000=140.000;
#STOPS:;
#BGCHANGES:;

//---------------techno-single4 - Easy----------------
#NOTES:
     techno-single4:
     :
     Easy:
     2:
     0.325,0.336,0.202,0.000,0.000,185.000,18.000,0.000,0.000,0.000,0.000,0.325,0.336,0.202,0.000,0.000,185.000,18.000,0.000,0.000,0.000,0.000:
0000
0000
0000
0000
0000
0000
0000
0000
,
0000
0000
0000
0000
0000
0000
0000
0000
,
0000
0000
0000
0000
0000
0000
0000
0000
,
0000
0000
0000
0000
0000
0000
0000
0000
,  // column 1
0010
0000
1000
0000
0010
0000
0010
0000
,
0100
0000
0010
0000
0100
0000
0100
0000
,
0010
0000
1000
0000
0100
0000
0001
0000
,
1000
0000
1000
0000
0001
0000
0001
0000
,
1000
0000
0100
0000
0010
0000
0010
0000
,
0100
0000
0100
0000
0010
0000
0001
0000
,  // column 2
1000
0000
1000
0000
0001
0000
0001
0000
,
1000
0000
0100
0000
0001
0000
1001
0000
,
1000
0000
0100
0000
0010
0000
0001
0000
,
0100
0000
1000
0000
0010
0000
0100
0000
,
1000
0000
1000
0000
0001
0000
0001
0000
,
1000
0000
1000
0000
0001
0000
0001
0000
,  // column 3
0010
0000
0001
0000
0100
0000
0001
0000
,
1000
0000
1000
0000
0010
0000
0010
0000
,
0001
0000
0001
0000
1000
0000
1000
0000
,
0010
0000
0010
0000
0100
0000
0001
0000
,
0010
0000
0100
0000
1000
0000
0100
0000
,
0010
0000
1000
0000
0010
0000
0001
0000
,  // column 4
0100
0000
0010
0000
0001
0000
0001
0000
,
1001
0000
1001
0000
1001
0000
1001
0000
,
0100
0000
1000
0000
0001
0000
1001
0000
,
0010
0000
0001
0000
1000
0000
1001
0000
,
0001
0000
0010
0000
0100
0000
0010
0000
,
1000
0000
0100
0000
0010
0000
0110
0000
,  // column 5
0100
0000
1000
0000
0001
0000
0010
0000
,
1000
0000
0010
0000
0100
0000
0001
0000
,
0010
0000
1000
0000
0001
0000
1000
0000
,
1001
0000
1001
0000
1001
0000
1001
0000
,
1001
0000
0100
0000
0010
0000
0001
0000
,
0010
0000
1000
0000
0010
0000
0001
0000
,  // column 6
0100
0000
0010
0000
0100
0000
0010
0000
,
0010
0000
1000
0000
0010
0000
1000
0000
,
0100
0000
0100
0000
0010
0000
0010
0000
,
0001
0000
1000
0000
0001
0000
0010
0000
,
1000
0000
0001
0000
1000
0000
0001
0000
,
1000
0000
0010
0000
0001
0000
0100
0000
,  // column 7
1000
0000
0010
0000
0001
0000
0100
0000
,
1000
0000
0001
0000
0100
0000
0010
0000
,
0100
0000
0001
0000
1000
0000
0001
0000
,
1000
0000
1001
0000
0100
0000
0001
0000
,
0010
0000
0001
0000
0100
0000
0010
0000
,
0001
0000
1001
0000
0010
0000
0001
0000
,  // column 8
0100
0000
1000
0000
0001
0000
1000
0000
,
0010
0000
0001
0000
1000
0000
0100
0000
,
0001
0000
1000
0000
0100
0000
1000
0000
,
0011
0000
0010
0000
1010
0000
0010
0000
,
1001
0000
0000
0000
0000
0000
0000
0000
;

//---------------techno-single4 - Medium----------------
#NOTES:
     techno-single4:
     :
     Medium:
     5:
     0.419,0.476,0.527,0.000,0.000,215.000,47.000,0.000,0.000,0.000,0.000,0.419,0.476,0.527,0.000,0.000,215.000,47.000,0.000,0.000,0.000,0.000:
0000
0000
0000
0000
0000
0000
0000
0000
,
0000
0000
0000
0000
0000
0000
0000
0000
,
0000
0000
0000
0000
0000
0000
0000
0000
,
0000
0000
0000
0000
0000
0000
0000
0000
,  // column 1
0010
0000
0001
0000
0010
0000
1000
0000
,
0001
0000
1000
0000
0001
0000
1000
0000
,
1000
0000
0001
0000
1000
0000
0001
0000
,
0100
0000
0010
0000
0100
0000
0010
0000
,
0010
0000
0000
0000
0010
0010
0110
0000
,
0100
0000
0000
0000
0100
0000
0110
0000
,  // column 2
0001
0000
0010
0000
0001
0000
1000
0000
,
0100
0000
0100
0000
0010
0010
1001
0000
,
0100
0000
0010
0000
0001
0000
0001
0000
,
1000
0000
0001
0000
0100
0000
0010
0000
,
1000
0001
0010
0000
0001
1000
0100
0000
,
0100
0001
0100
1000
0010
0001
1000
0000
,  // column 3
0010
0000
0001
0000
0100
0000
1001
0000
,
0010
0000
1000
0000
0100
0100
1001
0000
,
0100
0000
0100
0100
0100
0000
1001
0000
,
0010
0000
1001
0000
0010
0000
0011
0000
,
0010
0000
0110
0000
0010
0000
0110
0000
,
0010
0000
1001
0000
1000
0001
1000
0000
,  // column 4
0001
1000
0001
0000
0100
0000
0010
0000
,
1001
0000
1001
0000
0110
0100
0010
0000
,
0010
0000
1000
0000
0100
0000
1001
0000
,
0010
0000
0001
0000
0100
0100
1001
0000
,
0010
0000
0010
0010
1000
0000
0100
0000
,
0100
0000
1001
0000
0100
0000
0101
0000
,  // column 5
0010
0000
0110
0000
0010
0000
0110
0000
,
0100
0000
1001
0000
0001
1000
0001
0000
,
0010
0010
0010
0000
1000
0000
0100
0000
,
1001
0000
1001
0000
0010
0100
0010
0000
,
0001
0000
1000
0000
0010
0000
0110
0000
,
0001
0000
0010
0000
1000
0000
1001
0000
,  // column 6
0001
1000
0001
0000
1000
0001
1000
0000
,
0001
0000
0100
0000
1000
0000
1001
0000
,
0001
0000
1000
0000
0010
0000
0110
0000
,
0001
0000
0010
0000
1000
0000
1001
0000
,
0010
0001
0010
0000
0100
1000
0100
0000
,
0011
0000
1010
0000
0101
0000
1100
0000
,  // column 7
0001
0100
1000
0100
0010
0010
1001
0000
,
1000
0000
0110
0100
0010
0000
1001
0000
,
1000
0000
0110
0100
0010
0000
1001
0000
,
0010
0000
1000
0000
0001
1000
0001
0000
,
0010
0000
0100
0000
1000
0001
1000
0000
,
0001
0000
0100
0000
0010
0100
0010
0000
,  // column 8
1000
0000
0001
0000
0100
0010
0100
0000
,
0001
0000
0100
0000
0010
0000
0100
0000
,
1001
0000
0110
0000
1000
1000
1001
0001
,
0100
0000
1000
0000
0010
1000
0001
0100
,
1001
0000
0000
0000
0000
0000
0000
0000
;

//---------------techno-single5 - Easy----------------
#NOTES:
     techno-single5:
     :
     Easy:
     2:
     0.325,0.336,0.202,0.000,0.000,185.000,18.000,0.000,0.000,0.000,0.000,0.325,0.336,0.202,0.000,0.000,185.000,18.000,0.000,0.000,0.000,0.000: // measure 1
00000
00000
00000
00000
,  // measure 2
00000
00000
00000
00000
,  // measure 3
00000
00000
00000
00000
,  // measure 4
00000
00000
00000
00000
,  // measure 5
00010
01000
00010
00010
,  // measure 6
01000
00010
01000
01000
,  // measure 7
00100
10000
00100
00001
,  // measure 8
10000
10000
00001
00001
,  // measure 9
00100
01000
00010
00010
,  // measure 10
01000
01000
00100
00001
,  // measure 11
10000
10000
00001
00001
,  // measure 12
10000
00100
00001
10001
,  // measure 13
00100
01000
00010
00100
,  // measure 14
01000
00100
00010
01000
,  // measure 15
00100
10000
00001
00001
,  // measure 16
10000
10000
00001
00001
,  // measure 17
00100
00010
01000
00100
,  // measure 18
10000
10000
01000
01000
,  // measure 19
00010
00010
00100
00100
,  // measure 20
00010
00010
00001
00001
,  // measure 21
00010
00010
01000
00100
,  // measure 22
00010
01000
00010
00100
,  // measure 23
01000
00010
00100
00001
,  // measure 24
10001
10001
10001
10001
,  // measure 25
00100
10000
00001
10001
,  // measure 26
00100
00001
10000
10001
,  // measure 27
00100
00100
01000
00010
,  // measure 28
00100
01000
00010
01010
,  // measure 29
00100
10000
00001
00100
,  // measure 30
10000
00100
01000
00100
,  // measure 31
00010
00100
00001
10000
,  // measure 32
10001
10001
10001
10001
,  // measure 33
10001
00100
00010
00001
,  // measure 34
00100
10000
00100
00001
,  // measure 35
01000
00100
01000
00100
,  // measure 36
00010
01000
00010
01000
,  // measure 37
00100
00100
00100
00100
,  // measure 38
00001
10000
00001
00100
,  // measure 39
10000
00001
10000
00001
,  // measure 40
10000
01000
00010
00001
,  // measure 41
10000
01000
00010
00001
,  // measure 42
00100
00001
00100
00010
,  // measure 43
01000
00100
10000
00001
,  // measure 44
10000
10001
00100
00001
,  // measure 45
00100
00010
01000
00100
,  // measure 46
00010
01010
00100
00001
,  // measure 47
00100
10000
00001
10000
,  // measure 48
00100
00001
10000
00100
,  // measure 49
00001
10000
00100
01000
,  // measure 50
00110
00100
01100
00100
,  // measure 51
10001
00000
00000
00000
;

//---------------techno-single5 - Medium----------------
#NOTES:
     techno-single5:
     :
     Medium:
     5:
     0.419,0.476,0.527,0.000,0.000,215.000,47.000,0.000,0.000,0.000,0.000,0.419,0.476,0.527,0.000,0.000,215.000,47.000,0.000,0.000,0.000,0.000:
00000
00000
00000
00000
,
00000
00000
00000
00000
,
00000
00000
00000
00000
,
00000
00000
00000
00000
,
00010
01000
00010
00100
,
01000
00010
01000
00100
,
00001
10000
00001
00000
,
10000
00001
10000
00001
,
01000
00000
00000
00000
01000
01000
01100
00000
,
00001
00000
00000
00000
00001
00001
00101
00000
,
01000
10000
00010
00100
,
00001
00000
00001
00000
00100
00100
01010
00000
,
01000
10000
00100
00001
,
10000
00001
00100
00010
,
10000
00100
01000
00000
00010
01000
00100
00000
,
01000
00100
01000
00000
00100
00001
10000
00000
,
01000
00100
00001
10001
,
00010
00000
00100
00000
10000
10000
10001
00000
,
00100
00000
00100
00100
00100
00000
01010
00000
,
01000
00101
10000
10100
,
00010
00101
00001
00101
,
10000
00000
10001
00000
01000
00100
01000
00000
,
00010
00100
00010
00000
00100
00000
00010
00000
,
10001
00000
10001
00000
01100
00100
01000
00000
,
00010
00100
10000
10001
,
01000
00000
00100
00000
00001
00001
10001
00000
,
00100
00000
00100
00100
00100
00000
01010
00000
,
00010
10100
00001
00101
,
01000
10100
10000
10100
,
00001
00000
10001
00000
01100
01000
01000
00000
,
10000
10000
10000
00000
00100
00000
10000
00000
,
10001
00000
10001
00000
10100
10100
10100
00000
,
00001
10000
00100
01100
,
00001
00010
01000
01010
,
10000
00001
10000
00000
00001
10000
00001
00000
,
10000
01000
00010
01010
,
00010
01000
00100
00101
,
10000
01000
00010
01010
,
00001
00100
00001
00000
10000
00100
10000
00000
,
10100
01100
00110
00101
,
10000
10000
00001
00001
01000
00010
01010
00000
,
01000
00000
00101
00001
00100
00000
00010
00000
,
01000
00000
00101
00001
00100
00000
00010
00000
,
00010
00000
01000
00000
00001
10000
00001
00000
,
00010
00000
00100
00000
10000
00001
10000
00000
,
00001
00000
10000
00000
00100
00100
00100
00000
,
01000
00010
00100
10001
,
00010
10000
01000
00001
,
10001
00000
01010
00000
01000
01000
01010
00010
,
01100
00000
00110
00000
01000
00100
10000
00001
,
10001
00000
00000
00000
;

//---------------techno-single8 - ----------------
#NOTES:
     techno-single8:
     :
     Easy:
     2:
     0.325,0.392,0.202,0.000,0.000:
00000000
00000000
00000000
00000000
,
00000000
00000000
00000000
00000000
,
00000000
00000000
00000000
00000000
,
00000000
00000000
00000000
00000000
,
00000100
00100000
00000100
00000100
,
00100000
00000100
00100000
00100000
,
00000010
10000000
01000000
00000001
,
10000000
10000000
00000001
00000001
,
01000000
00100000
00000100
00000100
,
00100000
00100000
00000010
00000001
,
01000000
01000000
00000001
00000001
,
01000000
00010000
00000001
01000001
,
00010000
00100000
00000100
00001000
,
00100000
00001000
00000100
00100000
,
00010000
10000000
00000001
00000001
,
10000000
10000000
00000001
00000001
,
00000010
00000100
01000000
00100000
,
10000000
10000000
00100000
00100000
,
00000100
00000100
00001000
00001000
,
00000100
00000100
00000001
00000001
,
00000100
00000100
00100000
00001000
,
00000100
00100000
00000100
00001000
,
00100000
00000100
00010000
00000001
,
10000001
10000001
10000001
10000001
,
00010000
10000000
00000001
10000001
,
00010000
00000001
10000000
10000001
,
00001000
00001000
00100000
00000100
,
00001000
00100000
00000100
00100100
,
00010000
10000000
00000001
00000010
,
10000000
00001000
01000000
00000010
,
00000100
01000000
00000001
10000000
,
10000001
10000001
10000001
10000001
,
10000001
01000000
00000100
00000001
,
00000010
10000000
01000000
00000001
,
00100000
00000010
00100000
00000010
,
00000100
00100000
00000100
00100000
,
01000000
00001000
00000010
00010000
,
00000001
10000000
00000001
01000000
,
10000000
00000001
10000000
00000001
,
10000000
00100000
00000100
00000001
,
10000000
00100000
00000100
00000001
,
01000000
00000001
01000000
00000100
,
00100000
00000010
10000000
00000001
,
10000000
10000001
00010000
00000001
,
01000000
00000100
00100000
00000010
,
00000100
00100100
00010000
00000001
,
00000010
10000000
00000001
10000000
,
00010000
00000001
10000000
00010000
,
00000001
10000000
00010000
00100000
,
00001100
00000010
00101000
00010000
,
10000001
00000000
00000000
00000000
;

//---------------techno-single8 - ----------------
#NOTES:
     techno-single8:
     :
     Medium:
     5:
     0.407,0.502,0.459,0.000,0.000: // measure 1
00000000
00000000
00000000
00000000
,  // measure 2
00000000
00000000
00000000
00000000
,  // measure 3
00000000
00000000
00000000
00000000
,  // measure 4
00000000
00000000
00000000
00000000
,  // measure 5
00001000
00000010
00001000
10000000
,  // measure 6
00010000
00000010
00010000
01000000
,  // measure 7
00100000
00100000
00000001
00000001
,  // measure 8
00000100
00000100
10000000
10000000
,  // measure 9
00001000
00000000
00000000
00000000
00001000
00001000
00100100
00000000
,  // measure 10
00010000
00000000
00000000
00000000
00010000
00010000
10000001
00000000
,  // measure 11
00000100
00010000
00000010
01000000
,  // measure 12
00000001
00000000
00000001
00000000
00010000
00010000
01000010
00000000
,  // measure 13
00100000
00010000
00000100
00000100
,  // measure 14
01000000
00000010
10000000
10000000
,  // measure 15
00100000
00000100
00100100
00000000
00000001
10000000
01000001
00000000
,  // measure 16
00100000
00000000
00100000
00000000
00001000
00010000
00001000
00000000
,  // measure 17
00001000
00000010
00100000
00100100
,  // measure 18
00001000
00000000
01000000
00000000
00000100
00100000
00100100
00000000
,  // measure 19
10000000
00000000
10000000
00000001
10000000
00000000
00011000
00000000
,  // measure 20
00001000
10000001
00000001
00010010
,  // measure 21
00100000
01001000
00010000
00011000
,  // measure 22
00010000
00000000
10000001
00000000
10000000
10000000
10000000
00000000
,  // measure 23
00000010
01000000
00000010
00000000
00010000
00000000
00100000
00000000
,  // measure 24
10000100
00000000
10000100
00000000
00010000
00001000
00010000
00000000
,  // measure 25
00001000
01000000
00000100
01000100
,  // measure 26
00001000
00000000
00000010
00000000
00100000
00000100
00100100
00000000
,  // measure 27
00000001
00000000
00000001
10000000
00000001
00000000
00011000
00000000
,  // measure 28
00001000
10000001
10000000
01010000
,  // measure 29
00000100
00001010
00010000
00011000
,  // measure 30
00010000
00000000
10000001
00000000
00000001
00000001
00000001
00000000
,  // measure 31
01000000
00000010
01000000
00000000
00010000
00000000
00000100
00000000
,  // measure 32
00100001
00100001
00010000
00001000
,  // measure 33
00000100
00100000
00001000
00011000
,  // measure 34
00000100
00100000
10000000
10000001
,  // measure 35
00100000
00100000
00000100
00000100
,  // measure 36
00000100
01000000
00001000
00011000
,  // measure 37
00000100
00100000
00010000
00011000
,  // measure 38
00000100
00100000
10000000
10000001
,  // measure 39
00000100
00000100
00000100
00000000
00100000
00100000
00100000
00000000
,  // measure 40
00001010
00101000
00010010
01010000
,  // measure 41
00000010
00010000
01000000
00010000
00001000
00001000
00100100
00000000
,  // measure 42
00100000
00000000
10000000
00000000
00000010
01000000
01000010
00000000
,  // measure 43
00100000
00000000
10000000
00000000
00000010
01000000
01000010
00000000
,  // measure 44
00001000
00000000
10000000
00000000
00000001
01000000
00000001
00000000
,  // measure 45
00000001
00000000
00000100
00000000
00100000
00000010
00100000
00000000
,  // measure 46
00000010
00000000
00010000
00000000
00000100
01000000
00000100
00000000
,  // measure 47
10000000
00000000
00100000
00000000
00000100
00010000
00000100
00000000
,  // measure 48
01000000
00010000
00001000
00000001
,  // measure 49
00011000
00000000
00100100
00000000
00000010
00000010
01000010
01000000
,  // measure 50
00010000
00000000
00100000
00000000
00000010
00100000
00010000
00000000
,  // measure 51
01000010
00000000
00000000
00000000
,  // measure 52
00000000
00000000
00000000
00000000
,  // measure 53
00000000
00000000
00000000
00000000
,  // measure 54
00000000
00000000
00000000
00000000
,  // measure 55
00000000
00000000
00000000
00000000
,  // measure 56
00000000
00000000
00000000
00000000
,  // measure 57
00010000
00000000
00000000
00000000
;
