#TITLE:Broken Heart;
#SUBTITLE:;
#ARTIST:Koyotae;
#TITLETRANSLIT:;
#SUBTITLETRANSLIT:;
#ARTISTTRANSLIT:;
#CREDIT:;
#BANNER:Disc.png;
#BACKGROUND:Title.png;
#LYRICSPATH:;
#CDTITLE:;
#MUSIC:Broken Heart.mp3;
#OFFSET:0.000;
#SAMPLESTART:41.667;
#SAMPLELENGTH:12.000;
#SELECTABLE:YES;
#BPMS:0.000=141.020;
#STOPS:;
#BGCHANGES:;

//---------------techno-single4 - Easy----------------
#NOTES:
     techno-single4:
     :
     Easy:
     2:
     0.249,0.279,0.123,0.000,0.000,145.000,11.000,0.000,0.000,0.000,0.000,0.249,0.279,0.123,0.000,0.000,145.000,11.000,0.000,0.000,0.000,0.000:
0000
0000
0000
0000
0000
0000
0000
0000
,
0000
0000
0000
0000
0000
0000
0000
0000
,  // Measure 1
0010
0000
0000
0000
0001
0000
0000
0000
,
0100
0000
0000
0000
0001
0000
0000
0000
,
1000
0000
0000
0000
0010
0000
0000
0000
,
0001
0000
0000
0000
0100
0000
0000
0000
,
0010
0000
0000
0000
0010
0000
0000
0000
,
0100
0000
0000
0000
0100
0000
0000
0000
,  // Measure 7
0010
0000
0000
0000
0100
0000
0000
0000
,
1000
0000
0000
0000
0001
0000
0000
0000
,
1000
0000
0000
0000
0100
0000
0000
0000
,
0010
0000
0000
0000
1000
0000
0000
0000
,
0001
0000
0000
0000
1000
0000
0000
0000
,
0001
0000
0000
0000
1001
0000
0000
0000
,  // Measure 13
0010
0000
0100
0000
0010
0000
0100
0000
,
1000
0000
0001
0000
1000
0000
0001
0000
,
0001
0000
0100
0000
1000
0000
0001
0000
,
0010
0000
0100
0000
1000
0000
0000
0000
,
0010
0000
0000
0000
1000
0000
0000
0000
,  // Measure 19
0001
0000
0000
0000
1000
0000
0000
0000
,
0010
0000
0000
0000
0110
0000
0000
0000
,
0010
0000
1000
0000
0001
0000
1000
0000
,
0001
0000
0010
0000
0100
0000
0010
0000
,
1000
0000
0010
0000
0001
0000
1000
0000
,
0100
0000
0010
0000
0001
0000
0000
0000
,  // Measure 25
1000
0000
0100
0000
0001
0000
0100
0000
,
1000
0000
0001
0000
1000
0000
0010
0000
,
0100
0000
0100
0000
0010
0000
0010
0000
,
0100
0000
0100
0000
1000
0000
0001
0000
,
1000
0000
0100
0000
1100
0000
1000
0000
,
0001
0000
0100
0000
0101
0000
0100
0000
,  // Measure 31
0010
0000
0100
0000
0110
0000
0010
0000
,
0100
0000
0010
0000
0110
0000
0100
0000
,
1000
0000
0001
0000
1000
0000
0001
0000
,
0001
0000
0010
0000
1000
0000
0100
0000
,
0010
0000
0100
0000
0100
0000
0001
0000
,
0010
0000
0100
0000
0010
0000
1000
0000
,  // 37
0001
0000
0010
0000
0011
0000
0010
0000
,
1000
0000
0010
0000
1010
0000
0010
0000
,
0100
0000
0100
0000
0101
0000
0100
0000
,
0010
0000
0100
0000
0110
0000
0000
0000
,
0100
0000
0010
0000
1000
0000
0001
0000
,
1000
0000
0010
0000
0100
0000
0010
0000
,  // Measure 43
0000
0000
0000
0000
0100
0000
0010
0000
,
0000
0000
0000
0000
0010
0000
0100
0000
,
0000
0000
0000
0000
1000
0000
0001
0000
,
0000
0000
0000
0000
1000
0000
0001
0000
,
0000
0000
0000
0000
0000
0000
0000
0000
,
0000
0000
0000
0000
0100
0000
0000
0000
,
0001
0000
0000
0000
1000
0000
0000
0000
,  // Measure 49
0110
0000
0000
0000
0000
0000
0000
0000
;

//---------------techno-single4 - Medium----------------
#NOTES:
     techno-single4:
     :
     Medium:
     6:
     0.249,0.279,0.123,0.000,0.000,145.000,11.000,0.000,0.000,0.000,0.000,0.249,0.279,0.123,0.000,0.000,145.000,11.000,0.000,0.000,0.000,0.000:
0000
0000
0000
0000
0000
0000
0000
0000
,
0000
0000
0000
0000
0000
0000
0000
0000
,  // Measure 1 - 1
0010
0000
0000
0000
0010
0000
0110
0000
,
0001
0000
0000
0000
0001
0000
1001
0000
,
0100
0000
0000
0000
0100
0000
0110
0000
,
1000
0000
0000
0000
1000
0000
1001
0000
,
1000
0001
0010
0000
0010
0010
1001
0000
,
0001
1000
0010
0000
0010
0010
1001
0000
,  // Measure 7 - 2
0001
0001
1001
0000
1000
1000
1001
0000
,
0010
0010
1000
0001
0100
0100
0001
1000
,
0100
0000
0000
0000
0001
0000
0000
0000
,
0010
0000
0110
0000
1000
0000
1001
0000
,
0100
0000
0000
0000
1000
0000
0000
0000
,
0010
0000
0110
0000
0001
0000
1001
0000
,  // Measure 13 - 3
1000
0000
0001
0000
0010
0010
0010
0000
,
0001
0000
1000
0000
0010
0010
0010
0000
,
0001
0000
0011
0000
1000
0000
1000
0000
,
1000
0000
1100
0000
0011
0000
1001
0000
,
0100
0000
0010
0000
1000
0000
0001
0000
,
0010
0000
0110
0000
0001
1000
0100
0000
,  // Measure 19 - 4
0110
0000
0110
0000
0001
0000
1000
0000
,
1010
0000
0101
0000
0001
1000
0010
0000
,
0011
0000
1100
0000
0100
0100
0100
0000
,
1010
0000
0101
0000
0100
0100
0100
0000
,
1000
0100
1100
0000
0001
0010
0011
0000
,
0001
0000
0011
0000
1000
0001
1000
0001
,  // Measure 25 - 5
0010
0000
1000
0000
0001
0000
0100
0000
,
0010
0000
0100
0100
1001
0110
1001
0000
,
0010
0000
0001
0000
1000
0000
0100
0000
,
0010
0000
0100
0100
1001
0000
0110
0000
,
1000
0000
1000
0000
0100
0000
0010
0000
,
0100
0000
0010
0010
0100
0000
0110
0000
,  // Measure 31 - 6
0010
0000
0010
0000
1000
0000
0100
0000
,
0001
0000
0010
0000
1001
0110
1001
0000
,
0010
0000
0001
0000
1000
0000
0100
0000
,
0010
0000
0100
0100
1001
0000
0110
0000
,
1000
0000
1000
0000
0100
0000
0010
0000
,
0100
0000
0010
0010
0100
0000
0110
0000
,  // Measure 37 - 7
0001
0000
0010
0000
0100
0000
1000
0000
,
0001
0000
0010
0010
0001
1000
0100
0000
,
0010
0000
0010
0000
0001
0000
0100
0000
,
1000
0000
0100
0000
1001
0110
1001
0100
,
1000
0100
1000
0100
1000
1000
1000
0000
,
0001
0100
0001
0100
0001
0001
0001
0000
,  // Measure 43 - 8
0010
0001
0010
0001
0010
0010
0010
0000
,
1000
0010
1000
0010
1000
1000
1000
0000
,
0100
0001
0100
0000
1001
0000
0110
0000
,
0010
0000
0011
0000
1000
1000
0001
0000
,
0011
0000
0110
0000
1100
0000
0110
0000
,
0010
1000
0001
0100
0100
0001
1000
0000
,  // Measure 49 - 9
0110
0000
0000
0000
0000
0000
0000
0000
;

//---------------techno-single4 - Hard----------------
#NOTES:
     techno-single4:
     :
     Hard:
     8:
     0.249,0.279,0.123,0.000,0.000,145.000,11.000,0.000,0.000,0.000,0.000,0.249,0.279,0.123,0.000,0.000,145.000,11.000,0.000,0.000,0.000,0.000:
0000
0000
0000
0000
0000
0000
0000
0000
,
0000
0000
0000
0000
0000
0000
0000
0000
,  // Column 1
0011
0000
1100
0000
0010
0000
0110
0000
,
0101
0000
1010
0000
1000
0000
1001
0000
,
1010
0000
0101
0000
0001
0000
1001
0000
,
0011
0000
1100
0000
0010
0000
0110
0000
,
1000
0000
1100
0000
0100
0010
1001
0000
,
0010
0000
0011
0000
0010
0100
1001
0000
,  // Column 2
0010
0001
1000
0100
0010
1000
0001
0000
,
1000
0100
0001
0100
0010
0010
0100
0100
,
0010
0000
1000
0000
1000
0000
0010
0000
,
0100
1000
0001
0100
0010
0010
1001
0000
,
0010
0000
0010
0000
1000
0001
0110
0000
,
0100
1000
0001
0100
0010
0100
0110
0000
,  // Columna 3
1010
0000
0101
0000
0010
0100
0010
0100
,
1010
0000
0101
0000
0010
0100
0010
0100
,
0100
1000
0001
1000
0100
0001
1000
0000
,
0010
0001
0010
0100
1001
0110
1001
0000
,
0100
0000
0001
0000
0001
0000
0100
0000
,
0010
0001
1000
0010
0100
0100
1001
0000
,  // Column 4
0010
0000
0010
0000
0001
1000
0110
0000
,
0100
1000
0001
0100
0010
0100
0110
0000
,
0101
0000
1010
0000
0100
0010
0100
0010
,
0101
0000
1010
0000
0100
0010
0100
0010
,
1000
0100
0001
0100
0001
0100
1000
0000
,
0010
1000
0010
0100
1001
0110
1001
0000
,  // Column 5
0010
0000
1000
0000
0001
0000
0100
0000
,
0010
0001
0100
0010
1001
0000
1100
0000
,
0100
0000
1000
0000
0001
1000
0100
0000
,
0010
1000
0100
0010
1001
0000
0101
0000
,
1010
0000
0101
0000
0010
0000
0001
0000
,
1000
0000
0010
0100
0001
0000
1000
0000
,  // Column 6
0001
0001
0010
0100
1000
1000
0100
0000
,
0100
0001
0010
1000
0001
0001
0100
0100
,
0010
0000
0001
0000
1000
0000
0100
0000
,
0010
1000
0100
0010
1001
1000
0011
0000
,
0100
0000
0001
0000
1000
0001
0100
0000
,
0010
0001
0100
0010
1001
0000
1010
0000
,  // Column 7
0101
0000
1010
0000
0100
0000
1000
0000
,
0001
0000
0100
0010
1000
0000
0001
0000
,
1000
1000
0100
0001
0010
0010
0001
0000
,
0010
1000
0100
0001
1000
1000
0010
0010
,
1000
0100
0001
0010
1000
0001
0010
0100
,
0001
0100
1001
0010
0001
1000
0010
0100
,  // Column 8
0010
0001
0010
1000
0010
0001
0010
1000
,
1000
0010
0001
0100
1000
0010
0001
0100
,
0100
0100
1100
0000
0001
0001
0100
0000
,
0010
0010
0011
0000
1000
1000
0100
0000
,
1001
0000
1001
0000
1000
0100
1000
0000
,
0110
0110
1001
1001
0100
0001
1000
0010
,  // Column 9
0110
0000
0000
0000
0000
0000
0000
0000
;

//---------------techno-single5 - Easy----------------
#NOTES:
     techno-single5:
     :
     Easy:
     2:
     0.249,0.279,0.123,0.000,0.000,145.000,11.000,0.000,0.000,0.000,0.000,0.249,0.279,0.123,0.000,0.000,145.000,11.000,0.000,0.000,0.000,0.000:
00000
00000
00000
00000
,
00000
00000
00000
00000
,
00010
00000
00100
00000
,
01000
00000
00100
00000
,
10000
00000
00100
00000
,
00001
00000
00100
00000
,
00010
00000
00010
00000
,
01000
00000
01000
00000
,
00100
00000
00100
00000
,
10000
00000
00001
00000
,
00100
00000
01000
00000
,
00010
00000
00100
00000
,
00001
00000
10000
00000
,
00100
00000
10001
00000
,
00100
01000
00010
01000
,
00100
00001
10000
00001
,
00100
01000
10000
00001
,
00100
01000
10000
00000
,
00100
00000
01000
00000
,
00010
00000
00100
00000
,
00001
00000
10000
00000
,
00100
00000
01010
00000
,
00100
10000
00001
10000
,
00100
00010
01000
00010
,
00100
00010
00001
10000
,
00100
00010
00001
00000
,
10000
00100
00001
00100
,
10000
00001
00100
00010
,
01000
01000
00010
00010
,
01000
01000
00100
00001
,
10000
00100
10100
10000
,
00001
00100
00101
00100
,
00010
00100
00110
00010
,
01000
00100
01100
01000
,
00100
00001
10000
00001
,
00001
00100
00100
01000
,
00010
01000
01000
00100
,
00010
01000
00100
10000
,
00001
00100
00101
00100
,
10000
00100
10100
00100
,
01000
00100
01100
01000
,
00010
00100
00110
00000
,
01000
00010
00100
00001
,
10000
00100
01000
00010
,
00000
00000
01000
00100
,
00000
00000
00010
00100
,
00000
00000
00100
00001
,
00000
00000
10000
00100
,
00000
00000
01000
00000
,
00100
00000
10000
00000
,
01010
00000
00000
00000
;

//---------------techno-single5 - Medium----------------
#NOTES:
     techno-single5:
     :
     Medium:
     6:
     0.442,0.447,0.581,0.000,0.000,225.000,52.000,0.000,0.000,0.000,0.000,0.442,0.447,0.581,0.000,0.000,225.000,52.000,0.000,0.000,0.000,0.000:
00000
00000
00000
00000
,
00000
00000
00000
00000
,
00010
00000
00010
00110
,
01000
00000
01000
01100
,
10000
00000
10000
10100
,
00001
00000
00001
00101
,
00010
01000
00100
00000
00001
00001
10001
00000
,
01000
00010
00100
00000
10000
10000
10001
00000
,
00100
00100
01010
00000
00100
00100
10001
00000
,
00100
00100
00010
01000
00100
00100
10000
00100
,
00010
00000
01000
00000
,
00001
00101
10000
10100
,
01000
00000
00010
00000
,
10000
00000
00001
00000
,
10000
01000
00010
10001
,
00001
00010
01000
10001
,
01000
01100
00010
00110
,
10000
00100
10000
00000
00001
00100
00001
00000
,
01000
01000
00010
00010
,
10000
10100
00001
00101
,
01010
00100
10001
00100
,
01010
00000
10001
00000
00001
10000
00001
00000
,
00101
00110
01100
10001
,
10100
01100
00110
10001
,
00010
00010
00110
00000
01000
01000
01100
00000
,
00001
00100
00001
00000
10000
00100
10000
00100
,
00010
10000
01000
00001
,
00100
01010
00100
10001
,
01000
00001
00010
10000
,
00100
01010
00100
10001
,
00100
01000
10000
00001
,
10100
00000
00100
00100
10000
00100
01000
00000
,
00010
01010
01000
01010
,
01000
00000
00100
00000
10001
00100
10001
00000
,
01000
00001
00010
10000
,
00100
01010
00100
10001
,
00010
10000
01000
00001
,
00100
01010
00100
10001
,
00100
00010
00001
10000
,
00101
00000
00100
00100
00001
00100
00010
00000
,
01000
01010
00010
01010
,
00010
00000
00100
00000
10001
00100
10001
00000
,
00010
00100
00010
00100
00010
00010
00010
00000
,
00100
00001
00100
00100
00001
00001
00001
00000
,
10000
00100
10000
00100
10000
10000
10000
00000
,
00100
01000
00100
00100
01000
01000
01000
00000
,
00010
01000
01010
00000
10001
00000
10001
00000
,
00100
01000
00010
10000
,
00010
01000
00100
00000
00001
00001
00001
00000
,
00010
00100
01000
00100
10000
00100
00001
00000
,
01010
00000
00000
00000
;

//---------------techno-single6 - Hard----------------
#NOTES:
     techno-single5:
     :
     Hard:
     8:
     0.541,0.503,0.626,0.000,0.000,283.000,56.000,0.000,0.000,0.000,0.000,0.541,0.503,0.626,0.000,0.000,283.000,56.000,0.000,0.000,0.000,0.000: // measure 1
00000
00000
00000
00000
,  // measure 2
00000
00000
00000
00000
,  // measure 3
00110
10100
00001
10001
,  // measure 4
10100
00110
01000
00010
,  // measure 5
01100
00101
10000
10100
,  // measure 6
00110
10100
00001
00101
,  // measure 7
00010
00000
00110
00000
10000
00100
10001
00000
,  // measure 8
01000
00000
01100
00000
00001
00100
10001
00000
,  // measure 9
00100
10000
00100
10000
00100
00001
00100
00000
,  // measure 10
01000
00100
00010
00100
01010
00100
00100
10001
,  // measure 11
00010
01000
01000
00001
,  // measure 12
00010
00100
01000
00100
10000
00100
10001
00000
,  // measure 13
00100
00000
00100
00000
10000
00001
10001
00000
,  // measure 14
01000
00010
00100
00001
00001
00100
10001
00000
,  // measure 15
01100
00000
00110
00000
00100
10000
00100
00001
,  // measure 16
00110
00000
01100
00000
00100
00001
00100
10000
,  // measure 17
01000
00100
01000
00100
00010
00100
00010
00000
,  // measure 18
01000
00010
00100
10000
10001
00100
10001
00000
,  // measure 19
01000
00010
00010
10000
,  // measure 20
01000
00100
00010
00100
00001
00100
10000
00000
,  // measure 21
00100
00000
00100
00000
00001
10000
10001
00000
,  // measure 22
01000
00010
00100
00001
00001
00100
10001
00000
,  // measure 23
00110
00000
01100
00000
00100
10000
00100
00001
,  // measure 24
01100
00000
00110
00000
00100
00001
00100
10000
,  // measure 25
10000
00100
10000
00100
00001
00100
00001
00000
,  // measure 26
01000
00100
01000
00001
10001
00100
10001
00000
,  // measure 27
00010
10000
01000
00001
,  // measure 28
00100
01000
00010
00010
10100
00000
00101
00000
,  // measure 29
01000
00000
00001
00000
00010
00100
10000
00000
,  // measure 30
00100
00010
01000
01000
01100
00000
00110
00000
,  // measure 31
00101
01100
10000
00001
,  // measure 32
10000
00000
00010
00100
10000
00000
01000
00000
,  // measure 33
00010
00010
00100
00100
01000
01000
00100
00000
,  // measure 34
01000
00010
00100
10000
00010
00010
01000
01000
,  // measure 35
01000
00001
00010
10000
,  // measure 36
00100
00010
01000
01000
00101
00000
10100
00000
,  // measure 37
00010
00000
10000
00000
01000
00100
00001
00000
,  // measure 38
00100
01000
00010
00010
00110
00000
01100
00000
,  // measure 39
10100
00110
00001
10000
,  // measure 40
00001
00000
01000
00100
00001
00000
00010
00000
,  // measure 41
01000
01000
00100
00100
00010
00010
00100
00000
,  // measure 42
00010
01000
00100
00001
01000
01000
00010
00010
,  // measure 43
00010
00100
10000
00010
00010
00100
10000
00010
,  // measure 44
01000
00100
00001
01000
01000
00100
00001
01000
,  // measure 45
10000
00100
00001
00100
10000
00100
00001
00100
,  // measure 46
01000
00100
00010
00100
00001
00100
10000
00100
,  // measure 47
00001
00011
10000
11000
,  // measure 48
00100
00010
01000
00000
00010
00100
10000
00000
,  // measure 49
10010
00000
00100
00000
10000
00001
10000
00000
,  // measure 50
00110
00110
00101
00000
10100
10100
01100
00000
,  // measure 51
01010
00000
00000
00000
;

//---------------techno-single8 - Easy----------------
#NOTES:
     techno-single8:
     :
     Easy:
     2:
     0.251,0.307,0.134,0.000,0.000:
00000000
00000000
00000000
00000000
,
00000000
00000000
00000000
00000000
,
00000100
00000000
00001000
00000000
,
00100000
00000000
00000010
00000000
,
10000000
00000000
00010000
00000000
,
00000001
00000000
01000000
00000000
,
00000100
00000000
00000100
00000000
,
00100000
00000000
00100000
00000000
,
00001000
00000000
00010000
00000000
,
10000000
00000000
00000001
00000000
,
00000010
00000000
00100000
00000000
,
00000100
00000000
01000000
00000000
,
00000001
00000000
10000000
00000000
,
00000010
00000000
10000001
00000000
,
00000010
00100000
00000100
00100000
,
01000000
00000001
10000000
00000001
,
00000010
00100000
10000000
00000001
,
00001000
00100000
10000000
00000000
,
00000010
00000000
00100000
00000000
,
00000100
00000000
01000000
00000000
,
00000001
00000000
10000000
00000000
,
00000001
00000000
00100100
00000000
,
00000010
10000000
00000001
10000000
,
01000000
00000100
00100000
00000100
,
01000000
00000100
00000001
01000000
,
00100000
00000100
00000001
00000000
,
10000000
00010000
00000001
00010000
,
10000000
00000001
01000000
00000100
,
00100000
00100000
00000100
00000100
,
00100000
00100000
00010000
00000001
,
01000000
00010000
10010000
10000000
,
00000001
00010000
00010001
00010000
,
00000100
00001000
00001100
00000100
,
00100000
00001000
00101000
00100000
,
00010000
00000001
10000000
00000001
,
00000001
00000010
01000000
00100000
,
00000100
00100000
00100000
00001000
,
00000100
00100000
01000000
10000000
,
00000001
00010000
00010001
00010000
,
10000000
00010000
10010000
00010000
,
00100000
00001000
00101000
00101000
,
00000100
00001000
00001100
00000000
,
00100000
00000100
01000000
00000001
,
10000000
00000010
00100000
00000100
,
00000000
00000000
00100000
00001000
,
00000000
00000000
00000100
00001000
,
00000000
00000000
00010000
00000001
,
00000000
00000000
10000000
00010000
,
00000000
00000000
00100000
00000000
,
00000010
00000000
10000000
00000000
,
00100100
00000000
00000000
00000000
;

//---------------techno-single8 - Medium----------------
#NOTES:
     techno-single8:
     :
     Medium:
     6:
     0.420,0.475,0.458,0.000,0.000:
00000000
00000000
00000000
00000000
,
00000000
00000000
00000000
00000000
,
00000010
00000000
00000010
00001010
,
01000000
00000000
01000000
01001000
,
00010000
00000000
00010000
01010000
,
00010000
00000000
00010000
00010010
,
00100000
00001000
00001000
00000000
00010000
00000001
00000001
00000000
,
00100000
00001000
00001000
00000000
00010000
00000001
10000000
00000000
,
00001000
00001000
00100100
00000000
00010000
00010000
10000001
00000000
,
00100000
00100000
00100000
00010000
00000100
00000100
00000100
00010000
,
00100000
00000000
00000010
00000000
,
00000100
00100100
01000000
01000010
,
00000001
00000000
01000000
00000000
,
10000000
10000001
00000010
01000010
,
00000100
00000000
00100000
00000000
00010000
00010000
00010000
00000000
,
00100000
00000000
00000100
00000000
00010000
00010000
00010000
00000000
,
00001000
00010000
00000001
10000000
,
00000010
00000010
00011000
00011000
,
00000100
00000000
01000000
00000000
,
00100000
00100100
00000010
01000010
,
00001000
00100100
00010000
10000001
,
10000001
00011000
00001000
00011000
,
00000001
00000000
10000000
00000000
00001000
00001000
00001000
00000000
,
10000000
00000000
00000001
00000000
00001000
00001000
00001000
00000000
,
00100000
00100000
00010000
00000000
10000000
10000000
00000001
00000000
,
01000000
00000000
01000000
00000000
00001000
00001000
00011000
00000000
,
00000100
10000000
00100000
00000001
,
00001000
00000000
00010000
00010000
00000010
00000000
01000010
00000000
,
00100000
00000001
00000100
10000000
,
00001000
00000000
00010000
00010000
01000000
00000000
01000010
00000000
,
00100000
00010000
00000100
00010000
,
00100000
00000000
00100000
00000000
00000010
00000010
00010010
00000000
,
00010000
01000000
00000100
00100000
,
00001100
00001100
00101000
00101000
,
00100000
00000001
00000100
10000000
,
00001000
00000000
00010000
00010000
01000000
00000000
01000010
00000000
,
00000100
10000000
00100000
00000001
,
00100000
00000000
00010000
00010000
00000010
00000000
01000010
00000000
,
00000100
00010000
00100000
00010000
,
00000100
00000000
00000100
00000000
01000000
01000000
01010000
00000000
,
00010000
01000000
00000100
00100000
,
00100100
00100100
00001100
00001100
,
00001000
00010000
00001000
00010000
00001000
00001000
00001000
00000000
,
00100000
00000001
00100000
00000001
00100000
00100000
00100000
00000000
,
00000100
10000000
00000100
10000000
00000100
00000100
00000100
00000000
,
00010000
00001000
00010000
00001000
00010000
00010000
00010000
00000000
,
00100000
00000100
00010000
00000000
00010010
00000000
01010000
00000000
,
00000010
00001000
00001000
00000001
,
00011000
00011000
10000100
00100001
,
00000010
01000000
00000001
00000001
01000000
00001000
00001000
00000000
,
00100100
00000000
00000000
00000000
;

//---------------techno-single8 - Hard----------------
#NOTES:
     techno-single8:
     :
     Hard:
     8:
     0.517,0.503,0.536,0.000,0.000: // measure 1
00000000
00000000
00000000
00000000
,  // measure 2
00000000
00000000
00000000
00000000
,  // measure 3
00001010
01010000
00001000
00100100
,  // measure 4
00001010
01010000
10000000
00100100
,  // measure 5
10000001
00011000
00000010
10000001
,  // measure 6
00011000
01000010
00001000
00011000
,  // measure 7
00100000
00100000
01001000
00000000
00010000
00010000
01000010
00000000
,  // measure 8
00000100
00000100
00001010
00000000
00010000
00010000
01000010
00000000
,  // measure 9
00001000
00000010
10000000
10000000
00001000
01000000
00000001
00000000
,  // measure 10
01000000
00010000
00000010
00010000
00001000
01000000
00010000
00010000
,  // measure 11
00000100
10000000
10000000
00001000
,  // measure 12
00010000
01000000
00000010
00010000
00000100
00000100
10000000
00000000
,  // measure 13
00001000
00000000
00001000
00000000
01000000
00000010
00011000
00000000
,  // measure 14
00001000
10000000
00000001
00000000
00010000
00010000
10000001
00000000
,  // measure 15
00001010
00000000
01010000
00000000
00001000
00010000
00001000
00010000
,  // measure 16
00010010
00000000
01001000
00000000
00001000
00010000
00001000
00010000
,  // measure 17
00000010
00010000
01000000
00000010
01000000
00010000
00000010
00000000
,  // measure 18
00001000
00000010
00001000
00010000
00000001
00000000
01000010
00000000
,  // measure 19
00100000
00000001
00000001
00001000
,  // measure 20
00010000
00000010
01000000
00010000
00100000
00100000
00000001
00000000
,  // measure 21
00010000
00000000
00010000
00000000
00000010
01000000
00011000
00000000
,  // measure 22
00001000
00000001
10000000
00000000
00010000
00010000
10000001
00000000
,  // measure 23
01010000
00000000
00001010
00000000
00001000
00010000
00001000
00010000
,  // measure 24
01001000
00000000
00010010
00000000
00001000
00010000
00001000
00010000
,  // measure 25
01000000
00010000
00000010
01000000
00000010
00010000
01000000
00000000
,  // measure 26
00001000
01000000
00001000
00010000
10000000
00000000
01000010
00000000
,  // measure 27
00000100
10000000
00100000
00000001
,  // measure 28
00001000
00000010
00010000
00000000
01000010
00000000
11000000
00000000
,  // measure 29
00100000
00000001
00000100
10000000
,  // measure 30
00001000
00000010
00010000
00000000
01000010
00000000
00000011
00000000
,  // measure 31
00100100
00011000
00000100
00010000
,  // measure 32
00100000
00000000
00001000
00010000
00000001
00000000
10000000
00000000
,  // measure 33
00000010
00000010
10000000
00000001
01000000
01000000
00000001
00000000
,  // measure 34
00010000
00000010
00001000
01000000
00000001
00000001
10000000
00000000
,  // measure 35
00100000
00000001
00000100
10000000
,  // measure 36
00001000
01000000
00010000
00000000
01000010
00000000
00000011
00000000
,  // measure 37
00000010
00000000
10000000
00000000
00100000
00010000
00000001
00000000
,  // measure 38
00001000
01000000
00010000
00000000
01000010
00000000
11000000
00000000
,  // measure 39
00100100
00011000
00100000
00010000
,  // measure 40
00000100
00000000
00001000
00010000
10000000
00000000
00000001
00000000
,  // measure 41
01000000
01000000
00000001
10000000
00000010
00000010
10000000
00000000
,  // measure 42
00010000
01000000
00001000
00000010
10000000
10000000
00000001
00000000
,  // measure 43
00001000
00000010
00010000
01000000
00001000
00000010
00010000
01000000
,  // measure 44
00100000
00000001
00100000
00000001
00100000
00000001
00100000
00000001
,  // measure 45
00000100
10000000
00000100
10000000
00000100
10000000
00000100
10000000
,  // measure 46
00010000
01001000
00001000
00000010
00010000
01000000
00001000
00000010
,  // measure 47
10000000
00000000
01010000
00000000
00000010
00000010
00010000
00000000
,  // measure 48
00000100
00000000
00001010
00000000
10000000
10000000
00010000
00000000
,  // measure 49
01000010
00000000
01000010
00000000
01000000
00010000
10000000
00000000
,  // measure 50
00000100
01000000
00000001
00001000
10000000
00000010
00100000
00010000
,  // measure 51
00100100
00000000
00000000
00000000
;
