#TITLE:First Love;
#SUBTITLE:;
#ARTIST:CLON;
#TITLETRANSLIT:;
#SUBTITLETRANSLIT:;
#ARTISTTRANSLIT:;
#CREDIT:;
#BANNER:Disc.png;
#BACKGROUND:Title.png;
#LYRICSPATH:;
#CDTITLE:;
#MUSIC:Song.MP3;
#OFFSET:-5.080;
#SAMPLESTART:47.097;
#SAMPLELENGTH:12.000;
#SELECTABLE:YES;
#BPMS:0.000=142.800;
#STOPS:;
#BGCHANGES:;

//---------------techno-single4 - easy----------------
#NOTES:
     techno-single4:
     :
     Easy:
     3:
     0.288,0.351,0.197,0.000,0.000: // measure 1
0000
0000
0000
0000
,  // measure 2
0010
0000
0000
0000
0010
0000
0100
0000
,
0010
0000
0000
0000
1000
0000
0001
0000
,
1000
0000
0000
0000
0001
0000
1000
0000
,
0001
0000
0000
0000
0100
0000
0000
0000
,
0010
0000
1000
0000
0010
0000
0000
0000
,
0001
0000
0100
0000
0001
0000
0000
0000
,
1000
0000
0100
0000
1000
0000
0001
0000
,
1001
0000
0000
0000
0000
0000
0000
0000
,
0001
0000
0001
0000
0100
0000
1000
0000
,
0010
0000
1000
0000
0100
0000
0001
0000
,
0001
0000
0010
0000
1000
0000
1000
0000
,
0001
0000
0001
0000
1000
0000
0001
0000
,
0010
0000
1000
0000
0100
0000
1000
0000
,
0100
0000
0001
0000
0010
0000
0001
0000
,
0001
0000
0100
0000
0001
0000
1000
0000
,
1001
0000
0110
0000
0110
0000
0000
0000
,
0100
0000
0010
0000
0001
0000
0100
0000
,
1000
0000
0100
0000
0001
0000
1000
0000
,
0010
0000
1000
0000
0001
0000
1000
0000
,
1001
0000
0110
0000
0110
0000
0001
0000
,
1000
0000
0001
0000
1000
0000
0001
0000
,
1001
0000
1001
0000
1001
0000
1001
0000
,
1000
0000
0001
0000
1000
0000
0001
0000
,
0010
0000
0001
0000
1000
0000
0100
0000
,
0010
0000
0100
0000
0001
0000
1000
0000
,
0100
0000
0001
0000
1000
0000
1000
0000
,
0001
0000
0001
0000
1000
0000
0001
0000
,
1001
0000
0000
0000
0000
0000
0000
0000
,
1000
0000
0001
0000
1000
0000
0001
0000
,
1001
0000
1001
0000
1001
0000
1001
0000
,
1000
0000
0001
0000
1000
0000
0001
0000
,
1001
0000
1001
0000
1001
0000
1001
0000
,
0010
0000
0100
0000
0001
0000
1000
0000
,
1001
0000
0000
0000
0000
0000
0000
0000
,
0110
0000
0000
0000
0000
0000
0000
0000
,
0110
0000
0000
0000
1001
0000
0000
0000
,
0001
0000
0010
0000
1000
0000
0100
0000
,
0001
0000
0010
0000
1000
0000
0100
0000
,
1000
0000
0010
0000
0001
0000
1000
0000
,
0100
0000
0001
0000
0100
0000
0001
0000
,
1000
0000
0001
0000
1000
0000
1000
0000
,
0001
0000
1000
0000
0001
0000
0001
0000
,
0010
0000
0010
0000
0010
0000
1000
0000
,
0010
0000
0001
0000
0100
0000
0010
0000
,
0100
0000
0110
0000
0001
0000
0010
0000
,
1000
0000
0000
0000
0001
0000
0000
0000
,
0010
0000
0001
0000
0100
0000
1000
0000
,
0001
0000
0000
0000
0010
0000
0000
0000
,
1000
0000
0100
0000
0001
0000
0010
0000
,
0001
0000
0000
0000
0100
0000
0000
0000
,
0010
0000
1000
0000
0010
0000
0001
0000
,
0100
0000
0000
0000
1000
0000
0000
0000
,
0010
0000
0001
0000
0100
0000
1000
0000
,
0001
0000
0000
0000
0110
0000
0000
0000
,
1001
0000
0000
0000
0000
0000
0000
0000
,
0000
0000
0000
0000
0000
0000
0000
0000
,
0000
0000
0000
0000
0000
0000
0000
0000
,
0000
0000
0000
0000
0000
0000
0000
0000
,
0000
0000
0000
0000
0000
0000
0000
0000
,
0000
0000
0000
0000
0000
0000
0000
0000
,
0000
0000
0000
0000
0000
0000
0000
0000
,
0000
0000
0000
0000
0000
0000
0000
0000
,
0000
0000
0000
0000
0000
0000
0000
0000
,
0000
0000
0000
0000
0000
0000
0000
0000
,
0000
0000
0000
0000
0000
0000
0000
0000
,
0000
0000
0000
0000
0000
0000
0000
0000
;

//---------------techno-single4 - normal----------------
#NOTES:
     techno-single4:
     :
     Medium:
     7:
     0.288,0.351,0.197,0.000,0.000:
0000
0000
0000
,
0010
0000
0000
0000
0010
0001
0010
1000
,
0001
0000
0000
0000
0001
0100
0001
0100
,
1000
0000
0000
0000
1000
0100
1000
0100
,
0001
0000
1000
0000
0000
0000
0000
0000
,
0001
1000
1000
0000
0001
1000
1000
0000
,
1000
0001
0001
0000
1000
0001
0001
0000
,
0001
0000
0100
0000
1000
0000
0100
0000
,
1000
0001
0000
0000
0001
0000
0000
0000
,
1000
0001
0001
0000
1000
0001
0001
0000
,
0001
1000
1000
0000
0001
1000
1000
0000
,
1000
0000
0100
0000
0001
0000
0100
0000
,
0001
1000
0000
0000
1000
0000
0000
0000
,
0010
1000
0010
0001
0100
0001
0100
1000
,
0001
0000
1100
0000
1000
0000
0101
0000
,
0010
0000
0001
0000
0100
0000
1000
0000
,
1001
0000
0101
0000
1100
0000
0000
0000
,
0100
0001
0100
1000
0010
1000
0010
0001
,
1000
0000
0101
0000
0001
0000
1100
0000
,
0010
0000
1000
0000
0100
0000
0001
0000
,
1001
1001
1001
1001
0000
0000
0100
0000
,
0110
0000
0001
1000
0010
0000
0010
0000
,
0001
0000
1001
0000
1000
0000
1001
0000
,
0010
0000
0001
0000
0010
0000
1000
0000
,
0001
0001
0000
0000
1000
1000
0000
0000
,
0010
0000
0100
0000
0001
0000
1000
0000
,
0100
0000
1001
0000
0100
0000
1001
0000
,
0010
0001
1000
0100
0001
1000
0000
0000
,
0110
0110
0110
0110
0000
0000
1000
0000
,
1001
0000
0010
0100
0010
0000
0010
0000
,
0010
0000
0110
0000
0100
0000
0110
0000
,
0100
0000
0001
0000
0100
0000
1000
0000
,
0001
1000
0000
0000
1000
0001
0000
0000
,
0001
0000
1000
0000
0010
0000
0100
0000
,
0011
0000
0001
0000
1000
0000
0100
0000
,
1010
0000
1000
0000
0001
0000
0100
0000
,
0101
0000
0001
0000
1100
0000
1000
0000
,
0011
0000
1100
0000
1010
0000
0101
0000
,
0010
0010
0000
0000
0100
0100
0000
0000
,
0001
0001
0000
0000
1000
1000
0000
0000
,
0010
0000
0100
0000
0010
0000
0100
0000
,
1001
0000
0010
0000
0100
0000
1001
0000
,
0010
0010
0000
0000
0100
0100
0000
0000
,
0001
0001
0000
0000
1000
1000
0000
0000
,
0010
0000
0100
0000
0010
0000
0100
0000
,
1001
0000
0100
0000
0010
0000
1001
0000
,
0010
0000
0010
0000
0001
0100
1000
0001
,
1001
0000
0001
0000
0001
0000
0001
0000
,
0010
0000
0010
0000
1000
0100
0001
1000
,
1001
0000
1000
0000
1000
0000
1000
0000
,
0001
0000
1000
0000
0010
1000
0100
1000
,
0110
0000
0001
0000
1000
0000
0001
0000
,
1000
0000
0001
0000
0010
0001
0100
0001
,
0110
0000
1000
0000
0001
0000
1000
0000
,
0010
0000
1000
0000
0100
0000
0001
0000
,
1001
0000
0000
0000
0000
0000
0000
0000
,
0000
0000
0000
0000
0000
0000
0000
0000
,
0000
0000
0000
0000
0000
0000
0000
0000
,
0000
0000
0000
0000
0000
0000
0000
0000
,
0000
0000
0000
0000
0000
0000
0000
0000
,
0000
0000
0000
0000
0000
0000
0000
0000
,
0000
0000
0000
0000
0000
0000
0000
0000
,
0000
0000
0000
0000
0000
0000
0000
0000
,
0000
0000
0000
0000
0000
0000
0000
0000
,
0000
0000
0000
0000
0000
0000
0000
0000
,
0000
0000
0000
0000
0000
0000
0000
0000
,
0000
0000
0000
0000
0000
0000
0000
0000
;

//---------------techno-single4 - hard----------------
#NOTES:
     techno-single4:
     :
     Hard:
     10:
     0.288,0.351,0.197,0.000,0.000:
0000
0000
0000
,
0010
0000
0001
1000
0010
0000
0100
0000
,
0010
0000
1000
0001
0010
0000
0100
0000
,
0001
0000
1000
0001
1000
0000
0001
0000
,
0010
0000
0000
1000
0001
0000
0000
0000
,
0010
1000
0001
0100
0001
1000
0100
0001
,
1000
0100
1000
0001
0100
1000
0001
0100
,
1000
0100
0010
0001
0100
1000
0001
1000
,
0001
0100
0001
0100
0010
0001
0100
1000
,
0010
0001
1000
0100
1000
0001
0100
1000
,
0001
0100
0001
1000
0100
0001
1000
0100
,
0001
0100
0010
1000
0100
0001
1000
0001
,
1000
0100
1000
0100
0010
0001
0100
0000
,
1000
0001
0100
0100
0010
0001
0010
1000
,
0010
0100
1000
1000
0001
0001
0100
0010
,
1000
0010
0100
1000
0001
0010
0001
0100
,
1000
0010
1000
0100
0001
0100
1000
0001
,
0001
1000
0100
0100
0010
1000
0010
0001
,
0010
0100
0001
0001
1000
1000
0100
0010
,
0001
0010
0100
0001
1000
0000
0001
1000
,
0001
1000
0100
0010
0001
0010
0100
0000
,
0001
1000
0100
0000
1000
0001
0100
0000
,
1001
0000
1001
0000
1001
0000
1001
0000
,
0011
0001
1001
0001
0101
0001
1001
0000
,
0011
0000
1100
0000
0011
0000
1100
0000
,
1010
1000
1001
1000
1100
1000
1001
0000
,
0010
0001
0001
1000
1000
0001
0100
0010
,
0010
0001
0001
0100
0100
1000
1000
0001
,
1000
0001
0010
0100
1000
0100
0010
0000
,
1000
0001
0010
0000
0001
1000
0010
0000
,
0110
0000
0110
0000
0110
0000
0110
0000
,
1100
1000
1001
1000
1010
1000
1001
0000
,
1010
0000
0101
0000
1010
0000
0101
0000
,
0000
0000
0000
0000
0000
0000
0000
0000
,
0110
1000
0010
1000
0100
1000
0010
1000
,
1001
0010
0001
0010
1000
0010
0001
0000
,
0110
0001
0100
0001
0010
0001
0100
0001
,
1001
0100
1000
0100
0001
0100
1000
0100
,
1000
0001
0010
0100
0010
0001
0100
1000
,
0001
1000
0100
0100
0001
0100
1000
0100
,
0001
1000
0001
0100
1000
0100
0001
0010
,
1000
0001
1000
0100
0001
0100
1000
0100
,
0001
1000
0010
0100
0010
1000
0100
0001
,
1000
0001
0100
0100
1000
0100
0001
0100
,
1000
0001
1000
0100
0001
0100
1000
0010
,
0001
1000
0001
0100
1000
0100
0001
0100
,
0010
0001
0010
1000
0100
1000
0001
1000
,
0001
0001
0001
1000
0100
0001
1000
0100
,
0010
1000
0010
0001
0100
0001
1000
0001
,
1000
1000
1000
0001
0100
1000
0001
0000
,
1000
1000
0001
0001
0100
0010
1000
0001
,
1000
0010
0001
0100
0010
0001
1000
0100
,
0001
0001
1000
1000
0100
0010
0001
1000
,
0001
0010
1000
0100
0010
1000
0001
0100
,
0010
0000
1000
0000
0100
0000
0001
0000
,
1001
0000
0000
0000
0000
0000
0000
0000
,
0000
0000
0000
0000
0000
0000
0000
0000
,
0000
0000
0000
0000
0000
0000
0000
0000
,
0000
0000
0000
0000
0000
0000
0000
0000
,
0000
0000
0000
0000
0000
0000
0000
0000
,
0000
0000
0000
0000
0000
0000
0000
0000
,
0000
0000
0000
0000
0000
0000
0000
0000
,
0000
0000
0000
0000
0000
0000
0000
0000
,
0000
0000
0000
0000
0000
0000
0000
0000
,
0000
0000
0000
0000
0000
0000
0000
0000
,
0000
0000
0000
0000
0000
0000
0000
0000
,
0000
0000
0000
0000
0000
0000
0000
0000
;

//---------------techno-double5 - double5----------------
#NOTES:
     techno-double5:
     :
     Medium:
     10:
     0.288,0.351,0.197,0.000,0.000:
00000000
00000000
00000000
00000000
,
00000000
00000000
00000000
00000000
,
00100000
00000000
00000000
00000000
00010000
00000000
00001000
00000000
,
00000010
00000000
00000000
00000000
00001000
00000000
00010000
00000000
,
01000000
00000000
00000000
00000000
00010000
00000000
00001000
00000000
,
00000100
00000000
00000010
00000000
00000000
00000000
00001000
00000010
,
00000011
00000001
00000100
00000000
00001000
00000000
00010000
00100000
,
10100000
11000000
01000000
00000000
00010000
00000000
00000100
00000010
,
00000001
00001000
00000001
00000100
00001100
00010000
00100000
10000000
,
01000000
00010000
00001000
00011000
00000000
00000000
00010000
00100000
,
10100000
10000000
01000000
00000000
00010000
00000000
00001000
00000010
,
00000011
00000001
00000100
00000000
00001000
00000000
00100000
01000000
,
10000000
00010000
10000000
01000000
00010000
00001000
00000010
00000001
,
00000100
00001000
00010000
00011000
00000000
00000000
00001000
00000000
,
01001000
00001000
00011000
00000000
00010010
00000000
00010000
00000100
,
00010100
00010000
00011000
00000000
00101000
00000000
00100000
00001000
,
00010000
00000100
00001000
00000100
00000001
00000100
00001000
00000100
,
00000001
00000100
00010000
01010000
00000000
00000000
00010000
00000010
,
00010010
00010000
00011000
00000000
01001000
00000000
00001000
00100000
,
00101000
00001000
00011000
00000000
00010100
00000000
00001000
00010000
,
00011000
00000000
00000001
00000000
00011000
00000000
10000000
00000000
,
00011000
00001000
00000100
00000001
00000100
00001000
00010000
00000000
,
00100000
00000000
10010000
00000000
01000000
00000000
01100000
00000000
,
00100000
00000000
00010000
00000000
00001000
00000000
00000010
00000000
,
00000001
00000100
00000001
00000100
00001000
00000100
00001000
00000100
,
00000110
00000000
00001001
00000000
00011000
00000000
10010000
00000000
,
01100000
00000000
00010000
00000000
01000000
00000000
10000000
00000000
,
00100000
00000000
00010000
00100000
10000000
10000000
01000000
00010000
,
00001000
00000010
00000001
00000001
00000100
00001000
00011000
00000000
,
00011000
00010000
01000000
10000000
01000000
00010000
00001000
00000000
,
00000010
00000000
00001001
00000000
00000100
00000000
00000110
00000000
,
00000010
00000000
00001000
00000000
00010000
00000000
00100000
00000000
,
10000000
00100000
10000000
00100000
00010000
00100000
00010000
00100000
,
01100000
00000000
10010000
00000000
00011000
00000000
00001001
00000000
,
00000000
00000000
00000000
00000000
00000000
00000000
00000000
00000000
,
00001001
00000001
00001000
00000100
00010000
00001000
01000000
00010000
,
10010000
10000000
00010000
01000000
00001000
00010000
00000100
00001000
,
00000110
00000100
00001000
00100000
01100000
01000000
00010000
00000010
,
00001010
00001000
00110000
00010000
00001100
00001100
01010000
00010000
,
10000000
10000000
00010000
00000000
00010000
00000000
00001000
00000000
,
00001000
00000000
00000001
00000001
00000011
00000000
00001100
00000000
,
00001000
00010000
01000000
10000000
10100000
00000000
01010000
00000000
,
00010000
00001000
00000100
00000001
00000110
00000000
00001001
00000000
,
00000001
00000001
00001000
00000000
00001000
00000000
00010000
00000000
,
00010000
00000000
10000000
10000000
10100000
00000000
01010000
00000000
,
00010000
00001000
00000100
00000001
00000011
00000000
00001100
00000000
,
00001000
00010000
01000000
10000000
01100000
00000000
10010000
00000000
,
00100000
00000000
00100000
00000000
00000000
10000000
01000000
00010000
,
10010000
10000000
10000000
01000000
00010000
01000000
00010000
00001000
,
00000010
00000000
00000010
00000000
00000000
00000001
00000100
00001000
,
00001001
00000001
00000001
00000100
00001100
00000100
00001100
00000000
,
01000000
00000000
01000000
00000000
00000000
00010000
00100000
10000000
,
10010000
01000000
00001000
00010000
00000100
00001000
00000001
00001000
,
00000100
00000000
00000100
00000000
00000000
00001000
00000010
00000001
,
00001001
00000100
00010000
00001000
01000000
00010000
10000000
00010000
,
00100000
00000000
00000010
00000000
01000000
00000000
00000100
00000000
,
00011000
00000000
00000000
00000000
00000000
00000000
00000000
00000000
,
00000000
00000000
00000000
00000000
00000000
00000000
00000000
00000000
,
00000000
00000000
00000000
00000000
00000000
00000000
00000000
00000000
,
00000000
00000000
00000000
00000000
00000000
00000000
00000000
00000000
,
00000000
00000000
00000000
00000000
00000000
00000000
00000000
00000000
,
00000000
00000000
00000000
00000000
00000000
00000000
00000000
00000000
,
00000000
00000000
00000000
00000000
00000000
00000000
00000000
00000000
,
00000000
00000000
00000000
00000000
00000000
00000000
00000000
00000000
,
00000000
00000000
00000000
00000000
00000000
00000000
00000000
00000000
,
00000000
00000000
00000000
00000000
00000000
00000000
00000000
00000000
,
00000000
00000000
00000000
00000000
00000000
00000000
00000000
00000000
,
00000000
00000000
00000000
00000000
00000000
00000000
00000000
00000000
;

//---------------techno-single5 - easy----------------
#NOTES:
     techno-single5:
     :
     Easy:
     3:
     0.288,0.351,0.197,0.000,0.000: // measure 1
00000
00000
00000
00000
,  // measure 2
00100
00000
00100
01000
,  // measure 3
00010
00000
00100
00001
,  // measure 4
10000
00000
00001
10000
,  // measure 5
00001
00000
00100
00000
,  // measure 6
00010
01000
00010
00000
,  // measure 7
00001
10000
00001
00000
,  // measure 8
10000
00100
10000
00001
,  // measure 9
10001
00000
00000
00000
,  // measure 10
00100
00100
01000
00100
,  // measure 11
00010
00100
01000
00010
,  // measure 12
00100
00100
10000
10000
,  // measure 13
00001
00001
10000
00001
,  // measure 14
00100
10000
01000
10000
,  // measure 15
01000
00010
00100
00001
,  // measure 16
00010
00001
00010
01000
,  // measure 17
01010
10001
10001
00000
,  // measure 18
00100
00010
00001
00100
,  // measure 19
10000
00100
00001
00010
,  // measure 20
00100
00001
00010
01000
,  // measure 21
01010
10001
10001
00100
,  // measure 22
01000
00010
01000
00010
,  // measure 23
01010
01010
01010
01010
,  // measure 24
01000
00010
01000
00010
,  // measure 25
00100
00001
10000
00100
,  // measure 26
00010
00100
01000
00010
,  // measure 27
00100
00001
10000
10000
,  // measure 28
00001
00001
10000
00001
,  // measure 29
10001
00000
00000
00000
,  // measure 30
10000
00001
10000
00001
,  // measure 31
10001
10001
10001
10001
,  // measure 32
10000
00001
10000
00001
,  // measure 33
00100
01000
00100
00001
,  // measure 34
00100
00100
00010
01000
,  // measure 35
01010
00000
00000
00000
,  // measure 36
10001
00000
00000
00000
,  // measure 37
01010
00000
10001
00000
,  // measure 38
00001
00100
10000
01000
,  // measure 39
00100
01000
10000
00001
,  // measure 40
00100
00010
00001
00010
,  // measure 41
00100
00001
00100
00001
,  // measure 42
10000
00001
10000
10000
,  // measure 43
00001
10000
00001
00001
,  // measure 44
00100
00100
00010
01000
,  // measure 45
00010
00100
01000
00010
,  // measure 46
01000
01010
00100
00001
,  // measure 47
10000
00000
00100
00000
,  // measure 48
01000
00010
00100
00001
,  // measure 49
10000
00000
00100
00000
,  // measure 50
10000
00001
00100
00010
,  // measure 51
01000
00000
00100
00000
,  // measure 52
01000
10000
00010
00001
,  // measure 53
10000
00000
00100
00000
,  // measure 54
01000
00010
00001
10000
,  // measure 55
00001
00000
01010
00000
,  // measure 56
10001
00000
00000
00000
;

//---------------techno-single5 - normal----------------
#NOTES:
     techno-single5:
     :
     Medium:
     7:
     0.288,0.351,0.197,0.000,0.000:
00000
00000
00000
00000
,
00100
00000
00000
00000
00100
00010
00100
01000
,
00001
00000
00000
00000
00001
01000
00001
10000
,
10000
00000
00000
00000
10000
00010
10000
00001
,
00010
01000
00000
00000
,
00010
01000
00100
00000
00010
01000
00100
00000
,
10000
00001
00100
00000
10000
00001
00100
00000
,
00010
00100
10000
00001
,
10000
00100
00000
00000
00010
00000
00000
00000
,
01000
00010
00100
00000
01000
00010
00100
00000
,
00001
10000
00100
00000
00001
10000
00100
00000
,
01000
00100
00001
10000
,
00001
00100
00000
00000
01000
00000
00000
00000
,
00010
00001
01000
10000
00010
00100
01000
00100
,
00010
00110
10000
10100
,
00010
00100
01000
00100
,
00011
01010
11000
00000
,
00001
01000
10000
00010
00001
00100
10000
00100
,
01000
01100
00001
00101
,
10000
00100
00001
00100
,
10001
10001
10001
10001
00000
00000
00100
00000
,
01010
00000
00001
10000
00001
00000
00001
00000
,
01000
01001
00010
10010
,
00010
01000
00001
10000
,
00010
00100
00000
00000
00001
00100
00000
00000
,
01000
00010
00001
10000
,
00010
10010
01000
01001
,
00010
01000
00100
10000
00001
00100
00000
00000
,
01010
01010
01010
01010
00000
00000
00100
00000
,
10001
00000
01000
00010
01000
00000
01000
00000
,
00010
10010
01000
01001
,
01000
00010
10000
00001
,
01000
00100
00000
00000
10000
00000
00100
00000
,
00010
01000
10000
00001
,
01010
00010
00100
10000
,
10001
10000
00100
00010
,
10010
10000
01001
00001
,
00110
10100
01100
00101
,
01000
00100
00000
00000
00100
00001
00000
00000
,
00010
00100
00000
00000
00100
10000
00000
00000
,
00010
00001
00100
01000
,
01010
00001
10000
01010
,
10000
00100
00000
00000
00100
00010
00000
00000
,
00001
00100
00000
00000
00100
01000
00000
00000
,
01000
10000
00100
00010
,
10001
00010
01000
10001
,
00100
01000
00000
00000
00001
00100
10000
00100
,
01010
00010
00010
00010
,
00100
00000
00010
00000
10000
00100
00001
00100
,
01010
01000
01000
01000
,
00010
00000
01000
00000
01000
00100
10000
00100
,
00110
00010
00100
00001
,
01000
00000
00010
00000
01000
00100
10000
00100
,
01100
01000
00100
10000
,
01000
00010
00001
10000
,
10001
00000
00000
00000
;

//---------------techno-single5 - hard----------------
#NOTES:
     techno-single5:
     :
     Hard:
     10:
     0.288,0.351,0.197,0.000,0.000:
00000
00000
00000
00000
,
00010
00000
01000
00100
00001
00000
10000
00000
,
01000
00000
00010
00100
10000
00000
00001
00000
,
00100
00000
00010
01000
00001
00000
10000
00000
,
00010
00000
00000
01000
00100
00000
00000
00000
,
00010
00100
00001
01000
00001
00100
01000
00010
,
10000
00001
10000
00010
00100
01000
00010
00100
,
10000
00001
01000
10000
00010
00001
00100
00100
,
01000
00010
10000
00100
00001
10000
00010
00100
,
01000
00100
10000
00010
10000
00100
00010
01000
,
00001
10000
00001
01000
00100
00010
01000
00100
,
00001
10000
00010
00001
01000
10000
00100
00100
,
00010
01000
00001
00100
10000
00001
01000
00000
,
00010
00100
00001
00001
10000
10000
00100
00001
,
10000
00001
00010
01000
00001
00100
10000
00010
,
10000
00100
00001
01000
01000
00010
01000
00100
,
00010
10000
00010
10000
10000
00100
00001
00001
,
01000
00100
10000
10000
00001
00001
00100
10000
,
00001
10000
01000
00010
10000
00100
00001
01000
,
00001
00100
10000
00010
00010
00000
00010
00100
,
01000
00001
00010
00100
01000
10000
00001
00000
,
01000
00010
00100
00000
00010
01000
00100
00000
,
01010
01010
10001
10001
,
11000
10000
10100
10000
10010
10000
10001
00000
,
11000
11000
00011
00011
,
00011
00001
00101
00001
01001
00001
10001
00000
,
00010
00100
01000
00100
00001
00100
10000
00100
,
00010
10000
00001
01000
01000
00001
10000
00010
,
00001
10000
01000
00100
00010
00001
10000
00000
,
10000
00001
00100
00000
00001
10000
00100
00000
,
10001
10001
01010
01010
,
00011
00001
00101
00001
01001
00001
10001
00000
,
00011
00011
11000
11000
,
00000
00000
00000
00000
,
10010
00100
00010
00100
10000
00100
00010
00100
,
01001
00100
00001
00100
01000
00100
00001
00100
,
10010
00100
10000
00100
00010
00100
10000
00100
,
01001
00100
01000
00100
00001
00100
01000
00100
,
00010
10000
00010
10000
01000
00001
10000
00010
,
01000
00010
00100
00010
00010
01000
01000
00100
,
00001
00100
00001
10000
00100
01000
00010
00100
,
10000
00100
10000
00001
00010
00100
01000
00100
,
01000
00001
01000
00001
00010
10000
01000
00001
,
00010
01000
00100
01000
01000
00010
00010
00100
,
10000
00100
10000
00001
00100
00010
01000
00100
,
00001
00100
00001
10000
01000
00100
00010
00100
,
10000
00100
10000
00010
01000
00010
00100
00010
,
00010
10000
00100
01000
00001
00100
10000
10000
,
00001
00100
00001
01000
00010
01000
00100
01000
,
01000
00001
00100
00010
10000
00100
00001
00000
,
01000
00100
00001
10000
00010
01000
00100
10000
,
00010
01000
00100
00001
10000
00010
00001
10000
,
00010
00100
10000
00001
01000
00010
00100
00001
,
01000
00010
00100
10000
00001
01000
10000
00001
,
01000
10000
00001
00010
,
01010
00000
00000
00000
;

//---------------techno-double5 - double5----------------
#NOTES:
     techno-double5:
     double5:
     Medium:
     10:
     0.288,0.351,0.197,0.000,0.000:
000000000
000000000
000000000
000000000
,
001000000
000000000
001000000
001000000
,
000000010
000000000
000000010
000000010
,
000100000
000000100
000010000
000001000
,
000101000
000000000
000010100
000000000
000000000
000000000
000000001
000001000
,
000001001
000000010
000001000
000000000
000010000
000000000
001000000
010000000
,
010010000
001000000
000010000
000000000
000001000
000000000
000000100
000000001
,
000001000
000000001
000000010
000010000
000001000
001000000
010000000
000100000
,
001000000
000010000
100000000
100010000
000000000
000000000
010000000
000010000
,
010010000
001000000
000010000
000000000
000001000
000000000
000000010
000000001
,
000001001
000000010
000001000
000000000
000010000
000000000
000100000
010000000
,
000010000
100000000
001000000
000001000
000010000
000000010
000000001
000000100
,
000000010
000001000
000000001
000001001
000000000
000000000
000000100
000000000
,
000001100
000100000
000110000
000000000
001100000
000000000
000100000
000010000
,
000110000
000000100
000001100
000000000
000000110
000000000
000000010
000000100
,
000001000
000100000
000010000
010000000
001000000
000100000
000010000
100000000
,
010000000
001000000
000100000
010100000
000000000
000000000
000100000
000010000
,
000110000
000001000
000001100
000000000
000000110
000000000
000000100
000001000
,
000001100
000010000
000110000
000000000
001100000
000000000
000100000
000000100
,
000100100
000000010
001000000
001000010
,
000011000
000001000
000000001
000000100
000000010
000001000
000000001
000000000
,
000000010
000001001
000000010
000000101
,
000000010
000001000
000100000
001000000
,
100000000
001000000
100000000
001000000
000010000
001000000
000010000
001000000
,
001100000
001010000
000000110
000001010
,
000000101
000000010
000000001
000000010
,
000001000
000000000
000000001
000000010
000000001
000000100
000000010
000001000
,
000001000
000100000
000010000
001000000
000100000
001000000
001000010
000000000
,
000011000
000010000
010000000
000100000
001000000
000010000
100000000
000000000
,
001000000
010010000
001000000
010100000
,
001000000
000010000
000000100
000000010
,
000000001
000000010
000000001
000000010
000001000
000000010
000001000
000000010
,
000000110
000001010
001100000
001010000
,
000000000
000000000
000000000
000000000
,
110000000
000000000
000000000
000000000
,
0000000011
000000000
000000000
000000000
,
000110000
000000000
000001100
000000000
,
000101000
000101000
000010100
000010100
,
000000100
000000010
000000001
000000000
000001000
000000000
000010000
000000000
,
100000000
000000000
000100000
001000000
110000000
000000000
000110000
000000000
,
000010000
000001000
000000100
000000010
0000000011
000000000
000001100
000000000
,
000001000
000010000
000100000
001000000
010100000
000000000
100010000
000000000
,
000100000
001000000
100000000
000000000
000010000
000001000
000000000
000000000
,
000000001
000000000
000000100
000000010
0000000011
000000000
000001100
000000000
,
000001000
000010000
000100000
001000000
110000000
000000000
000110000
000000000
,
000010000
000001000
000000100
000000010
000000101
000000000
000001001
000000000
,
000000010
000000000
000000010
000000000
000000000
000000001
000000010
000000100
,
000000101
000000100
000000010
000100000
000001000
010000000
001000000
000100000
,
001000000
000000000
001000000
000000000
000000000
010000000
001000000
000100000
,
010100000
000100000
001000000
000000100
000010000
000000001
000000010
000000000
,
000000001
000000000
000000100
000000000
000000000
000000001
000000010
000001000
,
000001001
000001000
000000010
000010000
000001000
001000000
000010000
100000000
,
010000000
000000000
000100000
000000000
000000000
100000000
001000000
000010000
,
100010000
000010000
001000000
000001000
000010000
000000010
000001000
000000001
,
000000010
000100000
000000000
000000000
001000000
000000100
000000000
000000000
,
001000010
000000000
000000000
000000000
;

//---------------techno-single8 - ----------------
#NOTES:
     techno-single8:
     :
     Easy:
     3:
     0.288,0.351,0.197,0.000,0.000:
00000000
00000000
00000000
00000000
,
00001000
00000000
00000010
01000000
,
00000100
00000000
01000000
00000001
,
10000000
00000000
00000001
10000000
,
00000001
00000000
01000000
00000000
,
00000100
00100000
00000100
00000000
,
00000001
10000000
00000001
00000000
,
00000100
00100000
00000100
00000000
,
00000001
10000000
00000001
00000000
,
00000010
00001000
01000000
00001000
,
00000100
01000000
00100000
00000100
,
00000010
00010000
10000000
10000000
,
00000001
00000001
10000000
00000001
,
00000010
10000000
00100000
10000000
,
00100000
00000100
00001000
00000001
,
00000100
00000001
00000100
00100000
,
00100100
10000001
10000001
00000000
,
00010000
00000100
00000001
00000010
,
10000000
00010000
00000001
00000100
,
00100000
00000001
00000100
00100000
,
00100100
10000010
10000010
00001000
,
00100000
00000100
00100000
00000100
,
00100100
00100100
00100100
00100100
,
00100000
00000100
00100000
00000100
,
01000000
00000001
10000000
00000010
,
00000100
00010000
00100000
00000100
,
00000010
00000001
10000000
10000000
,
00000001
00000001
10000000
00000001
,
10000001
00000000
00000000
00000000
,
10000000
00000010
10000000
00000001
,
00000001
10000001
10000001
10000000
,
10000000
00000001
10000000
00000001
,
00000010
01000000
10000000
00000001
,
00001000
00001000
00000100
00100000
,
00100100
00000000
00000000
00000000
,
10000001
00000000
00000000
00000000
,
00100100
00000000
10000001
00000000
,
00000001
00010000
10000000
01000000
,
00000010
00100000
10000000
00000001
,
01000000
00000100
00000001
00000100
,
01000000
00000001
01000000
00000001
,
10000000
00000001
10000000
10000000
,
00000001
10000000
00000001
00000001
,
01000000
01000000
00000100
00100000
,
00000100
00001000
00100000
00000100
,
00100000
00100100
00001000
00000100
,
10000000
00000000
00000010
00000000
,
00100000
00000100
01000000
00000001
,
10000000
00000000
00000010
00000000
,
10000000
00000001
00000000
00000100
,
00100000
00000000
00000010
00000000
,
00100000
10000000
00000100
00000001
,
10000000
00000000
00000010
00000000
,
00100000
00000100
00000001
10000000
,
00000001
00000000
00100100
00000000
,
10000001
00000000
00000000
00000000
;

//---------------techno-single8 - ----------------
#NOTES:
     techno-single8:
     :
     Medium:
     7:
     0.401,0.432,0.393,0.000,0.000:
00000000
00000000
00000000
00000000
,
00000100
00000000
00000000
00000000
00000100
00010000
00000100
00010000
,
00100000
00000000
00000000
00000000
00100000
00010000
00100000
00010000
,
00001000
00000000
00000000
00000000
00000010
00010000
01000000
00010000
,
00001000
00010000
00000000
00000000
,
00000100
00001000
00000001
00000000
00000100
00001000
00000001
00000000
,
00100000
00001000
10000000
00000000
00100000
00001000
10000000
00000000
,
00010000
00000010
00010000
01000000
,
00000010
00100000
00100000
00000000
,
10000000
00010000
01000000
00000000
10000000
00010000
00100000
00000000
,
00000001
00010000
00000010
00000000
00000001
00010000
00000100
00000000
,
00001000
01000000
00001000
00000010
,
01000000
00000100
00000100
00000000
,
00001000
00000010
00001000
00000010
10000000
00010000
10000000
00010000
,
00000100
00001100
10000000
10010000
,
00000100
00010000
00100000
00010000
,
01000010
00010001
10010000
00000000
,
00010000
01000000
00010000
01000000
00000001
00010000
00000001
00010000
,
00100000
00001000
00101000
00000000
00000001
00000000
00010001
00000000
,
10000000
00001000
00000001
00001000
,
00100100
00100100
00100100
00100100
00000000
00000000
00010000
00000000
,
00100100
00000000
00000010
01000000
00000001
00000000
00000001
00000000
,
01000000
01000010
00000010
01000010
,
00001000
00000100
00000010
00000001
,
00100000
00100000
00000000
00000000
00000100
00000100
00000000
00000000
,
00001000
00010000
00000010
01000000
,
00010000
10000100
00010000
00100001
,
00000100
00100000
00000010
01000000
00000001
10000000
00000000
00000000
,
00100100
00100100
00100100
00100100
00000000
00000000
00010000
00000000
,
00100100
00000000
01000000
00000010
10000000
00000000
10000000
00000000
,
00000010
01000010
01000000
01000010
,
00001000
00100000
01000000
10000000
,
00000001
00000000
10000000
00000000
10000000
00000001
00000000
00000000
,
00000100
01000000
00000010
10000000
,
00001100
00000100
00000010
10000000
,
00101000
00100000
01000000
00000001
,
00010001
00000001
10010000
10000000
,
10000100
01000010
00100001
01000010
,
00000100
00001000
00000000
00000000
10000000
00010000
00000000
00000000
,
00100000
00001000
00000000
00000000
00000001
00010000
00000000
00000000
,
00001000
00010000
00001000
00010000
,
00100100
00001000
00010000
10000001
,
00100000
00010000
00000000
00000000
00000001
00001000
00000000
00000000
,
00000100
00010000
00000000
00000000
10000000
00001000
00000000
00000000
,
00000010
01000000
00000010
01000000
,
01000010
00000100
00100000
00100100
,
00001000
00000000
00010000
00000000
00000100
00001000
00000010
00001000
,
00100100
00100000
00100000
00100000
,
00001000
00000000
00010000
00000000
00100000
00001000
01000000
00001000
,
00100100
00000100
00000100
00000100
,
00000001
00000000
10000000
00000000
00001000
01000000
00010000
01000000
,
00100100
00000010
00010000
10000000
,
10000000
00000000
00000010
00000000
00001000
00000010
00010000
00000010
,
00001100
10000000
00010000
00000001
,
00010000
01000000
00001000
00000010
,
01000010
00000000
00000000
00000000
;

//---------------techno-single8 - ----------------
#NOTES:
     techno-single8:
     :
     Hard:
     10:
     0.567,0.567,0.285,0.000,0.000: // measure 1
00000000
00000000
00000000
00000000
,  // measure 2
00001000
00000000
00000010
10000000
00000001
00000000
10000000
00000000
,  // measure 3
00001000
00000000
01000000
00000001
10000000
00000000
00000001
00000000
,  // measure 4
00000100
00000000
00100000
00000100
01000000
00000000
00000010
00000000
,  // measure 5
00100000
00000000
00000000
01000000
00000010
00000000
00000000
00000000
,  // measure 6
00001000
00100000
00000100
00100000
00000100
00001000
00010000
00001000
,  // measure 7
00100000
00000100
00100000
00000100
00010000
10000000
00000001
00010000
,  // measure 8
10000000
00010000
00001000
00000010
01000000
00001000
00010000
00000010
,  // measure 9
00000010
00001000
01000000
00010000
00000001
00010000
00000000
00001000
,  // measure 10
00010000
00000001
10000000
00000001
10000000
00010000
00001000
00010000
,  // measure 11
00000001
10000000
00000001
10000000
00001000
00000100
00100000
00001000
,  // measure 12
00000100
00001000
00010000
01000000
00000010
00010000
00001000
01000000
,  // measure 13
00000100
00000100
10000000
10000000
00100000
00100000
00000001
00000000
,  // measure 14
00000100
00100000
00001000
00010000
00000010
00000001
00000000
10000000
,  // measure 15
00000010
00010000
01000000
00010000
00000001
00010000
00000001
00010000
,  // measure 16
10000000
00010000
10000000
00010000
00000100
00001000
00000100
00001000
,  // measure 17
00100000
00001000
00100000
00001000
00000001
00000001
00100000
00000100
,  // measure 18
00100000
00000100
00001000
00010000
01000000
10000000
00000010
00000001
,  // measure 19
01000000
00010000
00000010
00010000
10000000
00010000
10000000
00010000
,  // measure 20
00000001
00010000
00000001
00010000
00001000
00000010
00010000
01000000
,  // measure 21
10000000
00000001
00000010
00000100
00001000
10000000
01000000
00000000
,  // measure 22
00000100
00100000
00001000
00000000
00000001
10000000
00010000
00000000
,  // measure 23
00100100
00100100
10000001
10000001
,  // measure 24
00000101
00000001
00001001
00000001
00100001
00000001
01000001
00000000
,  // measure 25
00000101
00000101
10100000
10100000
,  // measure 26
00000101
00000100
00010100
00000100
10000100
00000100
01000100
00000000
,  // measure 27
00001000
00000100
00100000
00000010
01000000
00000001
10000000
00001000
,  // measure 28
00010000
10000000
00000001
01000000
00000010
00100000
00000100
00001000
,  // measure 29
00000001
10000000
01000000
00100000
00010000
00000001
00000010
00000000
,  // measure 30
10000000
00000001
00010000
00000000
00100000
00000100
00010000
00000000
,  // measure 31
10000001
10000001
00100100
00100100
,  // measure 32
00100000
00001000
00000100
00000010
,  // measure 33
10100000
10100000
00000101
00000101
,  // measure 34
00000000
00000000
00000000
00000000
,  // measure 35
10000100
00100000
00000100
00100000
10000000
00100000
00000100
00100000
,  // measure 36
00100001
00000100
00000001
00000100
00100000
00000100
00000001
00000100
,  // measure 37
10000100
00100000
10000000
00100000
00000100
00100000
10000000
00100000
,  // measure 38
00100001
00000100
01000000
00000100
00000001
00000100
00100000
00000100
,  // measure 39
00001000
00010000
00001000
00010000
00000100
00100000
00000010
01000000
,  // measure 40
00000001
10000000
00001000
00000010
00000010
00100000
00100000
00010000
,  // measure 41
00000001
00100000
00000001
00000001
01000000
00001000
00000010
00010000
,  // measure 42
10000000
00000001
10000000
00000010
01000000
00010000
00001000
00000010
,  // measure 43
00010000
00001000
00010000
00001000
10000000
00000001
01000000
00000010
,  // measure 44
00100000
00000100
00010000
01000000
01000000
00000010
00000010
00010000
,  // measure 45
10000000
00000100
10000000
10000000
00000010
00001000
01000000
00010000
,  // measure 46
00000001
10000000
00000001
01000000
00000010
00001000
00010000
01000000
,  // measure 47
00000100
00001000
00000100
00001000
00000100
00100000
00000100
00100000
,  // measure 48
00000100
00100000
00000010
01000000
00010000
00001000
01000000
00000010
,  // measure 49
00100000
00001000
00100000
00001000
00100000
00000100
00100000
00000100
,  // measure 50
00100000
00000100
01000000
00000010
00010000
00001000
00000010
00000000
,  // measure 51
10000000
00000100
10000000
00000100
00001000
00000100
01000000
00000001
,  // measure 52
10000000
10000000
00000100
00000100
10000000
10000000
00000100
00000100
,  // measure 53
00000001
00100000
00000001
00100000
00000100
00100000
00000010
10000000
,  // measure 54
00000001
00000001
00100000
00100000
00000001
00000001
00100000
00100000
,  // measure 55
00000100
00100000
10000000
00000001
,  // measure 56
01000010
00000000
00000000
00000000
;
