#TITLE:Vacuum Cleaner;
#SUBTITLE:;
#ARTIST:Doin;
#TITLETRANSLIT:;
#SUBTITLETRANSLIT:;
#ARTISTTRANSLIT:;
#GENRE:;
#CREDIT:TaroNuke;
#BANNER:bn.png;
#BACKGROUND:bg.png;
#LYRICSPATH:;
#CDTITLE:;
#MUSIC:Vacuum Cleaner.ogg;
#OFFSET:-0.279;
#SAMPLESTART:48.018;
#SAMPLELENGTH:16.040;
#SELECTABLE:YES;
#DISPLAYBPM:222.000;
#BPMS:0.000=222.220
,474.500=242.420
,476.000=222.220
,522.500=242.220
,524.000=222.220
;
#STOPS:224.000=0.135
;
#BGCHANGES:;
#KEYSOUNDS:;
#ATTACKS:;

//---------------dance-single - TaroNuke----------------
#NOTES:
     dance-single:
     TaroNuke:
     Challenge:
     17:
     1.000,1.000,0.871,0.350,1.000,1178.000,132.000,53.000,27.000,8.000,15.000,1.000,1.000,0.871,0.350,1.000,1178.000,132.000,53.000,27.000,8.000,15.000: // measure 0
0000
0000
0000
0000
,  // measure 1
0000
0000
0000
0000
,  // measure 2
2002
0000
0000
0000
,  // measure 3
0000
0000
0000
0000
,  // measure 4
0000
0000
0000
0000
,  // measure 5
0000
0000
3003
0000
,  // measure 6
2002
3003
0000
0000
0000
0000
0000
0000
0000
0000
0000
0000
2002
0000
3003
0000
0000
0000
0000
0000
0000
0000
0000
0000
2002
0000
0000
3003
0000
0000
0000
0000
0000
0000
0000
0000
2002
0000
0000
0000
3003
0000
0000
0000
0000
0000
0000
0000
,  // measure 7
2002
0000
0000
0000
0000
3003
0000
0000
0000
0000
0000
0000
2002
0000
0000
0000
0000
0000
3003
0000
0000
0000
0000
0000
2002
0000
0000
0000
0000
0000
0000
3003
0000
0000
0000
0000
2000
0000
0000
0000
0000
0000
0000
0000
0000
0000
0000
0000
,  // measure 8
3001
0000
0100
0000
0010
0000
0100
0000
0001
0000
1000
0000
0001
1000
0001
0000
,  // measure 9
1001
0000
0000
0011
0000
0000
1100
0000
,  // measure 10
1001
1000
0010
0100
0001
0100
0010
1000
,  // measure 11
0001
0000
0100
0010
0000
0100
0010
0000
1000
0000
0001
0000
1000
0010
1000
0010
,  // measure 12
1000
0000
0100
0000
0010
0000
0001
0000
0100
0000
0010
0000
0100
0001
0100
0000
,  // measure 13
0101
0000
0000
1010
0000
0000
0110
0000
,  // measure 14
2001
3000
0000
0000
0001
0000
0100
0000
0001
0000
0100
0000
0010
0100
0010
0100
,  // measure 15
0001
1000
0100
0010
0001
0010
0100
1000
0010
0100
0010
1000
0001
0010
0001
1000
,  // measure 16
0001
0000
0000
0000
,  // measure 17
1100
0000
0000
0011
0000
0000
1100
0000
,  // measure 18
1001
0000
0000
0000
1000
0000
0001
0000
0100
0000
0010
0000
1000
0001
1000
0001
,  // measure 19
0100
0000
0010
0100
0000
0010
0100
0000
0001
0000
1000
0000
1000
0000
0000
0000
,  // measure 20
0001
0000
1000
0000
0001
0000
0100
0000
0001
0100
0001
0100
0010
0100
0010
0100
,  // measure 21
0001
0000
0000
1010
0000
0000
0101
0000
,  // measure 22
1001
0000
0000
0000
1000
0000
0010
0000
1000
0010
1000
0010
1000
0010
1000
0010
,  // measure 23
1000
0010
0100
0001
0100
0010
1000
0100
0010
0001
0010
0100
1000
0001
0010
0001
,  // measure 24
1000
0000
1100
0000
1100
0000
0101
1001
,  // measure 25
0101
0000
1100
0000
1100
0000
1010
0101
,  // measure 26
0000
0000
0011
1100
1100
0000
0101
1001
,  // measure 27
0101
0000
1100
0000
0101
0000
1100
0110
,  // measure 28
0000
0011
0000
1010
1100
0000
1010
1100
,  // measure 29
1100
0101
1010
0101
,  // measure 30
1102
0003
2010
3000
1201
0300
1021
0030
,  // measure 31
0112
0003
1120
0030
0211
0300
4010
0000
,  // measure 32
3010
0100
0010
0100
0001
1000
0001
0100
,  // measure 33
0010
1000
0100
1000
0010
0100
0001
0010
,  // measure 34
0001
1000
0100
1000
0001
0010
0001
1000
,  // measure 35
0010
0000
1000
0000
0100
0000
0000
0000
0100
0000
0000
0000
0010
0000
0001
0010
,  // measure 36
0001
1000
0010
1000
0001
0100
0001
1000
,  // measure 37
0100
0010
0001
0100
0010
1000
0001
1000
,  // measure 38
0010
0010
0100
0010
1000
0100
0010
0001
,  // measure 39
1000
0001
0100
0100
0001
0001
0001
0001
,  // measure 40
1000
0100
0010
0100
1000
0000
0001
0000
1000
0010
0100
0010
1000
0000
0001
0000
,  // measure 41
1000
0100
0010
0100
1000
0000
0001
0000
1000
0010
0100
0010
1000
0000
0001
0000
,  // measure 42
1000
0001
0010
0001
1000
0000
0100
0000
1000
0001
0100
0001
1000
0000
0010
0000
,  // measure 43
1000
0001
0010
0001
1000
0000
0100
0000
1000
0001
0100
0001
1000
0000
0010
0000
,  // measure 44
0100
0001
0100
0001
1000
0010
1000
0010
,  // measure 45
0100
0010
0100
0010
1000
0001
1000
0001
,  // measure 46
0100
0001
0100
0001
0010
0001
0010
0001
0100
0010
0100
0010
1000
0100
1000
0100
,  // measure 47
1000
0010
1000
0010
0100
0001
0100
0001
1000
0000
1000
0000
1000
0000
1000
0000
,  // measure 48
1001
1000
0001
0100
0101
0001
0100
0010
,  // measure 49
0110
0100
0010
1000
1010
1000
0010
0100
,  // measure 50
0110
0100
0001
0010
0011
0001
1000
0010
,  // measure 51
1010
1000
0010
0100
0110
0100
0001
0100
,  // measure 52
0101
0001
0101
0100
0110
0110
0000
0000
,  // measure 53
1010
0000
1000
1001
0000
0001
0101
0000
,  // measure 54
0110
0110
0000
0010
1010
0000
1000
1001
,  // measure 55
0000
0001
0101
0000
1010
0000
0110
0000
,  // measure 56
0201
0000
0300
0000
1000
0100
0010
0001
0010
0100
1000
0010
0100
0001
0100
0001
,  // measure 57
0010
0001
0010
0001
1000
0010
0100
0001
0100
0010
1000
0100
0010
0001
0010
0001
,  // measure 58
0100
0001
0100
0001
1000
0001
0010
0100
1000
0100
0010
0001
1000
0001
1000
0001
,  // measure 59
0100
0010
0100
0010
1000
0001
0100
0010
1000
0010
0100
0001
1000
0010
1000
0010
,  // measure 60
0100
0010
0100
0010
1000
0001
0100
0001
1000
0001
0100
0001
1000
0010
0100
0010
,  // measure 61
1000
0010
0100
0010
1000
0100
0010
0100
1000
0100
0010
0100
1000
0100
0010
0001
,  // measure 62
0100
0010
1000
0001
1000
0010
0100
0001
0010
0100
1000
0100
1000
0100
0010
0001
,  // measure 63
0010
0001
1000
0100
0010
0001
0100
0001
1000
0001
0100
0001
0010
0001
0100
0001
,  // measure 64
2000
0000
0000
0000
3001
0100
0010
0100
0001
0000
1000
0000
0001
0010
0100
0010
,  // measure 65
0001
0000
1000
0000
0001
1000
0100
1000
0001
0000
1000
0000
0001
1000
0010
1000
,  // measure 66
0001
0000
1000
0000
0001
0010
0100
1000
0001
0000
0100
0000
0001
0100
0010
1000
,  // measure 67
0001
0000
0010
0000
0001
1000
0010
0100
0001
0000
1000
0000
0001
1000
0100
0010
,  // measure 68
0001
0000
4000
0000
000M
0000
0000
0000
3001
0100
0010
0100
0001
0100
0010
0100
,  // measure 69
0010
1000
0010
0100
0010
1000
0010
0100
0001
0010
0100
1000
0001
0010
0100
1000
,  // measure 70
0001
1000
0100
1000
0001
1000
0100
1000
0001
0010
0100
0010
0001
0010
0100
0010
,  // measure 71
0001
0100
0010
1000
0001
0100
0010
1000
0100
0010
0100
1000
0100
0010
0100
1000
,  // measure 72
0001
0100
0010
0100
0011
1000
0011
1000
0011
0100
0010
1000
0100
0010
0001
0010
,  // measure 73
0001
0000
0000
0000
1100
0010
1100
0010
1100
0001
0010
0100
1000
0100
0010
0001
,  // measure 74
1000
0000
0000
0000
1010
0001
1010
0001
1010
0001
0100
0010
1000
0010
0100
0001
,  // measure 75
1000
0000
0000
0000
0101
0010
0101
0010
0101
1000
0010
0100
0001
0100
0010
1000
,  // measure 76
0001
4000
000M
0000
3002
0023
0230
2300
,  // measure 77
3020
0230
0302
0023
0230
2300
3002
0023
,  // measure 78
0230
2300
3004
0000
4003
0000
3040
0000
,  // measure 79
0430
0340
4030
3004
,  // measure 80
0000
0000
1003
0100
0010
0001
0100
0010
,  // measure 81
0100
M00M
0100
0000
1000
0000
0010
0000
0100
0000
0001
0000
0010
0000
0100
0000
,  // measure 82
0010
M00M
0010
0000
1000
0000
0100
0000
0010
0000
0001
0000
0100
0000
0010
0000
,  // measure 83
0100
M00M
0100
0000
1000
0000
0010
0000
0100
0000
0001
0000
0010
0000
0100
0000
,  // measure 84
0010
M00M
0010
0000
1000
0000
0000
0000
1000
0000
0010
0000
0000
0000
0010
0000
,  // measure 85
0100
0000
0100
0001
0000
0001
1000
0000
,  // measure 86
1000
0100
0000
0010
0001
0000
0100
0010
,  // measure 87
0000
1000
0001
0000
0101
0000
1010
0000
,  // measure 88
0101
2000
0200
0020
,  // measure 89
000M
000M
000M
000M
,  // measure 90
000M
000M
000M
000M
,  // measure 91
000M
000M
000M
000M
,  // measure 92
000M
000M
333M
1000
,  // measure 93
0000
1000
0001
0100
0000
0000
0100
0001
,  // measure 94
0000
0000
0000
0000
1000
0000
0001
0100
0001
0000
0000
0000
0100
0010
0100
0010
,  // measure 95
0100
0010
0100
0010
0100
0010
0100
0010
0100
0010
0100
0010
0100
0010
0100
0010
,  // measure 96
0100
0000
0000
0010
0000
0000
0100
0000
0000
0010
0000
0000
0100
0000
0010
0000
0100
0000
0010
0000
0100
0000
0010
0000
0100
0000
0010
0000
0100
0000
0010
0000
0100
0000
0010
0000
0100
0000
0000
0000
0000
0000
0000
0000
0000
0000
0000
0000
,  // measure 97
0001
1000
0001
0000
1100
0000
0101
0000
,  // measure 98
1000
0100
0010
0100
1000
0000
0110
0000
,  // measure 99
1000
0100
0010
0000
1100
0000
0101
0000
,  // measure 100
0001
0100
0010
0100
0001
4000
3001
1000
,  // measure 101
0001
1000
0010
0000
0110
0000
1001
0000
,  // measure 102
1000
0100
0010
0100
1000
0001
0100
0010
,  // measure 103
0100
0001
1000
0100
0010
0001
1000
0100
,  // measure 104
0010
0001
0010
0100
1000
0004
1003
0100
,  // measure 105
1000
0100
0010
0000
0110
0000
0101
0000
,  // measure 106
0001
1000
0100
1000
0001
0000
1000
0100
,  // measure 107
0010
0001
0100
0000
0010
1000
0100
0000
,  // measure 108
0010
0001
1000
0001
0010
0004
1003
0100
,  // measure 109
0010
0100
1000
0000
1100
0000
0011
0000
,  // measure 110
1000
0100
0010
0001
1000
0000
0010
0100
,  // measure 111
0010
0000
1000
0000
0001
0000
1000
0000
0010
0000
0000
0000
1000
0100
0010
0001
,  // measure 112
1000
0100
0010
0001
1000
0010
0100
0001
1000
0010
0100
0001
2000
0000
0000
0000
,  // measure 113
0000
3100
0200
0000
0000
0310
0020
0000
,  // measure 114
0000
0000
0001
0000
0032
0000
0000
0000
0000
0000
0000
0000
1003
0010
0100
0010
,  // measure 115
1000
0000
0001
0000
1000
0100
0010
0100
1000
0000
0001
0000
1000
0001
0010
0001
,  // measure 116
1000
0000
0001
0000
1000
0001
0100
0001
1000
0000
0001
0000
1000
0100
0010
0001
,  // measure 117
1000
0000
0010
0000
1000
0010
0100
0001
1000
0000
0100
0000
1000
0001
0100
0010
,  // measure 118
1000
0000
0001
0000
1000
0001
0010
0100
1000
0000
0004
0000
M000
0000
0000
0000
,  // measure 119
1003
0010
0100
0010
1000
0010
0100
0010
0100
0001
0100
0010
0100
0001
0100
0010
,  // measure 120
1000
0100
0010
0001
1000
0100
0010
0001
1000
0001
0010
0001
1000
0001
0010
0001
,  // measure 121
1000
0100
0010
0100
1000
0100
0010
0100
1000
0010
0100
0001
1000
0010
0100
0001
,  // measure 122
0010
0100
0010
0001
0010
0100
0010
0001
1000
0010
0100
0010
1000
0000
0100
0000
,  // measure 123
1000
0100
0010
0001
0010
0001
1000
0010
,  // measure 124
1000
0010
0100
0001
0100
0001
1000
0100
,  // measure 125
0010
0001
0100
0010
1000
0001
1000
0010
,  // measure 126
0100
0000
0001
0000
0010
0000
0100
0000
1000
0000
0000
0000
1100
0001
1100
0001
,  // measure 127
1100
0010
0100
0001
0010
0100
1000
0100
1000
0000
0000
0000
0011
0100
0011
0100
,  // measure 128
0011
1000
0100
0010
0001
0010
0100
1000
0001
0000
0000
0000
0101
1000
0101
1000
,  // measure 129
0101
1000
0010
0100
0001
0100
0010
1000
0001
0000
0000
0000
1010
0100
1010
0100
,  // measure 130
1010
0001
0100
0010
1000
0010
0100
0001
1000
0000
0004
0000
M000
0000
0000
0000
,  // measure 131
1003
0010
1000
0010
1000
0010
1000
0010
0100
0001
0100
0001
0100
0001
0100
0001
,  // measure 132
1000
0010
1000
0010
1000
0010
1000
0010
0100
0010
0100
0010
0100
0010
0100
0010
,  // measure 133
1000
0001
1000
0001
0010
0001
0010
1001
0100
1000
0100
0000
1000
0100
0010
0001
,  // measure 134
1000
0010
0100
0001
0010
0100
1000
0001
1000
0100
0010
0001
1000
0001
0000
0000
,  // measure 135
0000
0000
0000
0000
0011
1100
0011
1100
0011
1100
0011
1100
0011
2100
0000
0000
,  // measure 136
0000
0000
0000
0000
0000
3000
0000
0000
0000
2222
0000
3000
0000
0000
0000
0300
,  // measure 137
0000
0000
0000
0000
0000
0000
0000
0030
0000
0000
0000
0000
0000
0000
0000
0000
,  // measure 138
0000
0003
0000
0000
0000
0000
0000
0000
0000
0000
0000
0000
0000
0000
0000
0000
;
