#TITLE:Shape Da Future;
#SUBTITLE:;
#ARTIST:Hideki Naganuma;
#TITLETRANSLIT:;
#SUBTITLETRANSLIT:;
#ARTISTTRANSLIT:;
#GENRE:;
#CREDIT:;
#BANNER:;
#BACKGROUND:;
#LYRICSPATH:;
#CDTITLE:cdtitle.PNG;
#MUSIC:sdf.ogg;
#OFFSET:-2.000;
#SAMPLESTART:47.455;
#SAMPLELENGTH:12.000;
#SELECTABLE:YES;
#BPMS:0.000=132.000,260.000=135.000,264.000=132.000;
#STOPS:;
#BGCHANGES:;
#KEYSOUNDS:;

//---------------dance-single - Easy as Pie----------------
#NOTES:
     dance-single:
     Easy as Pie:
     Hard:
     12:
     1.000,1.000,0.500,1.000,1.000:
0000
0000
0000
0000
,
0000
0000
0000
0000
,
1000
0000
0001
0000
0100
0100
0010
0100
,
0001
0000
1000
0000
0010
0100
0010
0000
,
1000
0000
0001
0000
0010
0010
0100
0010
,
0001
0000
0000
0000
,
1000
0010
0100
0001
0010
1000
0010
0001
,
0100
0010
1000
0100
0001
0100
1000
0010
,
0100
0001
0010
1000
0010
0100
0010
0001
,
1000
0000
0001
0000
0100
0000
0001
1000
0010
1000
0001
0000
1001
0000
0000
0000
,
1000
0000
0001
0100
0000
0100
0010
0000
0010
1000
0000
1000
0001
0000
0100
0000
,
0001
0000
1000
0010
0000
0010
1000
0000
1000
0100
0000
0100
0010
0000
0001
0000
,
1000
0000
0001
0100
0000
0100
0010
0000
0010
1000
0000
1000
0001
0000
0100
0000
,
0001
0000
0010
0100
0000
1000
0100
0000
0010
0001
0000
0010
0100
0000
1000
0001
,
1000
0100
0001
0100
1000
0010
0001
0010
,
1000
0100
0001
0100
1000
0010
0001
0010
,
1000
0100
0001
0100
1000
0010
0001
0010
,
1000
0000
0000
0000
,
1000
0010
0100
0010
1000
0100
0010
0001
0100
0010
1000
0001
0100
0001
1000
0000
,
0001
0010
0100
0010
0001
1000
0100
0010
0100
1000
0001
0100
0001
0010
0001
0000
,
1000
0010
1000
0100
1000
0001
0010
0001
0100
0001
0010
0001
1000
0010
0100
0000
,
0001
0010
0100
1000
0010
0100
0010
1000
0100
0010
0001
0100
0010
1000
0001
0000
,
1000
0100
0010
0001
0010
0001
0100
0010
0100
0010
1000
0001
0100
0010
1000
0000
,
0001
0100
0010
1000
0100
1000
0001
0010
0001
0100
0010
0100
0001
1000
0010
0000
,
1000
0100
1000
0100
0010
0001
0010
0100
1000
0001
0010
0100
0010
0001
1000
0000
,
0001
0100
0001
0100
0010
1000
0100
1000
0100
1000
0010
0100
0001
1000
0001
0000
,
1000
0100
0010
0001
0100
0010
1000
0010
0100
0001
1000
0010
0100
0001
1000
0000
,
0001
0010
0100
1000
0100
1000
0001
0010
0100
1000
0001
0010
0001
1000
0100
0000
,
1000
0010
1000
0001
1000
0010
0100
0010
0100
0001
0100
0010
1000
0001
0100
0000
,
0001
0100
0010
0100
0010
0100
0001
1000
0010
1000
0010
1000
0001
0100
0010
0000
,
1000
0100
0010
0001
0010
0100
1000
0000
0001
0100
0010
1000
0010
0100
0001
0000
,
1000
0010
0100
0001
0100
0010
1000
0000
0001
0010
0100
1000
0100
0010
0001
0000
,
1000
0001
0100
0010
0100
0001
1000
0000
0001
1000
0100
0010
0100
1000
0001
0000
,
0200
0000
0000
0000
,
0302
0000
0000
0103
0000
0000
2000
0000
0000
3100
0000
0000
0002
0000
2003
0000
,
3002
0000
0000
0013
0000
0000
2000
0000
0000
3010
0000
0000
0002
0000
2003
0000
,
3002
0000
0000
0103
0000
0000
2000
0000
0000
3100
0000
0000
0002
0000
2003
0000
,
3020
0000
0000
0130
0000
0000
0020
0000
0000
0130
0000
0000
0002
0000
2003
0000
,
3001
0000
0100
0010
0100
0000
0001
1000
0001
0000
0100
0000
0010
0000
0100
0000
,
0001
0000
1000
0100
1000
0000
0001
0100
0001
0000
1000
0000
0100
0000
0010
0000
,
0001
0000
1000
0010
0100
0000
0001
1000
0010
0000
0100
0000
0010
0000
1000
0000
,
0001
0000
0010
0100
1000
0000
0001
0010
0100
0000
0010
0100
1000
0000
0001
1000
,
0001
0000
0100
0010
0100
0000
0001
1000
0001
0000
0010
0100
0010
0000
0001
1000
,
0001
0000
0100
0010
0100
0000
0001
1000
0001
0000
0010
0100
0010
0000
0001
1000
,
0001
0000
0000
0001
1000
0000
0000
1000
0010
0000
0000
0010
0100
0000
0000
0100
,
0001
0000
0000
0000
,
1000
0010
0100
0010
1000
0100
0010
0001
0100
0010
1000
0001
0100
0001
1000
0000
,
0001
0010
0100
0010
0001
1000
0100
0010
0100
1000
0001
0100
0001
0010
0001
0000
,
1000
0010
1000
0100
1000
0001
0010
0001
0100
0001
0010
0001
1000
0010
0100
0000
,
0001
0010
0100
1000
0010
0100
0010
1000
0100
0010
0001
0100
0010
1000
0001
0000
,
1000
0100
0010
0001
0010
0001
0100
0010
0100
0010
1000
0001
0100
0010
1000
0000
,
0001
0100
0010
1000
0100
1000
0001
0010
0001
0100
0010
0100
0001
1000
0010
0000
,
1000
0100
1000
0100
0010
0001
0010
0100
1000
0001
0010
0100
0010
0001
1000
0000
,
0001
0100
0001
0100
0010
1000
0100
1000
0100
1000
0010
0100
0001
1000
0001
0000
,
1000
0100
0010
0001
0100
0010
1000
0010
0100
0001
1000
0010
0100
0001
1000
0000
,
0001
0010
0100
1000
0100
1000
0001
0010
0100
1000
0001
0010
0001
1000
0100
0000
,
1000
0010
1000
0001
1000
0010
0100
0010
0100
0001
0100
0010
1000
0001
0100
0000
,
0001
0100
0010
0100
0010
0100
0001
1000
0010
1000
0010
1000
0001
0100
0010
0000
,
0100
0010
0100
0010
0100
0010
0100
0010
0100
0010
0100
0010
0100
0010
0100
0010
,
2000
0000
3000
0100
M001
0000
0000
0000
MMMM
0000
0000
0000
0000
0000
0000
0000
,
0010
0100
0010
0100
0010
0100
0010
0100
0010
0100
0010
0100
0010
0100
0010
0100
,
200M
0000
3000
0000
0000
0000
0000
0000
MMMM
0000
0000
0000
1000
0100
0010
0001
,
0100
0010
0100
0010
0100
0010
0100
0010
0100
0010
0100
0010
0100
0010
0100
0010
,
2000
0000
3000
0100
M001
0000
0000
0000
MMMM
0000
0000
0000
0001
0010
0100
1000
,
0010
0100
0010
0100
0010
0100
0010
0100
0010
0100
0010
0100
0010
0100
0010
0100
,
200M
0000
3000
0000
2000
0000
3000
0000
2MMM
0000
3000
0000
2000
0000
3000
0100
,
0001
0100
0010
0100
0001
0010
0100
1000
0010
0100
0001
1000
0010
1000
0001
0000
,
1000
0100
0010
0100
1000
0001
0010
0100
0010
0001
1000
0010
1000
0100
1000
0000
,
0001
0100
0001
0010
0001
1000
0100
1000
0010
1000
0100
1000
0001
0100
0010
1000
,
0100
0010
0001
0100
0010
0100
0001
1000
0100
0010
0001
0010
0100
1000
0001
0000
,
1000
0100
0010
0001
0010
0001
0100
0010
0100
0010
1000
0001
0100
0010
1000
0000
,
0001
0100
0010
1000
0100
1000
0001
0010
0001
0100
0010
0100
0001
1000
0010
0000
,
1000
0100
1000
0100
0010
0001
0010
0100
1000
0001
0010
0100
0010
0001
1000
0001
,
1000
0010
1000
0010
0100
0001
0010
0001
0010
0001
0100
0010
1000
0001
1000
0000
,
0020
0100
0100
0100
0100
0100
0100
0100
,
0400
0000
0000
0000
,
0330
0000
0000
0000
;

//---------------dance-single - Harder than Pie----------------
#NOTES:
     dance-single:
     Harder than Pie:
     Challenge:
     13:
     1.000,1.000,1.000,1.000,1.000:
0000
0000
0000
0000
,
0000
0000
0000
0000
,
1000
0000
0001
0000
0100
0100
0010
0100
,
0001
0000
1000
0000
0010
0100
0010
0000
,
1000
0000
0001
0000
0010
0010
0100
0010
,
0001
0000
0000
0000
,
1000
0010
0100
0001
0010
1000
0010
0001
,
0100
0010
1000
0100
0001
0100
1000
0010
,
0100
0001
0010
1000
0010
0100
0010
0001
,
1000
0000
0001
0000
0100
0000
0001
1000
0010
1000
0001
0000
1001
0000
0000
0000
,
1000
0000
0001
0100
0000
0100
0010
0000
0010
1000
0000
1000
0001
0000
0100
0000
,
0001
0000
1000
0010
0000
0010
1000
0000
1000
0100
0000
0100
0010
0000
0001
0000
,
1000
0000
0001
0100
0000
0100
0010
0000
0010
1000
0000
1000
0001
0000
0100
0000
,
0001
0000
0010
0100
0000
1000
0100
0000
0010
0001
0000
0010
0100
0000
1000
0001
,
1000
0100
0001
0100
1000
0010
0001
0010
,
1000
0100
0001
0100
1000
0010
0001
0010
,
1000
0100
0001
0100
1000
0010
0001
0010
,
1000
0000
0000
0000
,
1000
0100
0010
0001
0100
1000
0100
0001
0010
0001
0100
1000
0100
0010
1000
0000
,
0001
0010
0100
1000
0010
0001
0010
1000
0100
0010
0001
0100
1000
0100
0001
0000
,
1000
0100
0010
0001
0100
1000
0100
0010
1000
0100
0010
0001
0100
0010
0001
0000
,
1000
0100
0001
0010
1000
0010
0100
1000
0001
0010
0100
1000
0010
0100
0001
0000
,
1000
0010
0100
0001
0100
1000
0100
0001
0010
0100
1000
0010
0001
0010
1000
0000
,
0001
0100
0010
1000
0010
0001
0010
1000
0100
1000
0010
0001
0010
1000
0001
0000
,
1000
0100
0010
0001
0010
1000
0010
0100
1000
0001
0010
1000
0010
0001
0100
0000
,
1000
0100
0010
1000
0100
0010
1000
0010
0100
1000
0100
0010
0001
1000
0001
0000
,
1000
0100
0010
0001
0100
1000
0100
0001
0010
0100
1000
0010
0001
0010
1000
0100
,
0010
0001
0100
1000
0100
0001
0010
0100
1000
0100
0001
0100
1000
0010
0100
0000
,
0001
0010
0100
1000
0010
0001
0010
1000
0100
0010
0001
0100
1000
0100
0001
0010
,
0100
1000
0100
0001
0100
1000
0100
0010
0001
0010
1000
0010
0001
0100
0010
0000
,
1000
0100
0010
0100
0001
0100
0010
0100
1000
0010
0100
0010
0001
0010
0100
0010
,
1000
0100
0010
0100
0001
0100
0010
0100
1000
0010
0100
0010
0001
0010
0100
0010
,
1000
0100
0010
0100
0001
0100
0010
0100
1000
0010
0100
0010
0001
0010
0100
0010
,
2000
0000
0000
0000
,
3002
0000
0000
0103
0000
0000
2000
0000
0000
3100
0000
0000
0002
0000
2003
0000
,
3002
0000
0000
0013
0000
0000
2000
0000
0000
3010
0000
0000
0002
0000
2003
0000
,
3002
0000
0000
0103
0000
0000
2000
0000
0000
3100
0000
0000
0002
0000
2003
0000
,
3020
0000
0000
0130
0000
0000
0020
0000
0000
0130
0000
0000
0002
0000
2003
0000
,
3001
0000
0100
0010
0100
0000
0001
1000
0001
0000
0100
0000
0010
0000
0100
0000
,
0001
0000
1000
0100
1000
0000
0001
0100
0001
0000
1000
0000
0100
0000
0010
0000
,
0001
0000
1000
0010
0100
0000
0001
1000
0010
0000
0100
0000
0010
0000
1000
0000
,
0001
0000
0010
0100
1000
0000
0001
0010
0100
0000
0010
0100
1000
0000
0001
1000
,
0001
0000
0100
0010
0100
0000
0001
1000
0001
0000
0010
0100
0010
0000
0001
1000
,
0001
0000
0100
0010
0100
0000
0001
1000
0001
0000
0010
0100
0010
0000
0001
1000
,
0001
0000
0000
0001
1000
0000
0000
1000
0010
0000
0000
0010
0100
0000
0000
0100
,
0001
0000
0000
0000
,
1000
0100
0010
0001
0100
1000
0100
0001
0010
0001
0100
1000
0100
0010
1000
0000
,
0001
0010
0100
1000
0010
0001
0010
1000
0100
0010
0001
0100
1000
0100
0001
0000
,
1000
0100
0010
0001
0100
1000
0100
0010
1000
0100
0010
0001
0100
0010
0001
0000
,
1000
0100
0001
0010
1000
0010
0100
1000
0001
0010
0100
1000
0010
0100
0001
0000
,
1000
0010
0100
0001
0100
1000
0100
0001
0010
0100
1000
0010
0001
0010
1000
0000
,
0001
0100
0010
1000
0010
0001
0010
1000
0100
1000
0010
0001
0010
1000
0001
0000
,
1000
0100
0010
0001
0010
1000
0010
0100
1000
0001
0010
1000
0010
0001
0100
0000
,
1000
0100
0010
1000
0100
0010
1000
0010
0100
1000
0100
0010
0001
1000
0001
0000
,
1000
0100
0010
0001
0100
1000
0100
0001
0010
0100
1000
0010
0001
0010
1000
0100
,
0010
0001
0100
1000
0100
0001
0010
0100
1000
0100
0001
0100
1000
0010
0100
0000
,
0001
0010
0100
1000
0010
0001
0010
1000
0100
0010
0001
0100
1000
0100
0001
0010
,
0100
1000
0100
0001
0100
1000
0100
0010
0001
0010
1000
0010
0001
0100
0010
0000
,
0100
0010
0100
0010
0100
0010
0100
0010
0100
0010
0100
0010
0100
0010
0100
0010
,
2000
0000
3000
0100
M001
0000
0000
0000
MMMM
0000
0000
0000
1001
0000
0000
0000
,
0010
0100
0010
0100
0010
0100
0010
0100
0010
0100
0010
0100
0010
0100
0010
0100
,
200M
0000
3000
0000
0000
0000
0000
0000
MMMM
0000
0000
0000
1000
0100
0010
0001
,
0100
0010
0100
0010
0100
0010
0100
0010
0100
0010
0100
0010
0100
0010
0100
0010
,
2000
0000
3000
0100
M001
0000
0000
0000
MMMM
0000
0000
0000
0001
0010
0100
1000
,
0010
0100
0010
0100
0010
0100
0010
0100
0010
0100
0010
0100
0010
0100
0010
0100
,
200M
0000
3000
0000
2000
0000
3000
0000
2MMM
0000
3000
0000
2000
0000
3000
0100
,
0001
0010
0100
1000
0010
0001
0010
1000
0100
1000
0010
0001
0010
0100
0001
0000
,
1000
0100
0010
0001
0100
1000
0100
0001
0010
0100
1000
0010
0001
0010
1000
0000
,
0001
0010
0100
1000
0010
0001
0010
0100
0001
0010
0100
1000
0010
0100
1000
0000
,
0001
0010
1000
0100
0001
0100
0010
0001
1000
0100
0010
0001
0100
0010
1000
0000
,
0001
0100
0010
1000
0010
0001
0010
1000
0100
0010
0001
0100
1000
0100
0001
0000
,
1000
0010
0100
0001
0100
1000
0100
0001
0010
0001
0100
1000
0100
0001
1000
0000
,
0001
0010
0100
1000
0100
0001
0100
0010
0001
1000
0100
0001
0100
1000
0010
0000
,
1000
0010
0001
0010
1000
0100
0001
0100
1000
0010
0001
0010
1000
0100
0001
0100
,
0020
0100
0100
0100
0100
0100
0100
0100
,
0400
0000
0000
0000
,
0330
0000
0000
0000
;
