#TITLE:Ride on Goat;
#SUBTITLE:;
#ARTIST:m11dy;
#TITLETRANSLIT:;
#SUBTITLETRANSLIT:;
#ARTISTTRANSLIT:;
#GENRE:;
#CREDIT:TaroNuke;
#BANNER:rog-bn.png;
#BACKGROUND:rog-bg.png;
#LYRICSPATH:;
#CDTITLE:;
#MUSIC:rog.ogg;
#OFFSET:-0.363;
#SAMPLESTART:70.895;
#SAMPLELENGTH:15.000;
#SELECTABLE:YES;
#DISPLAYBPM:330.000;
#BPMS:0.000=330.000;
#STOPS:;
#BGCHANGES:;
#KEYSOUNDS:;

//---------------dance-single - ----------------
#NOTES:
     dance-single:
     :
     Challenge:
     11:
     0.920,1.000,0.678,0.119,0.038:
0000
0000
0000
0000
,
0000
0000
0000
0000
,
0000
0000
0000
0000
,
1000
0100
0010
0001
,
1000
0010
0100
0001
,
1000
0100
0010
0001
,
1000
0100
0000
0010
0000
0100
1000
0000
,
0001
0010
0100
1000
,
0001
0100
0010
1000
,
0001
0010
0100
1000
,
0001
0010
0000
0100
0000
0010
0001
1000
,
0001
0100
0001
0100
0001
0000
1000
0100
,
1000
0100
0000
0010
0000
0001
0010
0000
,
0001
0100
0001
0100
0001
0000
1000
0010
,
1000
0010
0000
0100
0000
0001
0100
0000
,
0001
0010
0100
1000
,
0001
0100
0010
1000
0010
0100
0010
1000
,
0001
0000
0000
0001
0000
0000
0001
0000
,
0000
1001
1001
0000
,
0001
0010
0100
1000
,
0001
0100
0010
1000
,
0001
0010
0100
1000
,
0001
0010
0000
0100
0000
0010
0001
0000
,
1000
0100
0010
0001
,
1000
0010
0100
0001
,
1000
0100
0010
0001
,
1000
0100
0000
0010
0000
0100
1000
0001
,
1000
0010
1000
0010
1000
0000
0001
0010
,
0001
0010
0000
0100
0000
1000
0100
0000
,
1000
0010
1000
0010
1000
0000
0001
0100
,
0001
0100
0000
0010
0000
1000
0100
0000
,
1000
0100
0010
0001
,
1000
0010
0100
0001
0100
0010
0100
0001
,
1000
0000
0000
1000
0000
0000
1000
0000
,
0000
1001
1001
0000
,
1100
0000
1010
0000
,
1100
0000
1010
0000
,
0101
0000
0011
0000
,
0101
0000
0011
0000
,
1100
0000
1010
0000
,
1100
0000
1010
0000
,
0101
0000
0011
0000
,
0101
0000
0011
0000
,
2100
0000
0010
0000
,
0100
0000
3010
0000
,
0102
0000
0010
0000
,
0100
0000
0000
0000
0010
0000
0000
0003
,
2100
0000
0010
0000
,
0100
0000
3010
0000
,
1000
0100
0010
0001
0100
0010
1000
0010
,
0100
0001
0010
0100
1000
0010
0100
0001
,
1000
0100
0010
0001
,
1000
0010
0100
0001
,
1000
0100
0010
0001
,
1000
0100
0000
0010
0000
0100
1000
0000
,
0001
0010
0100
1000
,
0001
0100
0010
1000
,
0001
0010
0100
1000
,
0001
0010
0000
0100
0000
0010
0001
1000
,
0001
0100
0001
0100
0001
0000
1000
0100
,
1000
0100
0000
0010
0000
0001
0010
0000
,
0001
0100
0001
0100
0001
0000
1000
0010
,
1000
0010
0000
0100
0000
0001
0010
0000
,
0001
0010
0100
1000
,
0001
0100
0010
1000
0010
0100
0010
1000
,
0001
0000
0000
0001
0000
0000
0001
0000
,
0000
1001
1001
0000
,
0001
0010
0100
1000
,
0001
0100
0010
1000
,
0001
0010
0100
1000
,
0001
0010
0000
0100
0000
0010
0001
0000
,
1000
0100
0010
0001
,
1000
0010
0100
0001
,
1000
0100
0010
0001
,
1000
0100
0000
0010
0000
0100
1000
0001
,
1000
0010
1000
0010
1000
0000
0001
0010
,
0001
0010
0000
0100
0000
1000
0100
0000
,
1000
0010
1000
0010
1000
0000
0001
0100
,
0001
0100
0000
0010
0000
1000
0100
0000
,
1000
0100
0010
0001
,
1000
0010
0100
0001
0100
0010
0100
0001
,
1000
0000
0000
1000
0000
0000
1000
0000
,
0000
1001
1001
0000
,
1100
0000
1010
0000
,
1100
0000
1010
0000
,
0101
0000
0011
0000
,
0101
0000
0011
0000
,
1100
0000
1010
0000
,
1100
0000
1010
0000
,
0101
0000
0011
0000
,
0101
0000
0011
0000
,
1100
0000
1010
0000
,
1100
0000
1010
0000
,
0101
0000
0011
0000
,
0101
0000
0011
0000
,
1100
0000
1010
0000
,
1100
0000
1010
0000
,
0000
0000
0000
0000
0000
0000
0000
0000
0000
0000
0000
0000
0000
0000
0000
0000
0000
0000
0000
0000
0000
0000
0000
0000
0000
0000
0000
0000
0000
0000
0000
0000
0000
0000
0000
0000
0000
1000
0000
0000
0000
0000
0000
0000
0000
0000
0000
0000
0000
0000
0000
0000
0000
0000
0000
0000
0000
0000
0000
0000
0000
0001
0000
0000
0000
0000
0000
0000
0000
0000
0000
0000
0000
0000
0000
0000
0000
0000
0000
0000
0000
0000
0000
0000
0000
1000
0000
0000
0000
0000
0000
0000
0000
0000
0000
0000
0000
0000
0000
0000
0000
0000
0000
0000
0000
0000
0000
0001
0000
0000
0000
0000
0000
0000
0000
0000
0000
0000
0000
0000
0000
0000
0000
0000
0000
0000
0000
0000
0000
0000
0000
1000
0000
0000
0000
0000
0000
0000
0000
0000
0000
0000
0000
0000
0000
0000
0000
0000
0000
0000
0000
0000
0000
0000
0000
0001
0000
0000
0000
0000
0000
0000
0000
0000
0000
0000
0000
0000
0000
0000
0000
0000
0000
0000
0000
0000
0000
1000
0000
0000
0000
0000
0000
0000
0000
0000
0000
0000
0000
0000
0000
0000
,
0000
0000
0000
0000
0000
0000
0000
0000
0000
0000
0000
0000
0000
0000
0001
0000
0000
0000
0000
0000
0000
0000
0000
0000
0000
0000
0000
0000
0000
0000
0000
0000
0000
0000
0000
0000
0000
0000
0000
0000
0000
0000
0000
0000
0000
0000
1000
0000
0000
0000
0000
0000
0000
0000
0000
0000
0000
0000
0000
0000
0000
0000
0000
0000
0000
0000
0000
0000
0000
0000
0000
0000
0000
0000
0000
0000
0000
0000
0000
0000
0000
0000
0000
0000
0000
0000
0000
0000
0000
0000
0000
0000
0000
0000
0000
0000
0000
0000
0000
0000
0000
0000
0000
0000
0000
0000
0000
0000
0000
0000
0000
0000
0000
0000
0000
0000
0000
0000
0000
0000
0000
0000
0000
0000
0000
0000
0000
0000
0000
0000
0000
0000
0000
0000
0000
0000
0000
0000
0000
0000
0000
0000
0000
0000
0000
0000
0000
0000
0000
0000
0000
0000
0000
0000
0000
0000
0000
0000
0000
0000
0000
0000
0000
0000
0000
0000
0000
0000
0000
0000
0000
0000
0000
0000
0000
0000
0000
0000
0000
0000
0000
0000
0000
0000
0000
0000
0000
0000
0000
0000
0000
0000
,
2100
0000
0010
0000
,
0100
0000
3010
0000
,
0102
0000
0010
0000
,
0100
0000
0000
0000
0010
0000
0000
0003
,
2100
0000
0010
0000
,
0100
0000
3000
0000
,
0012
0000
0100
0000
,
0010
0000
0000
0000
0100
0000
0000
0003
,
2010
0000
0100
0000
,
0010
0000
3100
0000
,
0012
0000
0100
0000
,
0010
0000
0000
0000
0100
0000
0000
0003
,
2010
0000
0100
0000
,
0010
0000
3100
0000
,
0001
0010
0100
1000
0010
0100
0001
0100
,
0010
1000
0100
0010
0001
0100
0010
1000
,
0001
0010
0100
1000
,
0001
0100
0010
1000
,
0001
0010
0100
1000
,
0001
0010
0000
0100
0000
0010
0001
0000
,
1000
0100
0010
0001
,
1000
0010
0100
0001
,
1000
0100
0010
0001
,
1000
0100
0000
0010
0000
0100
1000
0001
,
1000
0010
1000
0010
1000
0000
0001
0010
,
0001
0010
0000
0100
0000
1000
0100
0000
,
1000
0010
1000
0010
1000
0000
0001
0100
,
0001
0100
0000
0010
0000
1000
0100
0000
,
1000
0100
0010
0001
,
1000
0010
0100
0001
,
1000
0100
0010
0001
,
1000
0010
0000
0100
0000
0010
1000
0000
,
0001
0010
0100
1000
0010
0100
0001
0100
,
0010
1000
0100
1000
,
0001
0010
0100
1000
,
0001
0010
0000
0100
0000
0010
0001
0000
,
1000
0100
0010
0001
0100
0010
1000
0010
,
0100
0001
0010
0001
,
1000
0100
0010
0001
,
1000
0100
0000
0010
0000
0100
1000
0000
,
0001
0100
0001
0100
0001
0000
1000
0100
,
1000
0100
0000
0010
0000
0001
0010
0000
,
0001
0100
0001
0100
0001
0000
1000
0010
,
1000
0010
0000
0100
0000
0001
0010
0000
,
0001
0010
0100
1000
,
0001
0100
0010
1000
0010
0100
0001
1000
,
0001
0000
0000
0011
0000
0000
1001
0000
,
0000
1001
1001
0000
,
1100
0000
0000
1010
0000
0000
1001
0000
,
0000
1001
1001
0000
,
0110
0000
0000
1001
0000
0000
0110
0000
,
0000
1001
1001
0000
,
1000
0100
0010
0001
0100
0010
1000
0010
,
0100
0001
0010
0100
1000
0010
0100
0001
,
0100
0010
1000
0100
0010
0001
0100
0010
,
1000
0010
0100
0001
0010
0100
1000
0010
,
0100
0001
0100
0010
1000
0100
0010
0001
,
0100
0010
1000
0010
0100
0001
0010
0100
,
1000
0010
0100
0001
0100
0010
1000
0100
,
0010
0001
0100
0010
2000
3020
0230
0302
,
1003
0000
0000
1001
0000
0000
1001
0000
,
0000
1001
4004
0000
,
0000
0000
0000
3003
;

//---------------dance-single - Two steps----------------
#NOTES:
     dance-single:
     Two steps:
     Edit:
     1:
     -1.000,-1.000,-1.000,-1.000,-1.000:
0000
0000
0000
0000
,
1000
0000
0000
0000
,
1000
0000
0000
0000
;
