#TITLE:PARANOIA survivor STUPiD;
#SUBTITLE:Okay, Now it's just getting ridiculous;
#ARTIST:310;
#TITLETRANSLIT:;
#SUBTITLETRANSLIT:;
#ARTISTTRANSLIT:;
#GENRE:;
#CREDIT:TaroNuke;
#BANNER:PARANOIA survivor STUPiD.png;
#BACKGROUND:PARANOIA survivor STUPiD-bg.png;
#LYRICSPATH:;
#CDTITLE:;
#MUSIC:PARANOIA survivor STUPiD.ogg;
#OFFSET:-0.045;
#SAMPLESTART:65.035;
#SAMPLELENGTH:15.000;
#SELECTABLE:YES;
#DISPLAYBPM:155.000:310.000;
#BPMS:0.000=310.021,88.000=155.171,92.000=309.989,148.000=154.551,152.000=310.342,174.000=155.620,178.000=310.075,252.000=77.586,254.000=309.925,374.000=155.171,378.000=310.150;
#STOPS:;
#BGCHANGES:418.063=PARANOIA survivor STUPiD-bg2.png=1.000=0=0=1=====,
426.250=PARANOIA survivor STUPiD-bg3.png=1.000=0=0=1=====,
434.750=PARANOIA survivor STUPiD-bg.png=1.000=0=0=1=====,
99999=-nosongbg-=1.000=0=0=0 // don't automatically add -songbackground-
;
#KEYSOUNDS:;

//---------------dance-single - Copied from----------------
#NOTES:
     dance-single:
     Copied from:
     Hard:
     13:
     1.000,1.000,0.245,0.089,0.184:
0000
0000
0000
0000
,
0000
0000
0000
0000
,
0000
0000
0000
0000
,
0000
0000
0000
0000
,
0000
0000
0000
0000
,
0000
0000
0000
0000
,
0000
0000
0000
0000
,
0000
0000
0000
0000
,
1000
0100
0001
0010
1000
0100
0010
0000
,
0001
0100
1000
0010
0001
0100
0010
0000
,
1000
0100
0001
0100
0001
0100
1000
0100
,
1000
0010
0001
0000
0001
0100
1000
0000
,
0001
0001
0000
0100
0100
0000
1000
1000
,
0000
0100
0100
0000
1000
0010
0100
1000
,
0010
1000
0100
0010
1000
0010
0001
0000
,
1000
0001
0100
1000
0010
0000
1000
0000
,
0100
0000
1001
0000
0010
0001
0010
0100
,
1000
0010
0001
0100
0000
0100
0010
1000
,
0001
0100
1000
0100
0001
1000
0100
0000
,
1100
1100
0101
0101
,
1001
0000
1001
0000
0001
0100
1000
0010
,
0100
1000
0001
1000
0000
0100
0010
0001
,
1000
0000
0000
0000
0100
0000
0000
0000
0000
0001
0000
0010
0000
0100
0000
1000
,
1000
0100
0010
0100
,
1000
0010
0100
0001
,
0001
0100
1001
0100
,
0101
0010
1100
0001
,
1000
0100
0010
0100
1000
0001
0010
0100
,
0010
0001
1000
0100
0010
0100
1000
0100
,
0010
0100
1000
0001
0000
1000
0100
0000
,
0010
0000
0001
1000
0000
0000
0000
0000
,
1000
0000
1000
0000
0001
0000
0001
0010
,
0001
0100
0001
1000
0000
0010
0100
0000
,
0001
0000
0001
0000
1000
0000
1000
0100
,
1000
0010
1000
0001
0000
0010
0100
0000
,
1001
0000
1001
0000
0010
1000
0100
0001
,
1000
0010
0001
0100
0000
0110
0000
0000
,
2002
0000
0000
3003
,
1000
0100
0010
0000
1000
0100
0010
0000
,
1000
0100
0010
0000
1000
0100
1000
0100
,
0010
0000
1000
0100
0010
0000
1000
0100
,
0010
0000
1000
0100
0010
0000
1000
0100
,
1000
0100
0010
0000
1000
0100
0010
0000
,
1000
0100
0010
0000
0010
0000
1001
0000
,
0011
0000
1100
0000
0010
1000
0010
1000
,
0010
0000
0100
0001
0100
0001
0100
0000
,
0010
1000
0001
0000
1000
0001
0100
0000
,
0001
0100
0010
0000
0100
0010
0100
0001
,
1000
0000
1000
0100
0010
0000
0001
0100
,
0010
0100
1000
0001
1000
0010
0100
0010
,
0100
0001
1000
0010
0100
0001
0100
0001
,
1000
0100
1000
0100
0001
1000
0001
1000
,
0001
0010
0001
0010
1000
0100
1000
0100
,
0001
0010
0001
0010
0001
0100
0001
0100
,
0001
1000
0001
1000
0001
0010
0001
0100
,
1000
0001
1000
0001
1000
0100
1000
0100
,
1000
0010
1000
0010
1000
0001
1000
0001
,
0100
1000
0100
1000
0100
0010
0100
0010
,
0100
0001
0100
0001
0100
1000
0100
0010
,
0001
0010
0001
1000
0001
1000
0001
0010
,
0001
0100
0001
0100
0001
1000
0001
1000
,
0010
0100
0010
0100
0010
0001
0010
0001
,
0010
1000
0010
0001
0010
0100
0010
2000
,
0002
0000
0000
3003
1000
0000
0100
0000
,
0010
0001
0100
0010
,
1000
0100
0010
0100
,
1000
0010
0100
0001
,
0000
0010
1000
0001
,
0100
0010
1000
0001
,
0100
0001
0001
1000
,
1000
1001
0000
0000
,
0000
0000
1000
1000
,
0100
0010
0001
0001
,
0010
0010
0001
0001
,
0010
0100
1000
1000
,
0100
0000
0010
0000
0001
0010
0000
0010
,
0100
0000
0100
1000
0000
1000
0100
0000
,
0010
0100
1000
0000
0000
0100
0000
0010
,
0000
0100
0010
0000
0001
0000
0010
0000
,
0100
0000
1000
0000
0100
1000
0010
0001
,
1000
0100
0001
0010
0100
0001
1000
0100
,
0001
0100
1000
0010
0001
0010
1000
0100
,
0001
0010
1000
0100
0001
0010
0001
1000
,
0100
0001
1000
0000
0001
0100
1000
0010
,
0100
0001
0010
1000
0001
0010
0100
0001
,
0010
0001
0100
1000
0010
1000
0100
0001
,
0010
1000
0100
0001
0010
1000
0010
0100
,
0001
0010
1000
0000
0201
0000
0001
0000
,
0010
0010
1000
1300
,
0100
0010
0001
0000
0021
0000
0001
0000
,
0100
0100
1000
1030
,
0100
0010
0001
0000
0100
0001
0100
0001
,
0100
0010
0100
0010
0100
1000
0100
1000
,
0100
0000
0100
0000
0100
0000
0100
0000
1000
0000
0000
0100
0000
0000
0010
0000
,
0000
0001
0000
0000
1000
0001
1000
0001
0100
0000
0010
0000
0001
0000
0010
0000
,
0100
1000
0100
0010
0001
0100
0010
1000
,
0100
1000
0010
0100
0001
0010
0001
0100
,
0010
1000
0100
1000
0010
0100
0001
0010
,
0001
0000
0100
0000
0100
0000
0100
0010
,
0100
0000
0100
0000
0100
0000
0100
0001
,
0100
0000
0100
0000
0100
0000
0100
1000
,
0100
0000
0010
0100
0010
0000
1001
0000
,
0000
0000
0000
0000
0100
0010
0100
0010
,
0000
0000
1000
0001
0000
0010
0100
0000
,
1000
0000
0000
0000
0000
0000
0000
0000
0001
0000
0000
0000
0000
0000
0000
0000
1000
0000
0000
0000
0000
0000
0000
0000
0001
0000
0000
0000
0000
0000
0000
0000
0000
0100
0000
0000
0000
0000
0000
0000
0000
0010
0000
0000
0000
0000
0000
0000
0000
0100
0000
0000
0000
0000
0000
0000
0000
0010
0000
0000
0000
0000
0000
0000
,
0000
0000
0000
0000
0000
0000
0000
0000
0000
0000
0000
0000
0000
0000
0000
0000
0000
1000
0000
0000
0000
0000
0000
0000
0000
0001
0000
0000
0000
0000
0000
0000
0000
0000
0000
0000
0000
0000
0000
0000
0000
0010
0000
0000
0000
0000
0000
0000
0000
0100
0000
0000
0000
0000
0000
0000
0000
0000
0000
0000
0000
0000
0000
0000
,
0000
1000
0000
0000
0000
0000
0000
0000
0000
0001
0000
0000
0000
0000
0000
0000
0000
1000
0000
0000
0000
0000
0000
0000
0000
0001
0000
0000
0000
0000
0000
0000
0000
0000
0000
0000
0100
0000
0000
0000
0000
0000
0000
0000
0010
0000
0000
0000
0000
0000
0000
0000
0100
0000
0000
0000
0000
0000
0000
0000
0010
0000
0000
0000
,
0000
0000
0000
0000
0000
1000
0000
0001
0000
0000
0000
0010
0000
0100
0000
0000
,
0000
1000
0000
0001
0000
1000
0000
0001
0000
0000
0000
0220
0000
0000
0000
0000
,
0000
0000
0000
0000
,
0000
0000
0330
0000
;
