#TITLE:Homu;
#SUBTITLE:;
#ARTIST:From NicoVideo;
#TITLETRANSLIT:;
#SUBTITLETRANSLIT:;
#ARTISTTRANSLIT:;
#GENRE:Viral;
#CREDIT:TaroNuke;
#BANNER:homu-bn.png;
#BACKGROUND:homu-bg.png;
#LYRICSPATH:;
#CDTITLE:;
#MUSIC:homu.mp3;
#OFFSET:-0.640;
#SAMPLESTART:44.776;
#SAMPLELENGTH:12.000;
#SELECTABLE:YES;
#BPMS:0.000=142.070;
#STOPS:;
#BGCHANGES:-4.000=homu-bg.png=1.000=0=0=1=====,
-1.500=homu.avi=1.000=1=0=0=StretchNoLoop==CrossFade==,
154.000=homu-bg.png=1.000=1=0=1===CrossFade==,
99999=-nosongbg-=1.000=0=0=0 // don't automatically add -songbackground-
;
#KEYSOUNDS:;

//---------------dance-single - H. Akemi----------------
#NOTES:
     dance-single:
     H. Akemi:
     Hard:
     8:
     0.593,0.555,0.507,0.000,0.063:
0000
0000
0000
0000
,
0000
0000
0000
0000
,
0000
0000
0000
0000
,
0000
0000
0000
0000
,
0000
0000
0000
0000
,
1000
0000
0001
0000
0100
0010
0000
0100
0001
0000
0100
0000
0010
0000
1000
0000
,
0010
0100
0001
0100
1000
0100
0001
0100
,
0010
1000
0001
0100
0001
1000
0100
1000
,
0001
0100
0010
0100
0001
1000
0001
0000
,
1000
0000
0001
0000
0100
0010
0000
0100
0001
0000
0100
0000
0010
0000
1000
0000
,
0010
0100
0001
0100
1000
0100
0001
0100
,
0010
1000
0001
0100
0001
1000
0100
1000
,
0001
0100
0010
0100
0001
1000
0001
0000
,
1100
0000
0101
0000
1000
0001
1000
0000
,
1100
0101
0001
0100
0010
1000
0010
0100
,
0110
0000
1001
0000
1000
0001
1000
0000
,
1001
0110
0100
0100
0010
0010
1000
0000
,
0011
0000
1010
0000
0001
1000
0001
0000
,
0011
1010
1000
0010
0100
0001
0100
0010
,
0110
0000
1001
0000
0001
1000
0001
0000
,
1001
0110
0010
0010
0100
0100
0001
1000
,
0001
0000
1000
0000
0010
0100
0000
0010
1000
0000
0010
0000
0100
0000
0001
0000
,
0100
0010
1000
0010
0001
0010
1000
0010
,
0100
0001
1000
0010
1000
0001
0010
0001
,
1000
0010
0100
0010
1000
0001
1000
0000
,
0001
0000
1000
0000
0010
0100
0000
0010
1000
0000
0010
0000
0100
0000
0001
0000
,
0100
0010
1000
0010
0001
0010
1000
0010
,
0100
0001
1000
0010
1000
0001
0010
0001
,
1000
0010
0100
0010
1000
0001
1000
0000
,
0011
0000
1010
0000
0001
1000
0001
0000
,
0011
1010
1000
0010
0100
0001
0100
0010
,
0110
0000
1001
0000
0001
1000
0001
0000
,
1001
0110
0010
0010
0100
0100
0001
0000
,
1100
0000
0101
0000
1000
0001
1000
0000
,
1100
0101
0001
0100
0010
1000
0010
0100
,
0110
0000
1001
0000
1000
0001
1000
0000
,
1001
0110
0100
0100
0010
0010
1000
1000
;

//---------------dance-single - H. Akemi----------------
#NOTES:
     dance-single:
     H. Akemi:
     Challenge:
     11:
     0.996,0.850,0.285,0.000,1.000:
0000
0000
0000
0000
,
0000
0000
0000
0000
,
0000
0000
0000
0000
,
0000
0000
0000
0000
,
0000
0000
0000
0000
,
1000
0000
0001
0000
0100
0010
0000
1000
0100
1000
0010
0000
0110
0000
0100
0000
,
0001
0000
0100
0001
1000
0100
1000
0001
0100
0001
1000
0010
1000
0001
0100
0010
,
1000
0000
0100
0000
0010
0100
0010
0100
1000
0010
0100
0010
1000
0001
0100
0001
,
0010
0000
0100
0010
0001
1000
0001
0100
0010
1000
0001
0000
1001
0000
1000
0000
,
0001
0000
1000
0000
0010
0100
0000
0001
0010
0001
0100
0000
0110
0000
0010
0000
,
1000
0000
0010
1000
0001
0010
0001
1000
0010
1000
0001
0100
0001
1000
0010
0100
,
0001
0000
0010
0000
0100
0010
0100
0010
0001
0100
0010
0100
0001
1000
0010
1000
,
0100
0000
0010
0100
1000
0001
1000
0010
0100
0001
1000
0000
1001
0000
1001
0000
,
1001
0000
1000
0100
0001
0000
1000
0010
0001
0100
0010
1000
0001
0100
0010
1000
,
0001
0000
0001
0000
1000
0100
0010
0100
1000
0001
0100
0010
0100
0001
1000
0000
,
1001
0000
1000
0100
0001
0000
1000
0010
0001
0001
0100
0010
1000
0100
1000
0010
,
0100
0000
0100
0001
0010
0001
1000
0001
0100
0010
0100
0001
1000
0000
0100
0000
,
1001
0000
1000
0100
0001
0000
1000
0010
0001
0100
0010
1000
0001
0100
0010
1000
,
0001
0000
0001
0000
1000
0100
0010
0100
1000
0001
0100
0010
0100
0001
1000
0000
,
1001
0000
1000
0100
0001
0000
1000
0010
0001
0001
0100
0010
1000
0100
1000
0010
,
0100
0000
0100
0001
0010
0001
1000
0001
0100
0010
0100
0001
1000
0000
0001
0000
,
1000
0000
0001
0000
0100
0010
0000
1000
0100
1000
0010
0000
0110
0000
0100
0000
,
0001
0000
0100
0001
1000
0100
1000
0001
0100
0001
1000
0010
1000
0001
0100
0010
,
1000
0000
0100
0000
0010
0100
0010
0100
1000
0010
0100
0010
1000
0001
0100
0001
,
0010
0000
0100
0010
0001
1000
0001
0100
0010
1000
0001
0000
1001
0000
1000
0000
,
0001
0000
1000
0000
0010
0100
0000
0001
0010
0001
0100
0000
0110
0000
0010
0000
,
1000
0000
0010
1000
0001
0010
0001
1000
0010
1000
0001
0100
0001
1000
0010
0100
,
0001
0000
0010
0000
0100
0010
0100
0010
0001
0100
0010
0100
0001
1000
0010
1000
,
0100
0000
0010
0100
1000
0001
1000
0010
0100
0001
1000
0000
1001
0000
1001
0000
,
1001
0000
1000
0100
0001
0000
1000
0010
0001
0100
0010
1000
0001
0100
0010
1000
,
0001
0000
0001
0000
1000
0100
0010
0100
1000
0001
0100
0010
0100
0001
1000
0000
,
1001
0000
1000
0100
0001
0000
1000
0010
0001
0001
0100
0010
1000
0100
1000
0010
,
0100
0000
0100
0001
0010
0001
1000
0001
0100
0010
0100
0001
1000
0000
0100
0000
,
1001
0000
1000
0100
0001
0000
1000
0010
0001
0100
0010
1000
0001
0100
0010
1000
,
0001
0000
0001
0000
1000
0100
0010
0100
1000
0001
0100
0010
0100
0001
1000
0000
,
1001
0000
1000
0100
0001
0000
1000
0010
0001
0001
0100
0010
1000
0100
1000
0010
,
0100
0000
0100
0001
0010
0001
1000
0001
0100
0010
0100
0001
1000
0000
0001
1000
,
0001
0000
0000
0000
;

//---------------dance-single - H. Akemi----------------
#NOTES:
     dance-single:
     H. Akemi:
     Medium:
     5:
     0.371,0.379,0.444,0.000,0.000:
0000
0000
0000
0000
,
0000
0000
0000
0000
,
0000
0000
0000
0000
,
0000
0000
0000
0000
,
0000
0000
0000
0000
,
1000
0001
0100
0010
,
0100
0001
1000
0100
,
1000
0001
0100
0010
,
0100
0001
1000
0000
,
0001
1000
0010
0100
,
0010
1000
0001
0010
,
0001
1000
0010
0100
,
0010
1000
0001
0000
,
1100
0101
1000
0001
,
1000
0001
1000
0000
0110
0000
1001
0000
,
1100
0101
1000
0001
,
1000
0100
0010
0001
0010
0100
1000
0000
,
1010
0011
1000
0001
,
1000
0001
1000
0000
0110
0000
1001
0000
,
1010
0011
1000
0001
,
1000
0001
1000
0000
0110
0000
1001
0000
,
0001
1000
0010
0100
,
0010
1000
0001
0010
,
0001
1000
0010
0100
,
0010
1000
0001
0000
,
1000
0001
0100
0010
,
0100
0001
1000
0100
,
1000
0001
0100
0010
,
0100
0001
1000
0000
,
0011
1010
0001
1000
,
0001
1000
0001
0000
0110
0000
1001
0000
,
0011
1010
0001
1000
,
0001
0010
0100
1000
0100
0010
0001
0000
,
0101
1100
0001
1000
,
0001
1000
0001
0000
0110
0000
1001
0000
,
0101
1100
0001
1000
,
0001
1000
0001
0000
0110
0000
1001
0000
;

//---------------dance-single - H. Akemi----------------
#NOTES:
     dance-single:
     H. Akemi:
     Easy:
     2:
     0.195,0.205,0.396,0.000,0.000:
0000
0000
0000
0000
,
0000
0000
0000
0000
,
0000
0000
0000
0000
,
0000
0000
0000
0000
,
0000
0000
0000
0000
,
1000
0000
0001
0000
,
1000
0000
0100
0000
,
0010
0000
0100
0000
,
0010
0000
0100
0000
,
1000
0000
0001
0000
,
1000
0000
0001
0000
,
0010
0000
0100
0000
,
0010
0000
0001
0000
,
1001
1001
0000
0000
,
1001
0000
0000
0000
,
0110
0110
0000
0000
,
0110
0000
0000
0000
,
1001
1001
0000
0000
,
1001
0000
0000
0000
,
1001
1001
0000
0000
,
0110
0000
0000
0000
,
1000
0000
0100
0000
,
0010
0000
0001
0000
,
1000
0000
1000
0000
,
0001
0000
0001
0000
,
1000
0001
1000
0000
,
0010
0100
0010
0000
,
1000
0001
1000
0000
,
0010
0100
0010
0000
,
1001
1001
0000
0000
,
0110
0000
0000
0000
,
0110
0110
0000
0000
,
1001
0000
0000
0000
,
1001
1001
0000
0000
,
0110
0000
0000
0000
,
0110
1001
0000
0000
,
0110
0000
0000
0000
,
1001
0000
0000
0000
;
