#TITLE:Future Destination [DX2];
#SUBTITLE:;
#ARTIST:Renard;
#TITLETRANSLIT:;
#SUBTITLETRANSLIT:;
#ARTISTTRANSLIT:;
#GENRE:;
#CREDIT:Mad Matt;
#BANNER:future-bn.png;
#BACKGROUND:future-bg.png;
#LYRICSPATH:;
#CDTITLE:;
#MUSIC:Future Destination.ogg;
#OFFSET:0.005;
#SAMPLESTART:38.392;
#SAMPLELENGTH:12.000;
#SELECTABLE:YES;
#DISPLAYBPM:200.000;
#BPMS:0.000=200.000;
#STOPS:;
#BGCHANGES:;
#KEYSOUNDS:;

//---------------dance-single - TaroNuke----------------
#NOTES:
     dance-single:
     TaroNuke:
     Challenge:
     12:
     0.859,1.000,0.220,0.338,0.574:
0001
0000
0000
0001
0000
0000
0001
0000
,
0000
0000
0000
0000
0000
0000
0000
0000
0000
0000
0000
0000
0000
0000
1000
0100
,
1000
0010
0100
0001
0010
0000
0001
0000
,
0000
0000
0000
0000
,
1000
0000
0000
1000
0000
0000
1000
0000
,
0000
0000
0000
0000
0000
0000
0000
0000
0000
0000
0000
0000
0000
0000
0001
0010
,
0001
0100
0010
1000
0100
0000
1000
0000
,
0000
0000
0000
0000
,
0011
0000
0000
0101
0000
0000
1001
0000
,
0000
0000
0000
0000
0000
0000
1000
0100
1000
0000
0001
0000
0100
0000
0010
1000
,
0010
0000
0100
0000
1000
0000
0100
0000
0001
0000
0010
0000
0100
0000
1000
0010
,
1000
0000
0000
0000
0101
0000
0000
0000
0000
0000
0000
0000
0000
0000
1000
0100
,
1000
0000
0000
1010
0000
0000
1001
0000
,
0000
0000
0000
0000
0000
0000
0001
0010
0001
0000
1000
0000
0010
0000
0100
0001
,
0100
0010
0001
0010
1000
0100
0040
0000
,
0000
0000
0004
0000
0000
0000
0000
0033
,
0001
0010
0000
0100
1000
0000
0100
0010
,
0000
0001
0010
0000
0100
1000
0010
0001
,
0010
1000
0000
0100
0010
0000
0001
0010
,
0000
0100
1000
0000
0001
0010
0100
1000
,
0001
0010
0000
0010
0100
0000
0100
1000
,
0000
1000
0100
0000
0010
0001
0100
1000
,
0100
0001
0000
0001
0010
0000
0010
0100
,
0000
0100
1000
0000
0001
0010
0100
1000
,
0001
0001
0000
0010
0010
0000
0100
0100
,
0000
1000
1000
0000
0001
0100
1000
0100
,
0001
0001
0000
0100
0100
0000
0010
0010
,
0000
1000
1000
0000
0001
0010
0100
1000
,
0001
0100
0000
1000
0100
0000
0001
0100
,
0000
1000
0100
0000
0001
0010
1000
0010
,
0001
0100
0000
1000
0100
0000
0001
0100
,
0000
1000
0100
0000
0001
0010
0100
1000
,
0001
0000
0010
0000
0001
0000
0010
0000
0001
0000
0100
0001
0100
0000
0010
0000
,
0100
0000
0010
0000
0100
0000
0010
1000
0010
0000
1000
0000
0010
0000
1000
0000
,
0100
0000
0010
0001
0010
0000
0001
0000
0100
0000
0001
0000
0100
0000
0010
0000
,
1000
0100
1000
0100
0010
0001
0010
0001
1000
0100
0010
0001
0010
0100
1000
0001
,
1000
0000
0010
0000
0100
0010
0100
0000
0001
0000
0010
0100
1000
0000
0100
0000
,
0020
0000
0031
0000
0020
0000
0130
0010
0001
0000
1000
0000
0100
0000
1000
0000
,
0001
0000
0010
0100
1000
0000
0100
0000
0001
0000
0100
0000
1000
0000
0001
0000
,
1000
0010
1000
0010
0100
0001
0100
0001
1000
0010
0100
0001
0100
0010
1000
0001
,
2000
0000
0000
0000
0200
3000
0000
0000
,
0002
0300
0000
0000
0020
0003
0000
0000
,
2000
0030
0000
0000
0020
3000
0000
0000
,
0200
0030
0000
0000
0002
0300
0000
0000
,
2003
0000
0000
0000
0200
3000
0000
0000
,
0002
0300
0000
0000
0020
0003
0000
0000
,
2000
3230
0302
0203
2300
3020
0230
0302
,
2003
0000
0000
0000
,
3001
0100
0010
1000
0010
0100
0001
0010
,
0100
1000
0010
0100
0001
0100
0010
1000
,
0100
0010
0001
0100
0010
1000
0001
1000
,
0000
1000
0001
0000
1000
1000
0001
0000
,
1000
0001
1000
0001
0100
0010
0100
0010
,
1000
1000
1000
1000
0001
0001
0001
0001
,
1000
0000
1000
0100
0000
0100
0010
0000
0010
0001
0000
0001
1000
0100
0010
0001
,
1000
0000
1000
0010
0000
0010
0100
0000
0100
0001
0000
0001
0010
0000
0100
1000
,
0001
0000
0001
0010
0000
0010
0100
0000
0100
1000
0000
1000
0001
0010
0100
1000
,
0001
0000
0001
0100
0000
0100
0010
1000
0010
0100
0010
1000
0001
0010
0100
1000
,
0001
0000
0001
0010
0000
0010
0100
0000
0100
1000
0000
1000
0001
0010
0100
1000
,
0001
0000
0001
0100
0000
0100
0010
0000
0010
1000
0000
1000
0100
0000
0010
0001
,
1000
0000
1000
0100
0000
0100
0010
0000
0010
0001
0000
0001
1000
0100
0010
0001
,
1000
0000
1000
0010
0000
0010
0100
0001
0100
0010
0100
0001
1000
0100
0010
0001
,
1000
0000
1000
0000
0100
0000
0100
0000
0020
0030
0000
0020
0030
0000
0020
0030
,
0001
0000
1000
0010
0000
0100
0001
0000
1000
0010
0000
0100
0001
0000
1000
0000
,
0001
0000
0001
0000
0100
0000
0100
0000
0020
0030
0000
0020
0030
0000
0020
0030
,
1000
0000
0001
0100
0000
0010
1000
0000
0001
0100
0000
0010
1000
0000
0001
0000
,
1000
0000
1000
0000
0100
0000
0100
0000
0002
0003
0000
0002
0003
0000
0002
0003
,
0100
0000
1000
0010
0000
0010
0100
0000
0100
0001
0000
0001
0010
0000
0001
0000
,
1000
0000
1000
0000
0010
0000
0010
0000
0002
0003
0000
0002
0003
0000
0002
0003
,
0010
0000
1000
0100
0000
0100
0010
0000
0010
0001
0000
0001
0100
0000
0001
0000
,
2000
0000
0000
0200
0000
0000
0020
0000
,
0030
0000
0000
0000
0000
0000
0000
0000
3300
0000
0000
0000
0000
0000
1000
0100
,
1000
0010
0100
0001
0010
0000
0001
0000
,
0000
0000
0000
0000
,
0002
0000
0000
0200
0000
0000
0020
0000
,
0030
0000
0000
0000
0000
0000
0000
0000
0303
0000
0000
0000
0000
0000
0001
0100
,
0001
0010
0100
1000
0100
0000
4000
0000
,
0000
0000
0400
0000
0000
0000
0000
3300
,
1000
0100
0001
0100
1000
0000
0001
0100
,
1000
0100
0001
0000
1000
0100
1000
0010
,
1000
0100
0010
0001
0010
0100
1000
0010
,
0100
0001
0010
0000
0000
0000
M0M0
M0M0
,
MMMM
00M0
00M0
0000
0000
0000
MMMM
000M
,
0MMM
000M
MMMM
0000
0000
0000
MMM0
000M
,
0MMM
M000
MMMM
0000
0000
0000
0MM0
00M0
,
40M4
00M0
00M0
0000
0000
0000
3003
0000
,
1000
0100
0010
0001
1000
0000
0010
0000
0100
0000
0001
0000
0010
0000
0001
0000
,
1000
0010
0100
0001
1000
0000
0001
0100
0010
1000
0001
0000
1000
0000
0010
0000
,
0100
0001
0100
0010
0100
0000
0001
0000
0010
0000
0100
0000
1000
0000
0010
0000
,
0100
0010
0100
0001
0100
0000
0001
0010
0001
0100
0001
0000
1000
0000
0010
0000
,
1000
0100
0010
0001
1000
0000
0010
0000
0100
0000
0001
0000
0010
0000
0001
0000
,
1000
0010
0100
0001
1000
0000
0001
0100
0010
1000
0001
0000
1000
0000
0010
0000
,
0100
0001
0100
0010
0100
0000
0001
0000
0010
0000
0100
0000
1000
0000
0010
0000
,
1010
0000
0000
0011
0000
0000
0101
0000
0000
1100
0000
0000
1001
0000
0000
0000
,
1000
0100
0010
0001
1000
0000
0010
0000
0100
0000
0001
0000
0010
0000
0001
0000
,
1000
0010
0100
0001
1000
0000
0001
0100
0010
1000
0001
0000
1000
0000
0010
0000
,
0100
0001
0100
0010
0100
0000
0001
0000
0010
0000
0100
0000
1000
0000
0010
0000
,
0100
0010
0100
0001
0100
0000
0001
0010
0001
0100
0001
0000
1000
0000
0010
0000
,
1000
0100
0001
0100
1000
0100
0001
0100
,
1000
0010
0001
0010
1000
0010
0001
0010
,
1000
0100
1000
0100
1000
0100
1000
0100
4000
0400
0000
0000
0000
0000
3300
0000
,
1100
0000
0000
0101
0000
0000
0011
0000
0000
1010
0000
0000
1001
0000
0000
0000
,
0101
0000
0000
1100
0000
0000
1010
0000
0000
0011
0000
0000
1001
0000
0000
0000
,
1100
0000
0000
0101
0000
0000
0011
0000
0000
1010
0000
0000
1001
0000
0000
0000
,
0220
0000
0000
0000
,
0000
0000
0000
0330
;

//---------------dance-single - TaroNuke----------------
#NOTES:
     dance-single:
     TaroNuke:
     Hard:
     10:
     0.742,0.875,0.220,0.259,0.299:
1000
0000
0000
1000
0000
0000
1000
0000
,
0000
0000
0000
0000
0000
0000
0000
0000
0000
0000
0000
0000
0000
0000
0001
0010
,
0001
0100
0010
1000
0100
0000
1000
0000
,
0000
0000
0000
0000
,
0001
0000
0000
0001
0000
0000
0001
0000
,
0000
0000
0000
0000
0000
0000
0000
0000
0000
0000
0000
0000
0000
0000
1000
0100
,
1000
0010
0100
0001
0010
0000
0001
0000
,
0000
0000
0000
0000
,
1100
0000
0000
1010
0000
0000
1001
0000
,
0000
0000
0000
0000
0000
0000
0001
0010
0001
0000
1000
0000
0010
0000
0100
0001
,
0100
0000
0010
0000
0001
0000
0010
0000
1000
0000
0100
0000
0010
0000
0001
0100
,
0001
0000
0000
0000
1010
0000
0000
0000
0000
0000
0000
0000
0000
0000
0001
0010
,
0001
0000
0000
0101
0000
0000
1001
0000
,
0000
0000
0000
0000
0000
0000
1000
0100
1000
0000
0001
0000
0100
0000
0010
1000
,
0010
0100
1000
0100
0001
0010
0400
0000
,
0000
0000
4000
0000
0000
0000
0000
3300
,
1000
0100
0000
0010
0001
0000
0010
0100
,
0000
1000
0100
0000
0010
0001
0100
1000
,
0100
0001
0000
0010
0100
0000
1000
0100
,
0000
0010
0001
0000
1000
0100
0010
0001
,
1000
0100
0000
0100
0010
0000
0010
0001
,
0000
0001
0010
0000
0100
1000
0010
0001
,
0010
1000
0000
1000
0100
0000
0100
0010
,
0000
0010
0001
0000
1000
0100
0010
0001
,
1000
1000
0000
0100
0100
0000
0010
0010
,
0000
0001
0001
0000
1000
0010
0001
0010
,
1000
1000
0000
0010
0010
0000
0100
0100
,
0000
0001
0001
0000
1000
0100
0010
0001
,
1000
0010
0000
0001
0010
0000
1000
0010
,
0000
0001
0010
0000
1000
0100
0001
0100
,
1000
0010
0000
0001
0010
0000
1000
0010
,
0000
0001
0010
0000
1000
0100
0010
0001
,
1000
0000
0100
0000
1000
0000
0100
0000
1000
0000
0010
1000
0010
0000
0100
0000
,
0010
0000
0100
0000
0010
0000
0100
0001
0100
0000
0001
0000
0100
0000
0001
0000
,
0010
0000
0100
1000
0100
0000
1000
0000
0010
0000
1000
0000
0010
0000
0100
0000
,
0001
0010
0100
1000
0100
0010
0001
1000
,
0001
0000
0100
0000
0010
0100
0010
0000
1000
0000
0100
0010
0001
0000
0010
0000
,
0200
0000
1300
0000
0200
0000
0310
0100
1000
0000
0001
0000
0010
0000
0001
0000
,
1000
0000
0100
0010
0001
0000
0010
0000
1000
0000
0010
0000
0001
0000
1000
0000
,
0001
0010
0100
1000
0100
0010
0001
1000
,
0002
0000
0023
0000
,
2030
0000
0000
0000
0020
3000
0000
0000
,
0032
0000
0203
0000
,
0320
0000
2030
0000
,
3002
0000
0203
0000
,
2300
0000
3200
0000
,
0301
0010
1000
0010
0001
0100
0010
1000
,
0002
0000
0000
0000
,
1003
0010
0100
0001
0100
0010
1000
0100
,
0010
0001
0100
0010
1000
0010
0100
0001
,
0010
0100
1000
0010
0100
0001
1000
0001
,
0000
0001
1000
0000
0001
0001
1000
0000
,
0001
1000
0001
1000
0010
0100
0010
0100
,
0001
0001
0001
0001
1000
1000
1000
1000
,
0001
0000
0000
0010
0000
0000
0100
0000
0000
1000
0000
0000
0001
0010
0100
1000
,
0001
0000
0000
0100
0000
0000
0010
0000
0000
1000
0000
0000
0100
0000
0010
0001
,
1000
0000
0000
0100
0000
0000
0010
0000
0000
0001
0000
0000
1000
0100
0010
0001
,
1000
0000
0000
0010
0000
0000
0100
0000
0000
0001
0000
0000
1000
0010
0100
0001
,
1000
0000
0000
0100
0000
0000
0010
0000
0000
0001
0000
0000
1000
0100
0010
0001
,
1000
0000
0000
0010
0000
0000
0100
0000
0000
0001
0000
0000
0010
0000
0100
1000
,
0001
0000
0000
0010
0000
0000
0100
0000
0000
1000
0000
0000
0001
0010
0100
1000
,
0001
0000
0000
0100
0000
0000
0010
0000
0000
1000
0000
0000
0001
0100
0010
1000
,
0001
0000
0001
0000
0010
0000
0010
0000
0200
0300
0000
0200
0300
0000
0200
0300
,
1000
0000
0001
0100
0000
0010
1000
0000
0001
0100
0000
0010
1000
0000
0001
0000
,
1000
0000
1000
0000
0010
0000
0010
0000
0200
0300
0000
0200
0300
0000
0200
0300
,
0001
0000
1000
0010
0000
0100
0001
0000
1000
0010
0000
0100
0001
0000
1000
0000
,
0001
0000
0001
0000
0010
0000
0010
0000
2000
3000
0000
2000
3000
0000
2000
3000
,
0010
0000
0000
0001
0000
0000
0100
0000
0000
0010
0000
0000
1000
0000
0000
0000
,
0001
0000
0001
0000
0100
0000
0100
0000
2000
3000
0000
2000
3000
0000
2000
3000
,
0100
0000
0000
0001
0000
0000
0010
0000
0000
0100
0000
0000
1000
0000
0000
0000
,
0002
0000
0000
0020
0000
0000
0133
0000
,
0000
0000
0000
0000
0000
0000
0000
0000
0000
0000
0000
0000
0000
0000
0001
0010
,
0001
0100
0010
1000
0100
0000
1000
0000
,
0000
0000
0000
0000
,
2000
0000
0000
0020
0000
0000
3130
0000
,
0000
0000
0000
0000
0000
0000
0000
0000
0000
0000
0000
0000
0000
0000
1000
0010
,
1000
0100
0010
0001
0010
0000
0004
0000
,
0000
0000
0040
0000
0000
0000
0000
0033
,
0001
0010
1000
0010
0001
0000
1000
0010
,
0001
0010
1000
0000
0001
0010
0001
0100
,
0001
0010
0100
1000
0100
0010
0001
0100
,
0010
1000
0100
0000
0000
0000
M0M0
M0M0
,
MMMM
00M0
00M0
0000
0000
0000
MMMM
000M
,
0MMM
000M
MMMM
0000
0000
0000
MMM0
000M
,
0MMM
M000
MMMM
0000
0000
0000
0MM0
00M0
,
40M4
00M0
00M0
0000
0000
0000
3003
0000
,
0001
0010
1000
0010
0001
0100
1000
0100
,
0001
0010
1000
0010
1000
0010
0001
0100
,
0001
0100
1000
0100
0001
0010
1000
0010
,
0001
0100
1000
0100
1000
0100
0001
0010
,
0001
0010
1000
0001
0100
1000
0001
0010
,
0001
0100
1000
0001
0010
1000
0001
0100
,
0001
0100
0010
1000
0010
0100
0001
0100
,
0101
0000
0000
1100
0000
0000
1010
0000
0000
0011
0000
0000
1001
0000
0000
0000
,
0001
0010
0100
1000
0010
0100
0001
0100
,
0010
1000
0100
0010
0001
0100
0010
1000
,
0010
0100
0001
0010
0100
1000
0001
0100
,
0010
1000
0001
0010
0100
1000
0100
0010
,
0001
0010
1000
0010
0001
0010
1000
0010
,
0001
0100
1000
0100
0001
0100
1000
0100
,
0001
0010
0001
0010
0001
0010
0001
0010
0004
0040
0000
0000
0000
0000
0033
0000
,
0011
0000
0000
1010
0000
0000
1100
0000
0000
0101
0000
0000
1001
0000
0000
0000
,
1010
0000
0000
0011
0000
0000
0101
0000
0000
1100
0000
0000
1001
0000
0000
0000
,
0011
0000
0000
1010
0000
0000
1100
0000
0000
0101
0000
0000
0110
0000
0000
0000
,
2002
0000
0000
0000
,
0000
0000
0000
0000
,
3003
0000
0000
0000
;

//---------------dance-single - TaroNuke----------------
#NOTES:
     dance-single:
     TaroNuke:
     Medium:
     8:
     0.537,0.667,0.079,0.197,0.047:
1000
0000
0000
0100
0000
0000
1000
0000
,
0000
0000
0000
0000
,
1000
0100
0010
0100
1000
0000
0001
0000
,
0000
0000
0000
0000
,
0001
0000
0000
0010
0000
0000
0001
0000
,
0000
0000
0000
0000
,
0001
0100
0010
0100
0001
0000
1000
0000
,
0000
0000
0000
0000
,
1100
0000
0000
1010
0000
0000
1001
0000
,
0000
0000
0000
0000
1000
0010
0100
0001
,
1000
0100
0001
0100
1000
0010
0100
0001
,
0100
0010
0000
0000
,
0011
0000
0000
0101
0000
0000
1001
0000
,
0000
0000
0000
0000
1000
0010
0100
0001
,
1000
0010
0001
0010
1000
0100
2000
0000
,
0000
0000
3000
0000
,
1000
0000
0000
0010
0000
0000
0100
0000
,
0000
0001
0000
0000
0010
0000
0001
0000
,
1000
0000
0000
0100
0000
0000
0010
0000
,
0000
0001
0000
0000
0010
0000
0001
0000
,
1000
0000
0000
0100
0000
0000
0001
0000
,
0000
0100
0000
0000
1000
0000
0001
0000
,
1000
0000
0000
0010
0000
0000
0001
0000
,
0000
0010
0000
0000
1000
0000
0001
0000
,
1000
0100
0000
1000
0100
0000
1000
0100
,
0000
1000
0100
0000
1000
0000
0001
0000
,
0010
0001
0000
0010
0001
0000
0010
0001
,
0000
0010
0001
0000
1000
0000
0001
0000
,
1000
0010
0000
1000
0010
0000
1000
0010
,
0000
1000
0010
0000
1000
0000
0001
0000
,
0100
0001
0000
0100
0001
0000
0100
0001
,
0000
0100
0001
0000
1000
0000
0001
0000
,
1000
0010
0100
0001
0100
0000
0010
0000
,
1000
0100
0010
0001
0100
0010
0100
0010
,
1000
0100
0001
0000
0001
0100
1000
0000
,
0001
0010
0100
1000
0100
0010
0001
0000
,
1000
0100
0010
0001
0100
0010
0100
0010
,
1000
0000
0001
0000
1000
0100
0010
0100
,
1000
0000
0001
0000
1000
0010
0100
0001
,
0100
0010
0100
0010
1000
0100
0010
0000
,
0002
0000
0023
0000
,
0230
0000
0320
0000
,
0032
0000
0203
0000
,
0320
0000
2030
0000
,
3002
0000
0203
0000
,
2300
0000
3200
0000
,
0302
0003
2000
3000
0002
0003
0020
0030
,
0002
0000
0000
0000
,
1003
0010
0100
0010
,
1000
0100
0010
0100
,
1000
0001
0100
0001
,
1000
0100
0001
0100
,
1000
0100
0010
0001
,
1000
0010
0100
0000
,
0001
0010
0100
1000
0001
0000
0000
0000
,
1000
0100
0010
0001
1000
0000
0000
0000
,
0001
0000
1000
0000
,
0001
0000
1000
0000
,
0001
0100
0010
1000
0001
0100
0010
0100
,
0001
0010
0100
1000
0001
0000
0000
0000
,
1000
0000
0001
0000
,
1000
0000
0001
0000
,
1000
1000
0001
0001
1000
0000
0000
0000
,
1000
0100
0010
0001
0100
0010
0100
0010
,
1000
1000
0001
0001
1000
0000
0000
0000
,
1000
0010
0100
0001
0100
0010
0100
0010
,
1000
0100
0001
0100
1000
0000
0000
0000
,
0001
0010
0100
1000
0010
0100
0010
0100
,
0001
0100
1000
0100
0001
0000
0000
0000
,
1000
0100
0010
0001
0010
0100
1000
0010
,
0001
0000
0000
0011
0000
0000
0101
0000
,
0000
0000
0000
0000
,
0001
0010
0100
1000
0001
0000
1000
0000
,
0000
0000
0000
0000
,
2000
0000
0000
0020
0000
0000
3130
0000
,
0000
0000
0000
0000
,
1000
0100
0010
0001
1000
0000
0001
0000
,
0000
0000
0000
0000
0000
0000
0MM0
M00M
,
0MM0
M00M
0MM0
0000
0000
0000
MMMM
000M
,
00M0
0M00
M000
0000
0000
0000
0MMM
M000
,
MMM0
M00M
0MM0
0000
0000
0000
MMMM
M000
,
MMM0
000M
MMM0
0000
0000
0000
M0M0
M0M0
,
MMMM
00M0
00M0
0000
0000
0000
MMMM
000M
,
0MMM
000M
MMMM
0000
0000
0000
MMM0
000M
,
0MMM
M000
MMMM
0000
0000
0000
0MM0
00M0
,
20M2
00M0
00M0
0000
0000
0000
3003
0000
,
1000
0100
0010
0001
0100
0010
0100
0010
,
1000
0010
0100
0001
0100
0010
0100
0010
,
1000
0100
0010
0001
0100
0010
1000
0010
,
0100
0001
0010
0100
1000
0100
0001
0100
,
1000
0100
0010
0001
0100
0010
0100
0010
,
1000
0010
0100
0001
0100
0010
0100
0010
,
1000
0100
0010
0001
0100
0010
1000
0010
,
0100
0000
0000
0001
0000
0000
0010
0000
0000
0100
0000
0000
1000
0000
0000
0000
,
1000
0100
0010
0001
0100
0010
0100
0010
,
1000
0010
0100
0001
0100
0010
0100
0010
,
1000
0100
0010
0001
0100
0010
1000
0010
,
0100
0001
0010
0100
1000
0100
0001
0100
,
1000
0100
1000
0100
1000
0100
1000
0100
,
1000
0100
1000
0100
1000
0100
1000
0100
,
1000
0100
1000
0100
1000
0100
1000
0100
2000
0000
0000
0000
0000
0000
0000
0000
,
3100
0000
0000
0010
0000
0000
0100
0000
0000
0010
0000
0000
0100
0000
0000
0000
,
0001
0000
0000
0100
0000
0000
0001
0000
0000
0100
0000
0000
0001
0000
0000
0000
,
1000
0000
0000
0001
0000
0000
1000
0000
0000
0001
0000
0000
1000
0000
0000
0000
,
2002
0000
0000
0000
,
0000
0000
0000
0000
,
3003
0000
0000
0000
;

//---------------dance-single - TaroNuke----------------
#NOTES:
     dance-single:
     TaroNuke:
     Easy:
     5:
     0.323,0.667,0.149,0.330,0.000:
2000
0000
0000
3000
,
0000
0000
0000
0000
,
2000
0000
0000
3000
,
0000
0000
0000
0000
,
0002
0000
0000
0003
,
0000
0000
0000
0000
,
0002
0000
0000
0003
,
0000
0000
0000
0000
,
2002
0000
0000
3003
,
0000
0000
0000
0000
,
2002
0000
0000
3003
,
0000
0000
0000
0000
,
0220
0000
0000
0330
,
0000
0000
0000
0000
,
0220
0000
0000
0000
,
0000
0000
0330
0000
,
1000
0000
0001
0000
,
1000
0000
0001
0000
,
0100
0000
0010
0000
,
1000
0000
0010
0000
,
1000
0000
0001
0000
,
1000
0000
0001
0000
,
0100
0000
0010
0000
,
1000
0000
0010
0000
,
1001
0000
0000
0000
,
0011
0000
0000
0000
,
1001
0000
0000
0000
,
1010
0000
0000
0000
,
1100
0000
1001
0000
,
1010
0000
1001
0000
,
0110
0110
1001
1001
,
1000
0001
1000
0001
1000
0001
1000
0001
,
1000
0000
0100
0000
,
0010
0000
0001
0000
,
1000
0000
0010
0000
,
0100
0000
0001
0000
,
1000
0001
1000
0001
,
0100
0010
0100
0010
,
1000
0000
0001
0000
,
1000
0000
0100
0000
,
0002
0003
0200
0300
,
2000
3000
0020
0030
,
0002
0003
0020
0030
,
2000
3000
0020
0030
,
0200
0300
0002
0003
,
2000
3000
0002
0003
,
1000
0001
0100
0010
,
1000
0000
0001
0000
,
1000
0100
1000
0100
,
0010
0000
0000
0000
,
0100
0001
0100
0001
,
0010
0000
0000
0000
,
1000
0001
1000
0001
,
1000
1000
0001
0001
,
0100
0001
0100
0001
,
0100
0010
0100
0010
,
0100
1000
0100
1000
,
0100
0010
0100
0010
,
1000
0100
1000
0100
,
0010
0100
0010
0100
,
0001
0100
0001
0100
,
0010
0100
0010
0100
,
2000
0000
3002
0000
,
0103
0010
0100
0010
,
2000
3000
0002
0003
,
0100
0010
0100
0010
,
0200
0300
0020
0030
,
1000
0001
1000
0001
,
0200
0300
0020
0030
,
1000
0001
1000
0001
,
2000
0000
0000
3000
,
0000
0000
0000
0000
,
2000
0000
0000
3000
,
0000
0000
0000
0000
,
0002
0000
0000
0003
,
0000
0000
0000
0000
,
0002
0000
0000
0003
,
0000
0000
0000
0000
0000
0000
0MM0
M00M
,
0MM0
M00M
0MM0
0000
0000
0000
MMMM
000M
,
00M0
0M00
M000
0000
0000
0000
0MMM
M000
,
MMM0
M00M
0MM0
0000
0000
0000
MMMM
M000
,
MMM0
000M
MMM0
0000
0000
0000
M0M0
M0M0
,
MMMM
00M0
00M0
0000
0000
0000
MMMM
000M
,
0MMM
000M
MMMM
0000
0000
0000
MMM0
000M
,
0MMM
M000
MMMM
0000
0000
0000
0MM0
00M0
,
00M0
00M0
00M0
0000
0002
0000
0000
0000
,
1003
0100
0010
0001
,
1000
0010
0100
0001
,
1000
0100
0001
0100
,
1000
0010
0001
0010
,
1000
0100
0010
0001
,
1000
0010
0100
0001
,
1000
0100
0001
0100
,
2000
0000
3002
0000
,
1003
0010
0100
0010
,
1000
0100
0010
0100
,
1000
0010
0100
1000
,
0100
0010
1000
0001
,
1000
0100
1000
0100
,
1000
0100
1000
0100
,
1000
0100
1000
0100
2000
0000
0000
0000
,
3100
0000
0000
0001
0000
0000
0000
0000
,
0001
0000
0000
1000
0000
0000
0000
0000
,
0110
0000
0000
1001
0000
0000
0000
0000
,
2002
0000
0000
0000
,
0000
0000
0000
0000
,
3003
0000
0000
0000
;

//---------------dance-single - ayaze----------------
#NOTES:
     dance-single:
     ayaze:
     Edit:
     14:
     1.000,1.000,0.535,0.346,0.983:
0011
0000
0000
0011
0000
0000
0011
0000
,
0000
0000
0000
0000
0000
0000
0000
0000
0000
0000
0000
0000
0000
0000
1000
0100
,
1000
0010
0100
0001
0020
0000
0032
0000
,
0000
0000
0003
0000
,
1100
0000
0000
1100
0000
0000
1100
0000
,
0000
0000
0000
0000
0000
0000
0000
0000
0000
0000
0000
0000
0000
0000
0001
0010
,
0001
0100
0010
1000
0200
0000
2300
0000
,
0000
0000
0000
3000
,
0011
0000
0000
0101
0000
0000
1001
0000
,
0000
0000
0000
0000
0000
0000
1000
0100
1000
0000
0001
0000
0100
0000
0010
1000
,
0010
0000
0100
0000
1000
0000
0100
0000
0001
0000
0010
0000
0100
0000
1000
0010
,
1000
0000
0000
0000
0202
0000
0000
0000
0303
0000
0000
0000
0000
0000
1000
0100
,
0001
0000
0000
0110
0000
0000
1100
0000
,
0000
0000
0000
0000
0000
0000
0001
0010
0001
0000
1000
0000
0100
0000
0010
0001
,
0010
0100
0001
0100
1000
0010
0200
0000
,
0000
0000
0000
0000
0000
0300
0000
0000
,
0001
0010
0000
0100
1000
0000
0100
0010
,
0000
0000
0001
0000
0010
0000
0000
0000
0100
0000
1000
0000
0010
0100
0001
0100
,
0010
1000
0000
0100
0010
0000
0001
0010
,
0000
0000
0100
0000
1000
0000
0000
0000
0001
0010
0001
0000
1000
0100
1000
0000
,
0001
0010
0000
0010
0100
0000
0100
1000
,
0000
0000
1000
0000
0100
0000
0000
0000
0010
0000
0001
0000
1000
0010
0100
0001
,
0010
0001
0000
0001
0010
0000
0010
0100
,
0000
0000
0100
0000
1000
0000
0000
0000
0001
0010
0001
0000
1000
0100
1000
0000
,
0001
0001
0000
0010
0010
0000
0100
0100
,
0000
0000
1000
0000
1000
0000
0000
0000
0001
0000
0100
0000
0010
1000
0100
1000
,
0001
0001
0000
0100
0100
0000
0010
0010
,
0000
1000
1000
0000
0001
0010
0100
1000
,
0011
0100
0000
1000
0110
0000
0001
0100
,
0000
1000
0100
0000
0001
0010
1000
0010
,
0011
0100
0011
1000
0101
0000
0001
0100
,
0000
1000
0100
0000
0001
0010
0100
1000
,
0001
0000
0010
0000
0001
0000
0010
0000
0001
0000
0100
0001
0100
0000
0010
0000
,
0100
0000
0010
0000
0100
0000
0010
1000
0010
0000
1000
0000
0010
0000
1000
0000
,
0100
0000
0010
0001
0010
0000
0001
0000
0100
0000
0001
0000
0100
0000
0010
0000
,
1000
0100
1000
0100
0010
0001
0010
0001
1000
0100
0010
0001
0010
0100
1000
0001
,
1000
0000
0010
0000
0100
0010
0100
0000
0001
0000
0010
0100
1000
0000
0100
0000
,
0020
0000
0031
0000
0020
0000
0130
0010
0001
0000
1000
0000
0100
0000
1000
0000
,
0001
0000
0010
0100
1000
0000
0100
0000
0001
0000
0100
0000
1000
0000
0001
0000
,
1000
0010
1000
0010
0100
0001
0100
0001
1000
0010
0100
0001
0100
0010
1000
0001
,
2000
3100
1000
0100
1000
0100
1000
0100
0020
0031
0010
0001
0010
0001
0010
0001
,
2000
3100
1000
0100
1000
0100
1000
0100
0020
0031
0010
0001
0010
0001
0010
0001
,
2000
3010
1000
0010
1000
0010
1000
0010
0200
0301
0100
0001
0100
0001
0100
0001
,
2000
3010
1000
0010
1000
0010
1000
0010
0200
0301
0100
0001
0100
0001
0100
0001
,
2000
3100
1000
0100
1000
0100
1000
0100
0020
0031
0010
0001
0010
0001
0010
0001
,
2000
3100
1000
0100
1000
0100
1000
0100
0020
0031
0010
0001
0010
0001
0010
0001
,
2000
3200
0302
0203
1300
0010
0100
0011
,
0000
0000
0110
0000
0000
0000
0001
0100
0010
0000
1000
0010
0100
0000
0000
0000
,
0001
0100
0010
1000
0010
0100
0001
0010
,
0100
1000
0010
0100
0001
0100
0010
1000
,
0100
0010
0001
0100
0010
1000
0001
1000
,
0000
0000
1000
0000
0001
0000
0000
0000
1000
0000
1000
0000
0001
0010
0100
0000
,
1000
0001
1000
0001
0100
0010
0100
0010
,
1000
1000
1000
1000
0001
0001
0001
0001
,
1000
0000
1000
0100
0000
0100
0010
0000
0010
0001
0000
0001
1000
0100
0010
0001
,
1000
0000
1000
0010
0000
0010
0100
0000
0100
0001
0000
0001
0010
0000
0100
1000
,
0001
0000
0001
0010
0000
0010
0100
0000
0100
1000
0000
1000
0001
0010
0100
1000
,
0001
0000
0001
0100
0000
0100
0010
1000
0010
0100
0010
1000
0001
0010
0100
1000
,
0001
0000
0001
0010
0000
0010
0100
0000
0100
1000
0000
1000
0001
0010
0100
1000
,
0001
0000
0001
0100
0000
0100
0010
0000
0010
1000
0000
1000
0100
0000
0010
0001
,
1000
0000
1000
0100
0000
0100
0010
0000
0010
0001
0000
0001
1000
0100
0010
0001
,
1000
0000
1000
0010
0000
0010
0100
0001
0100
0010
0100
0001
1000
0100
0010
0001
,
1100
0000
1100
0000
0110
0000
0110
0000
0021
0030
0000
0021
0030
0000
0021
0030
,
0001
0000
1000
0010
0000
0100
0001
0000
1000
0010
0000
0100
0001
0000
1000
0000
,
0011
0000
0011
0000
0110
0000
0110
0000
1020
0030
0000
1020
0030
0000
1020
0030
,
1000
0000
0001
0100
0000
0010
1000
0000
0001
0100
0000
0010
1000
0000
0001
0000
,
1010
0000
1010
0000
0110
0000
0110
0000
0012
0003
0000
0102
0003
0000
0012
0003
,
1000
0000
1000
0010
0000
0010
0100
0000
0100
0001
0000
0001
0010
0000
0001
0000
,
1010
0000
0110
0000
1010
0000
0110
0000
0102
0003
0000
0012
0003
0000
0102
0003
,
1000
0000
1000
0100
0000
0100
0010
0000
0010
0001
0000
0001
0100
0000
0001
0000
,
2000
0000
0000
0200
0000
0000
0020
0000
,
0030
0000
0000
0000
0000
0000
0000
0000
3300
0000
0000
0000
0000
0000
1000
0100
,
1000
0010
0100
0001
0010
0000
0001
0000
,
0000
0000
0000
0000
,
0002
0000
0000
0200
0000
0000
0020
0000
,
0030
0000
0000
0000
0000
0000
0000
0000
0303
0000
0000
0000
0000
0000
0001
0100
,
0001
0010
0100
1000
0100
0000
4000
0000
,
0000
0000
0400
0000
0000
0000
0000
3300
,
1000
0100
0001
0100
1000
0000
0001
0100
,
1000
0100
0001
0000
1000
0100
1000
0010
,
1000
0100
0010
0001
0010
0100
1000
0010
,
0100
0001
0010
0000
0000
0000
M0M0
M0M0
,
MM1M
00M0
00M0
0000
0000
0000
MMMM
000M
,
01MM
000M
MMMM
0000
0000
0000
MMM0
000M
,
01M1
M000
MMMM
0000
0000
0000
0MM0
00M0
,
40M4
00M0
00M0
0000
0000
0000
3003
0000
,
1000
0100
0010
0001
1000
0000
0010
0000
0100
0000
0001
0000
0010
0000
0001
0000
,
1000
0010
0100
0001
1000
0000
0001
0100
0010
1000
0001
0000
1000
0000
0010
0000
,
0100
0001
0100
0010
0100
0000
0001
0000
0010
0000
0100
0000
1000
0000
0010
0000
,
0100
0010
0100
0001
0100
0000
0001
0010
0001
0100
0001
0000
1000
0000
0010
0000
,
1000
0100
0010
0001
1000
0000
0010
0000
0100
0000
0001
0000
0010
0000
0001
0000
,
1000
0010
0100
0001
1000
0000
0001
0100
0010
1000
0001
0000
1000
0000
0010
0000
,
0100
0001
0100
0010
0100
0000
0001
0000
0010
0000
0100
0000
1000
0000
0010
0000
,
1010
0000
0000
0011
0000
0000
0101
0000
0000
1100
0000
0000
1001
0000
0000
0000
,
100M
01M0
100M
01M0
100M
01M0
100M
01M0
100M
01M0
100M
01M0
100M
01M0
100M
0100
,
M010
0M01
M010
0M01
M010
0M01
M010
0M01
M010
0M01
M010
0M01
M010
0M01
M010
0001
,
1000
010M
001M
010M
100M
010M
001M
010M
100M
010M
001M
010M
100M
010M
001M
M100
,
M010
M001
M010
M100
M010
M001
M010
M100
M010
M001
M010
M100
M010
M001
0010
0100
,
100M
00M0
100M
00M0
100M
00M0
100M
00M0
100M
00M0
100M
00M0
100M
00M0
1000
00M0
,
0MM1
0M00
M001
0M00
M001
0M00
M001
0M00
M001
0M00
M001
0M00
M001
0M00
M001
0000
,
1000
0000
0000
0100
0000
0000
0010
0000
0000
0001
0000
0000
1000
0000
0000
0100
0000
0000
0010
0000
0000
0001
0000
0000
1000
0000
0001
0000
1000
0000
0001
0000
1000
0000
0001
0000
1000
0000
0001
0000
1000
0000
0001
0000
0000
0000
0000
0000
,
M101
0000
0000
011M
0000
0000
1M10
0000
0000
011M
0000
0000
M100
0001
0100
0000
,
M011
0000
0000
10M1
0000
0000
110M
0000
0000
10M1
0000
0000
M011
0000
0110
0000
,
101M
0000
0000
01M1
0000
0000
0M11
0000
0000
1M10
0000
0000
10M0
0001
1M00
0001
,
M2M0
0000
0000
0000
,
0000
0000
0000
0000
,
0300
0000
0000
0000
;
