#TITLE:DEAD END;
#SUBTITLE:;
#ARTIST:N&S;
#TITLETRANSLIT:;
#SUBTITLETRANSLIT:;
#ARTISTTRANSLIT:;
#GENRE:;
#CREDIT:;
#BANNER:Re-edit Dead End.png;
#BACKGROUND:Re-edit Dead End-bg.png;
#LYRICSPATH:;
#CDTITLE:;
#MUSIC:Re-edit Dead End.mp3;
#OFFSET:-0.070;
#SAMPLESTART:11.410;
#SAMPLELENGTH:15.000;
#SELECTABLE:YES;
#DISPLAYBPM:190.000;
#BPMS:0.000=190.010;
#STOPS:;
#BGCHANGES:;
#KEYSOUNDS:; //why is the bpm 190.010

//---------------dance-single - CTRL+R----------------
#NOTES:
     dance-single:
     CTRL+R:
     Challenge:
     11:
     0.980,1.000,0.310,0.103,0.512:
0000
0000
0000
0000
,
0000
0000
0000
0000
,
0000
0000
0000
0000
,
0000
0000
0000
0000
,
2000
0000
3002
0000
,
0203
0000
0320
0000
,
1030
0100
1000
0100
0010
0001
0010
0001
,
1000
0001
1000
0001
0100
0010
0100
0010
,
2000
3001
0000
0000
,
1000
0000
0100
1000
0100
0000
1000
0000
0001
0000
0100
0001
0100
0000
0001
0000
,
1000
0000
0100
1000
0100
0000
1000
0000
0001
0000
1000
0000
0010
0000
0100
0000
,
0001
0000
0010
0001
0010
0000
0001
0000
1000
0000
0010
1000
0010
0000
1000
0000
,
0001
0000
0010
0001
0010
0000
0001
1000
0001
0000
0100
0010
0100
0000
0001
1000
,
0001
0000
0010
0100
1000
0000
0001
0000
0010
0000
0100
1000
0001
0000
0010
0000
,
0100
0000
1000
0001
0010
0000
0100
0000
1000
0000
0001
0000
0010
0000
0100
0000
,
1000
0000
0010
0100
0001
0000
1000
0000
0010
0000
0100
0001
1000
0000
0010
0000
,
0100
0000
0001
1000
0010
0000
0100
0000
0001
1000
0001
1000
0010
0100
0010
0000
,
1000
0100
1000
0100
0001
0100
0001
0100
,
1000
0010
1000
0010
0001
0010
0001
0010
,
1000
0100
0001
0100
1000
0010
0001
0010
,
1000
0100
0010
0001
0100
0010
1000
0001
,
1000
0000
0100
0010
0100
0000
1000
0000
0001
0000
0100
0010
0100
0000
0001
0000
,
1000
0000
0100
0010
0100
0000
1000
0000
0001
0000
0100
0000
0010
0000
1000
0000
,
0001
0000
0010
0100
0010
0000
0001
0000
1000
0000
0010
0100
0010
0000
1000
0000
,
0001
0000
0010
0100
0010
0000
0001
0000
1000
0000
0001
0000
0100
0000
0010
0000
,
1000
1000
0001
1000
1000
0001
1000
1000
,
1001
0000
0010
0110
0000
0001
1001
1001
,
0000
1001
0000
1000
0010
1000
0001
0100
,
0010
0000
0010
0000
0100
0000
0010
0000
0100
0000
0100
0000
0001
0100
0001
0100
,
0001
0000
1000
0100
1000
0000
0010
0000
0100
0000
0010
0000
1000
0000
0001
0100
,
0001
0000
0100
0110
0000
1000
1001
1001
,
0000
1001
0000
1000
0100
0001
0100
1000
,
1100
0000
0000
0110
0000
0000
0011
0000
1100
0000
0000
0110
0000
0000
0011
0000
,
1100
0000
0000
0110
0000
0000
0011
0000
2002
0000
0000
0000
3003
0000
0000
0000
,
1000
0100
1000
0000
0001
0010
0001
0000
1000
0100
1000
0000
0001
0010
0001
0000
,
1000
0100
1000
0000
0001
0010
0001
0000
1000
0100
1000
0000
0001
0010
0001
0000
,
1000
0010
1000
0000
0001
0100
0001
0000
1000
0010
1000
0000
0001
0100
0001
0000
,
1000
0010
1000
0000
0001
0100
0001
0000
1000
0010
1000
0010
0100
0001
0100
0001
,
1000
0100
0001
0100
1000
0010
0001
0010
,
1000
0100
0010
0100
1000
0010
0100
0010
,
1000
0001
1000
0001
1000
0001
1000
0001
1000
0001
1000
0001
1000
0001
1000
0001
,
2000
0000
3000
0000
,
1000
0000
0001
1000
0001
0000
1000
0000
0010
0000
0100
0010
0100
0000
0010
0000
,
1000
0000
0001
1000
0001
0000
1000
0000
0010
0000
0100
0000
0001
0000
1000
0000
,
0001
0000
1000
0100
1000
0000
0001
0000
1000
0000
0001
0010
0001
0000
1000
0000
,
0001
0000
1000
0010
1000
0000
0001
0000
0010
0000
0100
0000
1000
0000
0001
0000
,
1000
0000
0010
1000
0001
0000
0010
0000
0100
0000
0010
0001
1000
0000
0010
0000
,
0100
0000
0010
1000
0001
0000
0100
0000
0010
0000
0100
0000
0001
0000
1000
0000
,
0010
0100
0010
0100
0010
0000
1000
0000
0001
0010
0001
0010
0001
0000
1000
0000
,
0010
0000
0000
1000
0000
0000
0010
0000
0000
1000
0000
0000
0010
0000
0000
0000
0000
0000
0100
0000
0001
0000
0100
0000
0001
0000
0000
0000
0000
0000
1000
0000
0000
0000
0000
0000
0001
0000
0000
0000
0000
0000
0100
0000
0000
0000
0000
0000
,
0010
0010
1000
0100
0010
0010
0001
0100
,
0010
0010
1000
0001
0010
0001
1000
0010
,
0100
0100
0010
1000
0100
0100
1000
0001
,
0100
0100
0010
1000
0100
0010
0001
1000
,
0010
0010
1000
0001
0100
0100
0001
1000
,
0010
0010
1000
0010
0100
0001
1000
0001
,
0010
0010
0001
1000
0100
0010
0100
1000
,
0010
0010
1000
0001
0010
0100
1000
0001
,
0100
0100
0100
0100
0000
0100
0110
0000
,
1000
0001
1000
0001
1000
0000
0001
1000
0001
1000
0001
0000
0100
0000
0010
0000
,
0100
0100
0100
0100
0000
0010
0110
0000
,
1000
0100
0010
0001
1000
0000
0001
0010
0100
1000
0001
0000
0100
0000
0010
0000
,
0100
0000
0000
0100
0000
0000
0100
0000
0000
0100
0000
0000
0000
0000
0000
0010
0100
0010
0100
0000
0000
0000
0000
0000
,
1000
0010
0100
0001
1000
0000
0001
0100
0010
1000
0001
0000
0100
0000
0010
0000
,
0100
0000
0000
0100
0000
0000
0100
0000
0000
0100
0000
0000
0000
0000
0000
0010
0100
0010
0100
0000
0000
0000
0000
0000
,
1000
0100
1000
0010
1000
0000
0001
0100
0001
0010
0001
0000
1000
0000
1000
0000
,
0001
0000
0100
0010
0100
0000
0000
0000
0110
0000
0000
0000
1001
0000
0000
0000
,
1000
0100
0001
0100
0010
0001
1000
0100
,
0001
0100
0010
0001
1000
0100
0001
0100
,
1000
0010
0001
0010
0100
0001
1000
0010
,
0001
0010
0100
0001
1000
0010
0001
0010
,
1000
0100
1000
0010
0100
0001
0010
0001
,
0100
0010
1000
0100
1000
0010
0100
0001
,
0010
0001
0100
0010
1000
0100
0010
0001
,
1000
0010
0100
0001
0100
0010
1000
0001
,
1001
0000
0000
0110
0000
0000
1001
0000
1000
0100
1000
0000
0001
0010
0001
0000
,
0011
0000
0000
0110
0000
0000
1100
0000
2002
0000
0000
0000
0000
0000
0000
0000
,
3003
0000
0000
0000
;
