#TITLE:DAM DARIRAM;
#SUBTITLE:;
#ARTIST:JOGA;
#TITLETRANSLIT:;
#SUBTITLETRANSLIT:;
#ARTISTTRANSLIT:;
#GENRE:;
#CREDIT:;
#BANNER:DAM DARIRAM.png;
#BACKGROUND:DAM DARIRAM-bg.png;
#LYRICSPATH:;
#CDTITLE:./CDTITLES/DanceDanceRevolution X2.png;
#MUSIC:DAM DARIRAM.mp3;
#OFFSET:2.286;
#SAMPLESTART:61.080;
#SAMPLELENGTH:15.000;
#SELECTABLE:YES;
#DISPLAYBPM:142.000;
#BPMS:0.000=142.857,4.000=142.350;
#STOPS:;
#BGCHANGES:;
#KEYSOUNDS:;

//---------------dance-single - Ama-tan----------------
#NOTES:
     dance-single:
     Ama-tan:
     Beginner:
     20:
     1.000,1.000,1.000,1.000,1.000:
0000
0000
0000
0000
,
0000
0000
0000
0000
,
1000
0000
0000
0000
0100
1000
0100
1000
0100
0000
0000
0000
0010
0001
0010
0001
0010
0000
0000
0000
0100
1000
0100
1000
0100
0000
0000
0000
0010
0001
0010
0001
,
1000
0000
0000
0000
1000
0100
0010
0100
1000
0000
0000
0000
0001
0010
0100
0010
0001
0000
0000
0000
1000
0100
0010
0001
1000
0000
0000
0000
0001
0010
0100
1000
,
0001
0000
0000
0000
1000
0010
0100
0001
1000
0000
0000
0000
0001
0100
0010
1000
0001
0000
0000
0000
1000
0010
0100
0010
1000
0000
0000
0000
0001
0100
0010
0100
,
0001
0000
0000
0000
1000
0100
0010
0100
0010
0000
0000
0000
0001
0010
0100
0010
0100
0000
1000
0000
0001
0000
0100
0000
0010
0000
1000
0000
0100
0000
0010
0000
,
0001
0000
0000
0000
0010
0001
0010
0001
0010
0000
0000
0000
0100
1000
0100
1000
0100
0000
0000
0000
0010
0001
0010
0001
0010
0000
0000
0000
0100
1000
0100
1000
,
0001
0000
0000
0000
0001
0010
0100
0010
0001
0000
0000
0000
1000
0100
0010
0100
1000
0000
0000
0000
0001
0010
0100
1000
0001
0000
0000
0000
1000
0100
0010
0001
,
1000
0000
0000
0000
0001
0100
0010
1000
0001
0000
0000
0000
1000
0010
0100
0001
1000
0000
0000
0000
0001
0100
0010
0100
0001
0000
0000
0000
1000
0010
0100
0010
,
1000
0000
0000
0000
0001
0010
0100
0010
0100
0000
0000
0000
1000
0100
0010
0100
0010
0000
0001
0000
1000
0000
0010
0000
0100
0000
0001
0000
0010
0000
0100
0000
,
1100
0000
1000
1100
0000
0100
1100
0000
1000
1100
0000
0100
1001
0000
0011
0000
,
0101
0000
0001
0101
0000
0100
0101
0000
0001
0101
0000
0100
1001
0000
1010
0000
,
1100
0000
1000
1100
0000
0100
1100
0000
1000
1100
0000
0100
1001
0000
0011
0000
,
0101
0000
0001
0101
0000
0100
0101
0000
0001
0101
0000
0100
1001
0000
1010
0000
,
1100
0000
1000
1100
0000
0100
1010
0000
1000
1100
0000
0100
1001
0000
0011
0000
,
1100
0000
0001
0101
0000
0100
1001
0000
0001
0101
0000
0100
1100
0000
1010
0000
,
1100
0000
1000
1100
0000
0100
1010
0000
1000
1100
0000
0100
1001
0000
0011
0000
,
0101
0000
0001
0101
0000
0100
0101
0000
0001
0101
0000
0100
1001
0000
1010
0000
,
1100
0000
0100
0110
0000
0010
0011
0000
0100
0110
0000
1000
0011
1000
0110
0000
,
0101
0000
0010
1010
0000
0100
0101
0000
0010
0101
0000
0010
1100
0010
0011
0000
,
1100
0000
0100
0110
0000
0010
0011
0000
0100
0110
0000
1000
0011
1000
0110
0000
,
0101
0000
0010
1010
0000
0100
0101
0000
0010
0101
0000
0010
1100
0010
0011
0000
,
0101
0100
1000
0100
0001
0100
1000
0100
0001
0100
1000
0100
0001
0100
1000
0100
,
0011
0010
1000
0010
0001
0010
1000
0010
0001
0010
1000
0010
0001
0010
1000
0010
,
0101
0100
0010
0100
0001
0100
0010
0100
0001
0100
0010
0100
0001
0100
0010
1000
,
1100
1000
0010
1000
0100
1000
0010
1000
0100
1000
0010
1000
0100
1000
0010
1000
,
0102
0203
2300
3200
0302
0203
2300
3200
0302
0203
2300
3200
0302
0203
2300
3200
,
0312
0023
2030
3020
0032
0023
2030
3020
0032
0023
2030
3020
0032
0023
2030
3020
,
0132
0203
0320
0230
0302
0203
0320
0230
0302
0203
0320
0230
0302
0203
0320
1030
,
1200
0000
2300
0000
3020
0000
2030
0000
3200
0000
2300
0000
3020
0000
2030
0000
3010
1000
0010
1000
0010
1000
0010
1000
0010
0000
0000
0000
0000
0000
0000
0000
,
0101
0100
1000
0100
0001
0100
1000
0100
0101
0100
1000
0100
0001
0100
1000
0100
,
0011
0010
1000
0010
0001
0010
1000
0010
0011
0010
1000
0010
0001
0010
1000
0010
,
0101
0100
0001
0010
0001
0100
0001
0010
0101
0100
0001
0010
0001
0100
0001
0010
,
1100
1000
0010
1000
0100
1000
0010
1000
1100
1000
0010
1000
0100
1000
0010
1000
,
0002
0203
2300
3200
0302
0023
2030
3020
0032
0203
2300
3200
0302
0023
2030
3020
,
0032
0203
2300
3200
0320
2030
3200
0302
0203
0320
0032
0203
2300
3200
0320
2030
,
3200
0302
0203
0320
0032
0203
2300
3200
0320
2030
3200
0300
0000
0000
0000
0000
,
2200
0000
3000
0020
0330
1000
0100
0010
,
0012
0013
0011
0110
0021
0031
0011
1100
,
0021
0031
0011
0110
0011
1010
1100
0101
,
0012
0013
0011
0110
0011
0110
0000
1200
,
0000
0000
0000
0000
0000
0000
0000
0000
0300
0000
0000
0000
0000
0000
0000
0000
0000
0000
0000
0000
1000
0100
1000
0100
1000
0100
0010
0100
0010
0001
0010
0001
,
0010
0001
0010
0001
0010
0001
0010
0001
0010
0001
0010
0001
0100
0001
0100
0001
0010
0001
0010
0001
0010
0001
0010
0001
0010
0001
0010
0001
0100
0001
0100
0001
,
0010
0001
0010
0001
0010
0001
0010
0001
0010
0001
0010
0001
0100
0001
0100
0001
0010
0001
0010
0001
1000
0001
1000
0001
0010
0001
0010
0001
0100
0001
0100
0001
,
0010
0000
0011
0110
0011
0110
0000
1200
,
0000
0000
0000
0300
,
1100
0000
1000
1100
0000
0100
1100
0000
1000
1100
0000
0100
1001
0000
0011
0000
,
0101
0000
0001
0101
0000
0100
0101
0000
0001
0101
0000
0100
1001
0000
1010
0000
,
1100
0000
1000
1100
0000
0100
1100
0000
1000
1100
0000
0100
1001
0000
0011
0000
,
0101
0000
0001
0101
0000
0100
0101
0000
0001
0101
0000
0100
1001
0000
1010
0000
,
1100
0000
1000
1100
0000
0100
1010
0000
1000
1100
0000
0100
1001
0000
0011
0000
,
1100
0000
0001
0101
0000
0100
1001
0000
0001
0101
0000
0100
1100
0000
1010
0000
,
1100
0000
1000
1100
0000
0100
1010
0000
1000
1100
0000
0100
1001
0000
0011
0000
,
0101
0000
0001
0101
0000
0100
0101
0000
0001
0101
0000
0100
1001
0000
1010
0000
,
2000
0000
0000
0000
3100
1000
0100
1000
0200
0000
0000
0000
0310
0001
0010
0001
0020
0000
0000
0000
0130
1000
0100
1000
0200
0000
0000
0000
0310
0001
0010
0001
,
1000
0000
0000
0000
1000
0100
0010
0100
2000
0000
0000
0000
3001
0010
0100
0010
0002
0000
0000
0000
1003
0100
0010
0001
2000
0000
0000
0000
3001
0010
0100
1000
,
0002
0000
0000
0000
1003
0010
0100
0001
2000
0000
0000
0000
3001
0100
0010
1000
0002
0000
0000
0000
1003
0010
0100
0010
2000
0000
0000
0000
3001
0100
0010
0100
,
0002
0000
0000
0000
1003
0100
0010
0100
0020
0000
0000
0000
0031
0010
0100
0010
0100
0000
1000
0000
0001
0000
0100
0000
0020
0000
0000
0000
0000
0000
0000
0000
,
0000
0000
0000
0030
;
