#TITLE:Circus Galop;
#SUBTITLE:;
#ARTIST:Marc-Andre Hamelin;
#TITLETRANSLIT:;
#SUBTITLETRANSLIT:;
#ARTISTTRANSLIT:;
#GENRE:Insane Circus Midi;
#CREDIT:Dog_E synced by TaroNuke;
#BANNER:banner.PNG;
#BACKGROUND:bg.PNG;
#LYRICSPATH:;
#CDTITLE:;
#MUSIC:circusgalopcut.mp3;
#OFFSET:1.100;
#SAMPLESTART:97.780;
#SAMPLELENGTH:12.000;
#LASTBEATHINT:0.300;
#SELECTABLE:YES;
#BPMS:0.000=180.000
,174.000=180.500
,187.000=181.000
,199.000=180.900
,277.250=180.000
,285.167=178.000
,298.500=180.000
,314.000=185.500
,322.000=180.000
,368.000=175.000
,368.500=173.000
,369.000=172.000
,369.750=170.000
;
#STOPS:180.500=0.005,
181.000=0.005,
181.500=0.005,
182.000=0.005
;
#BGCHANGES:;
#KEYSOUNDS:;
#ATTACKS:;

//---------------dance-single - TaroNuke----------------
#NOTES:
     dance-single:
     FUCK:
     Challenge:
     13:
     0.520,0.694,0.066,0.018,0.712,965.000,18.000,5.000,55.000,6.000,2.000,0.520,0.694,0.066,0.018,0.712,965.000,18.000,5.000,55.000,6.000,2.000:
0000
0000
0000
0000
0000
0000
0000
0000
0000
0000
0000
0000
0000
0000
0001
0100
,
0001
0000
0000
0000
0000
0000
1000
0010
1000
0000
0000
0000
0000
0000
0001
0010
,
0001
0010
0001
0000
0100
0010
0100
0000
0010
1000
0010
0000
1000
0100
1000
0000
,
1001
0000
0000
0000
0000
1000
0100
0010
0001
1000
0100
0010
0001
1000
0100
0010
,
0001
0000
0000
0000
0000
0000
0000
0000
0000
0000
0000
0000
0000
0000
0000
0000
0000
0000
0000
0000
0000
1000
0010
0100
,
0001
0100
0010
0100
0001
1000
0100
0000
,
1000
0000
0000
0000
0000
0000
0001
0000
0000
0000
0000
0000
0100
0000
0000
0000
0000
0000
0000
0000
0000
0000
0000
0000
0001
0000
0000
0010
0000
0000
0100
0000
0000
1000
0000
0000
0001
0000
0000
0000
0000
0000
1000
0000
0100
0000
0010
0000
,
0001
0100
1000
0100
0001
0010
1000
0010
,
0001
0000
0000
0010
0000
0000
0100
0000
0000
1000
0000
0000
0010
0000
0000
0100
0000
0000
0001
0000
0000
0010
0000
0000
0100
0000
0000
1000
0000
0000
0001
0000
0000
0100
0000
0000
0010
0000
0000
0000
0000
0000
1000
0000
0010
0000
0100
0000
,
0001
0100
0101
0001
1000
0010
1010
0000
,
1000
0100
0010
0001
0100
0010
0100
0001
0010
0000
0100
0000
1000
0000
0000
0000
,
0001
0100
0010
0100
0001
0010
0100
1000
0010
0100
0010
1000
0010
0100
0001
1000
,
0001
0000
0000
0010
0000
0000
0100
0000
0000
1000
0000
0000
0100
0000
0000
0010
0000
0000
0001
0000
0000
1000
0000
0000
0001
0000
0000
0000
0000
0000
1000
0000
0000
0000
0000
0000
0010
0000
0100
0000
0010
0000
0100
0000
0010
0000
0100
0000
,
0010
0100
0010
0100
0001
1000
0010
0000
0000
0100
0000
0000
0010
0000
0000
1000
0000
0000
0001
0000
0000
1000
0000
0000
,
0010
0000
0000
0000
1000
0000
0001
0000
0010
0000
0000
0000
0100
1000
0010
1000
,
0100
0000
0000
1000
0010
0100
0001
0000
0000
0100
0000
0000
0010
0000
0000
1000
0000
0000
0100
0000
0000
0010
0000
0000
,
0001
0000
1000
0000
0001
0100
0010
1000
0100
0010
0001
0100
0010
1000
0100
0010
,
0001
0000
0000
1000
0010
0100
0001
0000
0000
0100
0000
0000
0010
0000
0000
1000
0000
0000
0100
0000
0000
0010
0000
0000
,
0100
0000
0000
0000
1000
0100
0010
0001
1000
0010
0100
0001
0010
0000
0100
0000
,
0100
0000
0000
0000
1000
0010
0100
0010
1000
0100
0010
0001
0100
0010
0100
0001
,
0100
0010
1000
0100
0010
0001
0010
0100
1000
0001
1000
0010
0100
0000
0001
0000
,
1101
0000
0010
0100
0111
0000
1110
0000
,
1011
0000
0000
0000
0001
0000
0100
0000
0010
1000
0010
0100
0001
0100
0010
1000
,
0001
0000
0000
1000
0010
0000
0100
0000
0001
0100
0001
0100
0010
0100
0010
0100
,
0001
0000
0000
1000
0100
0000
0010
0000
0100
0000
1000
0000
0001
0000
0010
0000
,
0100
0000
0000
1000
0001
0000
0010
0000
0000
0100
1000
0000
0001
0000
0000
0010
,
0100
0000
1000
0000
0000
0001
0010
0000
0100
0000
0000
1000
0001
0000
0010
0000
,
0000
0100
1000
0000
0100
0000
0010
0001
0100
0010
1000
0100
0010
0100
1000
0010
,
0100
0001
0100
0010
1000
0001
0010
0000
0000
0001
1000
0000
0100
0000
0010
0000
,
0000
0000
0100
0000
1000
0000
0001
0010
0001
0010
0100
1000
0100
1000
0001
0100
,
0001
0100
0010
1000
0010
1000
0001
0010
0001
0000
1100
0000
0000
0000
1000
0100
,
1000
0000
0011
0000
0000
0000
1000
0001
1000
0001
0100
0010
0100
0010
1000
0000
,
0001
0100
0001
0000
0100
0000
1201
0000
0000
0000
0000
0000
0000
0000
0000
0000
,
0000
0000
0000
0000
0300
0000
0001
0000
0000
1000
0100
0000
0010
0000
0001
0100
,
0010
0100
0001
0100
0010
0100
0001
0000
0000
1000
0100
0000
0010
0000
0100
0010
,
0001
0010
0100
0000
1000
0000
0001
0000
0000
0100
0010
0000
1000
0000
0000
0001
,
0100
0000
0010
0000
0000
1000
0001
0000
0100
0000
0000
0010
1000
0000
0001
0000
,
0000
0100
0010
0000
1000
0000
0000
0001
0100
0000
0010
0000
0000
1000
0001
0000
,
0100
0010
1000
0001
0100
0010
1000
0001
0100
0010
0000
1000
0001
0000
0100
0000
,
0000
0010
1000
0000
0001
0000
0000
0100
0010
0000
1000
0001
0100
0010
1000
0001
,
0100
0000
0000
0010
1000
0000
0100
0000
0010
0001
0100
0010
0100
0001
0010
0100
,
1000
0010
0100
0010
1000
0100
0010
0001
0010
0000
0000
0100
1000
0000
0001
0000
,
0010
0000
0000
0000
0100
0000
1000
0000
0001
0000
1000
0100
1000
0100
1000
0100
,
1000
0010
1000
0010
1000
0001
1000
0001
1000
0000
0010
0000
0000
0000
0100
0000
,
0010
0000
0100
0000
0000
0000
0001
0000
1000
0000
0010
0100
0001
0100
0010
0000
,
2000
0000
0000
0000
0000
0000
0000
0000
3000
0000
0000
0000
0001
0000
0000
1000
,
0010
0000
0100
0000
0001
0100
0001
0100
0010
0100
0010
0100
0001
0000
0000
1000
,
010M
0000
M010
0000
010M
0000
10M0
0000
0M01
0000
M010
0000
010M
0000
00M0
1000
,
0M01
0000
M010
0000
000M
0100
10M0
0000
0M01
0000
M000
0010
010M
0000
10M0
0000
,
0M00
0001
M010
0000
010M
0000
00M0
1000
0M01
0000
M010
0000
000M
0100
10M0
0000
,
0100
0000
0010
0001
0010
0100
1000
0100
0010
0001
0100
0010
1000
0100
1000
0010
,
0100
0001
1000
0000
0000
0100
0010
0000
0001
0000
0100
0000
0000
0000
0001
0000
,
0100
0000
0010
1000
0010
0100
0010
1000
0100
0010
0001
0100
0010
0100
0001
0010
,
0100
1000
0001
0100
0001
0000
1010
0000
0000
0000
1000
0010
1000
0000
0101
0000
,
0000
0000
0010
1000
0010
0100
0001
0100
0010
1000
0001
0000
1000
0010
1000
0000
,
0010
1021
0000
0000
0000
0000
0030
0000
,
0000
0000
0001
0000
0000
1000
0100
0000
0010
0000
0001
0100
0010
0100
0001
0100
,
0010
0100
0001
0000
0000
1000
0100
0000
0010
0000
0100
0010
0001
0010
0100
0000
,
100M
0000
0M01
0000
00M0
0100
M010
0000
100M
0000
0M00
0001
01M0
0000
M010
0000
,
000M
1000
0M01
0000
01M0
0000
M000
0010
100M
0000
0M01
0000
00M0
0100
M010
0000
,
100M
0000
0M00
0001
01M0
0000
M010
0000
000M
1000
0M01
0000
0100
0010
1000
0001
,
0100
0010
1000
0001
0100
0010
000M
1000
0M01
0000
01M0
0000
M000
0010
100M
0000
,
0M01
0000
00M0
0100
M010
0000
1000
0001
0100
0010
1000
0001
0100
0000
000M
0010
,
1000
0000
0100
0000
0010
0001
0100
0010
0100
0001
0010
0100
1000
0010
0100
0010
,
1000
0100
0010
0001
0010
0000
0000
0100
1000
0000
0001
0000
0010
0000
0000
0000
,
0100
0000
1000
0000
0001
0000
1000
0100
1000
0010
1000
0100
1000
0010
1000
0001
,
1000
0010
1000
0001
1000
0000
0001
0000
0000
0000
0010
0000
0100
0000
0010
0000
,
0000
0000
0001
0000
1000
0100
1000
0001
0100
0001
1000
0000
0001
0010
0001
1000
,
0010
1000
0001
0000
1000
0100
1000
0001
0100
0001
1000
0000
0001
0010
0001
1000
,
0010
1000
0001
0000
1000
0100
1000
0001
0100
0001
1000
0000
1001
0000
0001
0100
,
0001
1000
0100
1000
0001
0000
1001
0000
1000
0100
1000
0001
0100
0001
1000
0100
,
1000
0000
0000
0000
0001
0000
0000
0000
0010
0000
0000
0000
0001
0000
0000
0000
1000
0000
0000
0000
0010
0000
0000
0000
1000
0000
0000
0000
0001
0000
0000
0000
1000
0000
0000
0000
0010
0000
0000
0000
1000
0000
0000
0000
0001
0000
0000
0000
0010
0000
0000
0001
0000
0000
0010
0000
0000
0001
0000
0000
0010
0000
0000
0001
,
0000
0000
0010
0000
0000
0001
0000
0000
0100
0000
0000
0001
0000
0000
0100
0000
0000
0001
0000
0000
0100
0000
0000
0001
0000
0000
0100
0000
0000
0001
0000
0000
0100
0000
0000
0010
0000
0000
0100
0000
0000
0010
0000
0000
0100
0000
0000
0010
0000
0000
0100
0000
0000
0010
0000
0000
1000
0000
0000
0010
0000
0000
1000
0000
,
0000
0000
0000
0010
0000
0000
0000
0000
0000
0000
0000
0000
1000
0000
0000
0000
0000
0000
0000
0000
0000
0010
0000
0000
0000
0000
0000
0000
0000
0000
1000
0000
0000
0000
0000
0000
0000
0000
0000
0010
0000
0000
0000
0000
0000
0000
0000
0000
1000
0000
0000
0000
0000
0000
0000
0000
0000
0100
0000
0000
0000
0000
0000
0000
0000
0000
1000
0000
0000
0000
0000
0000
0000
0000
0000
0100
0000
0000
0000
0000
0000
1000
0000
0000
0000
0000
0000
0000
0100
0000
0000
0000
0000
0000
0000
0000
1000
0000
0000
0000
0000
0000
0000
0000
0100
0000
0000
0000
0000
0000
0000
0000
0010
0000
0000
0000
0000
0000
0000
0000
0001
0000
0000
0000
0000
0000
0000
0000
1000
0000
0000
0000
0000
0000
0000
0000
0000
0000
0000
0000
0000
0000
0000
0000
0002
0000
0000
0000
0000
0000
0000
0000
0000
0000
0000
0000
0000
0000
0000
0000
0000
0000
0000
0000
0000
0000
0000
0000
2000
0000
0000
0000
0000
0000
0000
0000
0000
0000
0000
0000
0000
0000
0000
0000
0000
0000
0000
0000
0000
0000
0000
0000
,
0000
0000
0000
0000
0000
0000
0000
0000
0000
0000
0000
0000
3003
0000
0000
1000
0010
0100
0001
0000
0000
0100
0000
0000
,
0010
0100
0001
1000
0100
0000
1000
0001
,
0100
0000
0000
0000
0000
0000
0000
0000
0000
0000
0000
0000
0001
0000
0000
0010
0000
0000
0100
0000
0000
1000
0000
0000
0001
0000
0000
0000
0000
0000
1000
0000
0100
0000
0010
0000
0001
0000
0000
0000
0000
0000
0100
0000
0000
0000
0000
0000
,
1000
0000
0100
0000
0001
0000
0010
0000
1000
0000
0010
0000
0001
0010
0100
1000
,
0010
0100
0001
0010
0100
1000
0001
0100
0010
1000
0100
0010
0001
0100
0010
1000
,
0001
0000
0000
0010
0000
0000
0100
0000
0000
1000
0000
0000
0010
0000
0000
0100
0000
0000
0001
0000
0000
1000
0000
0000
0000
0000
0000
0000
0000
0000
0001
0000
0100
0000
0010
0000
1000
0000
0000
0000
0000
0000
0100
0000
0000
0000
0000
0000
,
1100
0000
1000
0000
0001
0000
0100
0000
0101
0000
0000
0000
0001
0100
0010
1000
,
0100
1000
0010
0100
0001
0000
1000
0000
1001
0000
0000
0000
1000
0100
1000
0100
,
0010
0001
0010
0001
1000
0010
1000
0010
0100
0001
0100
0001
1000
0001
0010
0100
,
1000
0001
0010
0100
1000
0001
0100
0010
1000
0001
0100
0010
1000
0100
0010
0001
,
1000
0010
0100
0001
0010
0001
0010
0001
0100
0001
0100
0001
1000
0010
1000
0010
,
1000
0100
1000
0010
1000
0100
1000
0001
0100
0010
0100
0001
0100
0010
1000
0001
,
0010
0000
0000
0000
0100
0000
0000
0000
1000
0000
0000
0000
0100
0000
0000
0000
1000
0000
0000
0100
0000
0000
0010
0000
0000
0001
0000
0000
1000
0000
0000
0100
0000
0000
0010
0000
0000
0001
0000
0000
1000
0000
0000
0100
0000
0000
0010
0000
0001
0000
0000
0000
1000
0000
0000
0000
0010
0000
0000
0000
1000
0000
0000
0000
,
0100
1000
0100
1000
0100
1000
0100
1000
0100
1000
0100
1000
0100
1000
0100
1000
,
0400
4000
0000
0000
0000
0000
0000
0000
0000
0000
0000
0000
0000
0000
0000
0000
,
0000
0000
0000
0000
,
0000
0000
0000
0000
,
0000
0000
0000
0000
,
0000
0000
3300
0000
;

//---------------dance-single - Footswitch----------------
#NOTES:
     dance-single:
     FUCK II:
     Edit:
     13:
     0.520,0.694,0.066,0.018,0.712,965.000,18.000,5.000,55.000,6.000,2.000,0.520,0.694,0.066,0.018,0.712,965.000,18.000,5.000,55.000,6.000,2.000: // measure 0
0000
0000
0000
0000
0000
0000
0000
0000
0000
0000
0000
0000
0000
0000
0001
0100
,  // measure 1
0001
0000
0000
0000
0000
0000
1000
0010
1000
0000
0000
0000
0000
0000
0001
0010
,  // measure 2
0001
0010
0001
0000
0100
0010
0100
0000
0010
1000
0010
0000
1000
0100
1000
0000
,  // measure 3
1001
0000
0000
0000
0000
0010
0010
0010
0010
0010
0010
0010
0010
0010
0010
0010
,  // measure 4
0010
0000
0000
0000
0000
0000
0000
0000
0000
0000
0000
0000
0000
0000
0000
0000
0000
0000
0000
0000
0000
1000
0010
0100
,  // measure 5
0001
0100
0010
0100
0001
1000
0100
0000
,  // measure 6
1000
0000
0000
0000
0000
0000
0001
0000
0000
0000
0000
0000
0100
0000
0000
0000
0000
0000
0000
0000
0000
0000
0000
0000
0001
0000
0000
0010
0000
0000
0100
0000
0000
1000
0000
0000
0001
0000
0000
0000
0000
0000
1000
0000
0100
0000
0010
0000
,  // measure 7
0001
0100
1000
0100
0001
0010
1000
0010
,  // measure 8
0100
0000
0000
0100
0000
0000
0100
0000
0000
0100
0000
0000
0100
0000
0000
0100
0000
0000
0100
0000
0000
0100
0000
0000
0100
0000
0000
0100
0000
0000
0100
0000
0000
0100
0000
0000
0100
0000
0000
0000
0000
0000
1000
0000
0010
0000
0100
0000
,  // measure 9
0001
0100
0101
0001
1000
0010
1010
0000
,  // measure 10
1000
0100
0010
0001
0100
0010
0100
0001
0010
0000
0100
0000
1000
0000
0000
0000
,  // measure 11
0001
0100
0010
0100
0001
0010
0100
1000
0010
0100
0010
1000
0010
0100
0001
1000
,  // measure 12
0001
0000
0000
0010
0000
0000
0100
0000
0000
1000
0000
0000
0100
0000
0000
0010
0000
0000
0001
0000
0000
1000
0000
0000
0001
0000
0000
0000
0000
0000
1000
0000
0000
0000
0000
0000
0010
0000
0100
0000
0010
0000
0100
0000
0010
0000
0100
0000
,  // measure 13
0010
0100
0010
0100
0001
1000
0010
0000
0000
0100
0000
0000
0010
0000
0000
1000
0000
0000
0001
0000
0000
1000
0000
0000
,  // measure 14
0010
0000
0000
0000
1000
0000
0001
0000
0010
0000
0000
0000
0100
1000
0010
1000
,  // measure 15
0100
0000
0000
1000
0010
0100
0001
0000
0000
0100
0000
0000
0010
0000
0000
1000
0000
0000
0100
0000
0000
0010
0000
0000
,  // measure 16
0001
0000
1000
0000
0100
0100
0100
0100
0100
0100
0100
0100
0100
0100
0100
0100
,  // measure 17
0100
0000
0000
1000
0010
0100
0001
0000
0000
0100
0000
0000
0010
0000
0000
1000
0000
0000
0100
0000
0000
0010
0000
0000
,  // measure 18
0100
0000
0000
0000
1000
0100
0010
0001
1000
0010
0100
0001
0010
0000
0100
0000
,  // measure 19
0100
0000
0000
0000
1000
0010
0100
0010
1000
0100
0010
0001
0100
0010
0100
0001
,  // measure 20
0100
0010
1000
0100
0010
0001
0010
0100
1000
0001
1000
0010
0100
0000
0001
0000
,  // measure 21
1101
0000
0010
0100
0111
0000
1110
0000
,  // measure 22
1011
0000
0000
0000
0001
0000
0100
0000
0010
1000
0010
0100
0001
0100
0010
1000
,  // measure 23
0001
0000
0000
1000
0010
0000
0100
0000
0001
0100
0001
0100
0010
0100
0010
0100
,  // measure 24
0001
0000
0000
1000
0100
0000
0010
0000
0100
0000
1000
0000
0001
0000
0010
0000
,  // measure 25
0100
0000
0000
1000
0001
0000
0010
0000
0000
0100
1000
0000
0001
0000
0000
0010
,  // measure 26
0100
0000
1000
0000
0000
0001
0010
0000
0100
0000
0000
1000
0001
0000
0010
0000
,  // measure 27
0000
0100
1000
0000
0100
0000
0010
0001
0100
0010
1000
0100
0010
0100
1000
0010
,  // measure 28
0100
0001
0100
0010
1000
0001
0010
0000
0000
0001
1000
0000
0100
0000
0010
0000
,  // measure 29
0000
0000
0100
0000
1000
0000
0001
0010
0001
0010
0100
1000
0100
1000
0001
0100
,  // measure 30
0001
0100
0010
1000
0010
1000
0001
0010
0001
0000
1100
0000
0000
0000
1000
0100
,  // measure 31
1000
0000
0011
0000
0000
0000
1000
0001
1000
0001
0100
0010
0100
0010
1000
0000
,  // measure 32
0100
0100
0100
0000
0100
0000
1201
0000
0000
0000
0000
0000
0000
0000
0000
0000
,  // measure 33
0000
0000
0000
0000
0300
0000
0001
0000
0000
1000
0100
0000
0010
0000
0001
0100
,  // measure 34
0010
0100
0001
0100
0010
0100
0001
0000
0000
1000
0100
0000
0010
0000
0100
0010
,  // measure 35
0001
0010
0100
0000
1000
0000
0001
0000
0000
0100
0010
0000
1000
0000
0000
0001
,  // measure 36
0100
0000
0010
0000
0000
1000
0001
0000
0100
0000
0000
0010
1000
0000
0001
0000
,  // measure 37
0000
0100
0010
0000
1000
0000
0000
0001
0100
0000
0010
0000
0000
1000
0001
0000
,  // measure 38
0100
0010
1000
0001
0100
0010
1000
0001
0100
0010
0000
1000
0001
0000
0100
0000
,  // measure 39
0000
0010
1000
0000
0001
0000
0000
0100
0010
0000
1000
0001
0100
0010
1000
0001
,  // measure 40
0100
0000
0000
0010
1000
0000
0100
0000
0010
0001
0100
0010
0100
0001
0010
0100
,  // measure 41
1000
0010
0100
0010
1000
0100
0010
0001
0010
0000
0000
0100
1000
0000
0001
0000
,  // measure 42
0010
0000
0000
0000
0100
0000
1000
0000
0001
0000
1000
0100
1000
0100
1000
0100
,  // measure 43
1000
0010
1000
0010
1000
0001
1000
0001
1000
0000
0010
0000
0000
0000
0100
0000
,  // measure 44
0010
0000
0100
0000
0000
0000
0001
0000
1000
0000
0010
0100
0001
0100
0010
0000
,  // measure 45
2000
0000
0000
0000
0000
0000
0000
0000
3000
0000
0000
0000
0001
0000
0000
1000
,  // measure 46
0010
0000
0100
0000
0001
0100
0001
0100
0010
0100
0010
0100
0001
0000
0000
1000
,  // measure 47
010M
0000
M010
0000
010M
0000
10M0
0000
0M01
0000
M010
0000
010M
0000
00M0
1000
,  // measure 48
0M01
0000
M010
0000
000M
0100
10M0
0000
0M01
0000
M000
0010
010M
0000
10M0
0000
,  // measure 49
0M00
0001
M010
0000
010M
0000
00M0
1000
0M01
0000
M010
0000
000M
0100
10M0
0000
,  // measure 50
0100
0000
0010
0001
0010
0100
1000
0100
0010
0001
0100
0010
1000
0100
1000
0010
,  // measure 51
0100
0001
1000
0000
0000
0100
0010
0000
0001
0000
0100
0000
0000
0000
0001
0000
,  // measure 52
0100
0000
0010
1000
0010
0100
0010
1000
0100
0010
0001
0100
0010
0100
0001
0010
,  // measure 53
0100
1000
0001
0100
0001
0000
1010
0000
0000
0000
1000
0010
1000
0000
0101
0000
,  // measure 54
0000
0000
0010
1000
0010
0100
0001
0100
0010
1000
0001
0000
1000
0010
1000
0000
,  // measure 55
0010
1021
0000
0000
0000
0000
0030
0000
,  // measure 56
0000
0000
0001
0000
0000
1000
0100
0000
0010
0000
0001
0100
0010
0100
0001
0100
,  // measure 57
0010
0100
0001
0000
0000
1000
0100
0000
0010
0000
0100
0010
0001
0010
0100
0000
,  // measure 58
100M
0000
0M01
0000
00M0
0100
M010
0000
100M
0000
0M00
0001
01M0
0000
M010
0000
,  // measure 59
000M
1000
0M01
0000
01M0
0000
M000
0010
100M
0000
0M01
0000
00M0
0100
M010
0000
,  // measure 60
100M
0000
0M00
0001
01M0
0000
M010
0000
000M
1000
0M01
0000
0100
0010
1000
0001
,  // measure 61
0100
0010
1000
0001
0100
0010
000M
1000
0M01
0000
01M0
0000
M000
0010
100M
0000
,  // measure 62
0M01
0000
00M0
0100
M010
0000
1000
0001
0100
0010
1000
0001
0100
0000
000M
0010
,  // measure 63
1000
0000
0100
0000
0010
0001
0100
0010
0100
0001
0010
0100
1000
0010
0100
0010
,  // measure 64
1000
0100
0010
0001
0010
0000
0000
0100
1000
0000
0001
0000
0010
0000
0000
0000
,  // measure 65
0100
0000
1000
0000
0001
0000
1000
0100
1000
0010
1000
0100
1000
0010
1000
0001
,  // measure 66
1000
0010
1000
0001
1000
0000
0001
0000
0000
0000
0010
0000
0100
0000
0010
0000
,  // measure 67
0000
0000
0001
0000
1000
0100
1000
0001
0100
0001
1000
0000
0001
0010
0001
1000
,  // measure 68
0010
1000
0001
0000
1000
0100
1000
0001
0100
0001
1000
0000
0001
0010
0001
1000
,  // measure 69
0010
1000
0001
0000
1000
0100
1000
0001
0100
0001
1000
0000
1001
0000
0001
0100
,  // measure 70
0001
1000
0100
1000
0001
0000
1001
0000
1000
0100
1000
0001
0100
0001
1000
0100
,  // measure 71
1000
0000
0000
0000
0001
0000
0000
0000
0010
0000
0000
0000
0001
0000
0000
0000
1000
0000
0000
0000
0010
0000
0000
0000
1000
0000
0000
0000
0001
0000
0000
0000
1000
0000
0000
0000
0010
0000
0000
0000
1000
0000
0000
0000
0001
0000
0000
0000
0010
0000
0000
0001
0000
0000
0010
0000
0000
0001
0000
0000
0010
0000
0000
0001
,  // measure 72
0000
0000
0010
0000
0000
0001
0000
0000
0100
0000
0000
0001
0000
0000
0100
0000
0000
0001
0000
0000
0100
0000
0000
0001
0000
0000
0100
0000
0000
0001
0000
0000
0100
0000
0000
0010
0000
0000
0100
0000
0000
0010
0000
0000
0100
0000
0000
0010
0000
0000
0100
0000
0000
0010
0000
0000
1000
0000
0000
0010
0000
0000
1000
0000
,  // measure 73
0000
0000
0000
0010
0000
0000
0000
0000
0000
0000
0000
0000
1000
0000
0000
0000
0000
0000
0000
0000
0000
0010
0000
0000
0000
0000
0000
0000
0000
0000
1000
0000
0000
0000
0000
0000
0000
0000
0000
0010
0000
0000
0000
0000
0000
0000
0000
0000
1000
0000
0000
0000
0000
0000
0000
0000
0000
0100
0000
0000
0000
0000
0000
0000
0000
0000
1000
0000
0000
0000
0000
0000
0000
0000
0000
0100
0000
0000
0000
0000
0000
1000
0000
0000
0000
0000
0000
0000
0100
0000
0000
0000
0000
0000
0000
0000
1000
0000
0000
0000
0000
0000
0000
0000
0100
0000
0000
0000
0000
0000
0000
0000
0010
0000
0000
0000
0000
0000
0000
0000
0001
0000
0000
0000
0000
0000
0000
0000
1000
0000
0000
0000
0000
0000
0000
0000
0000
0000
0000
0000
0000
0000
0000
0000
0002
0000
0000
0000
0000
0000
0000
0000
0000
0000
0000
0000
0000
0000
0000
0000
0000
0000
0000
0000
0000
0000
0000
0000
2000
0000
0000
0000
0000
0000
0000
0000
0000
0000
0000
0000
0000
0000
0000
0000
0000
0000
0000
0000
0000
0000
0000
0000
,  // measure 74
0000
0000
0000
0000
0000
0000
0000
0000
0000
0000
0000
0000
3003
0000
0000
1000
0010
0100
0001
0000
0000
0100
0000
0000
,  // measure 75
0010
0100
0001
1000
0100
0000
1000
0001
,  // measure 76
0100
0000
0000
0000
0000
0000
0000
0000
0000
0000
0000
0000
0001
0000
0000
0010
0000
0000
0100
0000
0000
1000
0000
0000
0001
0000
0000
0000
0000
0000
1000
0000
0100
0000
0010
0000
0001
0000
0000
0000
0000
0000
0100
0000
0000
0000
0000
0000
,  // measure 77
1000
0000
0100
0000
0001
0000
0010
0000
1000
0000
0010
0000
0100
0100
0100
0100
,  // measure 78
0100
0100
0100
0100
0100
0100
0100
0100
0100
0100
0100
0100
0100
0100
0100
0100
,  // measure 79
0100
0000
0000
0100
0000
0000
0100
0000
0000
0100
0000
0000
0100
0000
0000
0100
0000
0000
0100
0000
0000
0100
0000
0000
0000
0000
0000
0000
0000
0000
0001
0000
0100
0000
0010
0000
1000
0000
0000
0000
0000
0000
0100
0000
0000
0000
0000
0000
,  // measure 80
1100
0000
1000
0000
0001
0000
0100
0000
0101
0000
0000
0000
0001
0100
0010
1000
,  // measure 81
0100
1000
0010
0100
0001
0000
1000
0000
1001
0000
0000
0000
1000
0100
1000
0100
,  // measure 82
0010
0001
0010
0001
1000
0010
1000
0010
0100
0001
0100
0001
1000
0001
0010
0100
,  // measure 83
1000
0001
0010
0100
1000
0001
0100
0010
1000
0001
0100
0010
1000
0100
0010
0001
,  // measure 84
1000
0010
0100
0001
0010
0001
0010
0001
0100
0001
0100
0001
1000
0010
1000
0010
,  // measure 85
1000
0100
1000
0010
1000
0100
1000
0001
0100
0010
0100
0001
0100
0010
1000
0001
,  // measure 86
0010
0000
0000
0000
0100
0000
0000
0000
1000
0000
0000
0000
0100
0000
0000
0000
1000
0000
0000
0100
0000
0000
0010
0000
0000
0001
0000
0000
1000
0000
0000
0100
0000
0000
0010
0000
0000
0001
0000
0000
1000
0000
0000
0100
0000
0000
0010
0000
0001
0000
0000
0000
1000
0000
0000
0000
0010
0000
0000
0000
1000
0000
0000
0000
,  // measure 87
0100
1000
0100
1000
0100
1000
0100
1000
0100
1000
0100
1000
0100
1000
0100
1000
,  // measure 88
0400
4000
0000
0000
0000
0000
0000
0000
0000
0000
0000
0000
0000
0000
0000
0000
,  // measure 89
0000
0000
0000
0000
,  // measure 90
0000
0000
0000
0000
,  // measure 91
0000
0000
0000
0000
,  // measure 92
0000
0000
3300
0000
;
