#VERSION:0.83;
#TITLE:惑星☆ロリポップ;
#SUBTITLE:;
#ARTIST:SOUND HOLIC feat. Nana Takahashi;
#TITLETRANSLIT:Wakusei Lollipop;
#SUBTITLETRANSLIT:;
#ARTISTTRANSLIT:;
#GENRE:;
#CREDIT:;
#MUSIC:Wakusei Lollipop.ogg;
#BANNER:Wakusei Lollipop.png;
#BACKGROUND:;
#CDTITLE:;
#SAMPLESTART:57.946;
#SAMPLELENGTH:15.000;
#SELECTABLE:YES;
#OFFSET:0.719;
#BPMS:0.000=180.000;
#STOPS:;
#SPEEDS:0.000=1.000=0.000=0;
#SCROLLS:0.000=1.000;
#TICKCOUNTS:0.000=4;
#TIMESIGNATURES:0.000=4=4;
#LABELS:0.000=Song Start;
#COMBOS:0.000=1;
#ORIGIN:;
#PREVIEWVID:;
#JACKET:Wakusei Lollipop-jacket.png;
#CDIMAGE:;
#DISCIMAGE:;
#BGCHANGES:2.000=Wakusei Lollipop.mp4=1.000=0=0=1,
99999.000=-nosongbg-=1.000=0=0=0=StretchNoLoop====
;
#FGCHANGES:;

//--------------- dance-single - Talkion ----------------
#NOTEDATA:;
#STEPSTYPE:dance-single;
#DESCRIPTION:Talkion;
#DIFFICULTY:Easy;
#METER:11;
#RADARVALUES:0,0,0,0,0;
#NOTES:
0000
0000
0000
0000
,
0000
0000
0000
0000
,
0000
0000
0000
0000
,
0000
0000
0000
0000
,
0000
0000
0000
0000
,
0000
0000
0000
0000
,
0010
0010
0001
0001
,
0100
0100
1000
1000
,
0010
0000
0010
0000
0001
1000
0001
1000
,
0000
0010
0010
0100
0100
0000
1001
0000
,
0011
0000
0000
0000
1100
0000
0000
0000
1000
0000
0000
0010
0000
0000
0100
0000
,
0020
0000
1030
2000
0000
0100
3100
0000
,
0110
0000
0000
0000
0011
0000
0000
0000
0001
0000
0000
0100
0000
0000
0010
0000
,
2000
0000
3100
0010
0001
0010
0100
1000
,
1010
0000
0000
0000
0101
0000
0000
0000
0001
0000
0000
0010
0000
0000
0100
0000
,
0020
0000
0031
0002
0000
0100
0103
0000
,
0010
1000
0010
1000
0001
0010
0001
0010
,
0100
0100
1000
1000
0000
0001
1001
0000
,
1000
0000
0010
0100
0001
0000
0100
0000
,
0010
1000
0001
1000
0020
0000
0130
0000
,
0001
0000
0010
0100
1000
0000
0100
0000
,
0010
0001
1000
0001
0200
0000
0310
0000
,
0100
0000
0001
1000
0100
0000
0010
0000
,
0100
1000
0001
1000
0200
0000
0310
0000
,
0001
0000
0100
0000
0010
1000
0100
0010
,
0002
0000
1003
1001
,
0001
0000
0100
0010
1000
0000
0010
0000
,
0001
0010
0001
0010
0200
0000
0301
0000
,
1000
0000
0100
0010
0001
0000
0010
0000
,
1000
0010
1000
0010
0002
0000
0103
0000
,
0010
0001
0010
0000
0001
0100
0001
0000
,
0100
1000
0100
0000
1000
0010
1000
0000
,
0010
0000
0100
0000
0001
1000
0001
1000
,
0000
0100
0100
0010
0010
0000
1001
0000
,
0201
0000
0000
0010
0010
0000
0000
0000
,
0320
0000
0000
1000
1000
0000
0000
0000
,
2030
0000
0000
0100
0100
0000
0000
0000
,
3100
0000
0100
0000
0010
0001
0010
0001
,
1000
0010
0001
0100
,
0001
0010
1000
0001
,
1000
0100
0001
0010
,
1000
0100
1000
0000
0001
0100
0001
0000
,
1000
0100
1000
0100
0010
0001
0010
0001
,
0100
0010
1000
0001
0020
0000
0130
0000
,
1000
0010
0100
0000
0010
0100
0001
0000
,
1000
0100
0010
0001
1000
0000
1010
0000
,
0010
0100
0001
0000
0010
0100
0010
0000
,
0001
0100
0010
2000
0000
0001
3001
0000
,
1000
0100
0010
0000
0100
0010
0001
0000
,
1000
0010
0100
0010
1000
0000
1100
0000
,
0100
0010
0100
0010
0001
0100
0001
0100
,
0010
1000
0100
0010
0001
0000
1001
0000
,
0001
0100
0010
0000
0100
1000
0100
0000
,
0010
1000
0010
1000
0001
0000
0011
0000
,
0010
0100
1000
0000
0010
0100
0010
0000
,
1000
0100
0010
0002
0000
1000
1003
0000
,
0001
0010
0100
0000
0010
1000
0010
0000
,
0100
1000
0100
1000
0001
0000
0101
0000
,
0100
0010
0100
0001
1000
0100
0010
0001
,
0000
1000
1000
0001
0001
0000
1001
0000
,
1010
0110
0101
0110
,
1100
0000
0110
0000
0010
0001
0010
0100
,
2000
0000
3010
0100
0010
0000
0100
0000
,
0001
1000
0100
0000
0110
0000
0011
0000
,
0002
0000
0013
0100
1000
0000
0010
0000
,
0100
0010
0100
0000
0101
0000
1100
0000
,
2000
0000
3100
0010
0100
0000
0010
0000
,
0001
1000
0010
0000
0110
0000
0101
0000
,
0002
0000
1003
0100
0010
0000
0100
0000
,
0001
0100
0010
0000
0011
0000
1001
0000
,
1010
0000
0000
0000
0110
0000
0000
0000
0100
0000
0000
0001
0000
0000
1000
0000
,
0200
0000
0310
0020
0000
0001
0031
0000
,
0101
0000
0000
0000
0110
0000
0000
0000
0010
0000
0000
1000
0000
0000
0100
0000
,
0020
0000
0130
1000
0001
0100
0010
1000
,
1100
0000
0000
0000
0110
0000
0000
0000
0010
0000
0000
0001
0000
0000
1000
0000
,
0020
0000
0130
0200
0000
0001
0301
0000
,
1000
0100
1000
0100
0010
0001
0010
0001
,
1000
0010
0100
0001
1000
0100
0010
0001
,
1000
0000
0000
0000
,
0000
0000
1002
0000
0103
0010
0110
0000
;

//--------------- dance-single - Talkion ----------------
#NOTEDATA:;
#STEPSTYPE:dance-single;
#DESCRIPTION:Talkion;
#DIFFICULTY:Medium;
#METER:14;
#RADARVALUES:0.761035,0.914044,0.430948,0.247566,0.169628,581,534,47,27,0,0,0,0,0,0.761035,0.914044,0.430948,0.247566,0.169628,581,534,47,27,0,0,0,0,0;
#CHARTNAME:Talkion;
#CHARTSTYLE:;
#CREDIT:Talkion;
#NOTES:
0000
0000
0000
0000
,
0000
0000
0000
0000
,
0000
0000
0000
0000
,
0000
0000
0000
0000
,
0000
0000
0000
0000
,
0000
0000
0000
0000
,
0001
0010
0001
0000
0010
1000
0010
0000
,
1000
0100
1000
0000
0100
0001
0100
0000
,
0001
0010
0100
1000
0010
0100
0001
1000
,
0000
1000
1100
0001
0101
0000
1001
0000
,
0001
0000
0010
0000
0100
0000
1000
0000
0010
0000
0100
0010
0000
0100
0001
0000
,
0100
0010
1000
0002
0000
0010
0013
0000
,
0100
0000
1000
0000
0001
0000
0100
0000
0010
0000
0100
0001
0000
1000
0000
0100
,
0010
0000
0001
1000
0001
0000
0100
0010
0100
0000
0010
1000
0010
0000
0100
0000
,
0001
0000
0100
0000
0010
0000
1000
0000
0100
0000
0010
0100
0000
0010
0001
0000
,
0010
0100
1000
0002
0000
0100
0103
0000
,
0010
0000
1000
0100
0010
0000
0001
0100
0010
0000
1000
0001
1000
0000
0100
0000
,
0010
0011
0100
1100
0000
1001
1001
0000
,
0001
0100
0010
0100
0001
1000
0200
0000
,
0301
0100
0010
0001
1000
0010
0110
0000
,
0100
0001
1000
0100
0010
0001
2000
0000
,
3010
0100
0001
0100
0010
1000
1001
0000
,
1000
0100
0010
0100
1000
0001
0200
0000
,
1300
0100
0010
1000
0001
0010
0110
0000
,
0100
0100
0010
0010
0001
0001
1000
1000
,
0010
0000
0100
0000
0001
0000
1000
0000
0100
0000
0010
0001
1000
0000
0000
0000
,
1000
0010
0100
0001
1000
0100
0020
0000
,
1030
0010
0001
1000
0010
0100
0101
0000
,
0001
1000
0100
1000
0001
0100
0020
0000
,
0130
0001
1000
0100
0010
0001
1001
0000
,
0001
0010
1000
0001
0010
1000
0002
0000
,
0013
0100
1000
0001
0100
0010
1010
0000
,
1000
1000
0001
0001
0010
0010
0100
0100
,
0000
1000
1010
0001
0011
0000
2000
0000
,
3200
0000
0000
0010
0010
0000
1000
0000
,
0320
0000
0000
0001
0001
0000
0100
0000
,
0032
0000
0000
0100
0100
0000
0010
0000
,
2003
0000
3020
0000
0130
0001
1000
0100
,
0010
0000
0001
0010
0100
1000
0002
0000
,
1003
0000
0001
0100
0010
1000
0002
0000
,
1003
0000
0100
0001
0100
1000
0002
0000
,
0103
0010
0100
0010
1000
0100
1000
0100
,
0010
0010
0001
0001
1000
1000
0010
0010
,
0100
0001
0100
0001
0100
0001
0100
0001
2000
0000
0000
0000
3010
0000
0000
0000
,
1000
0100
1100
1000
0001
0100
0101
0001
,
1000
0100
0001
0100
0010
0001
1001
0000
,
0001
0100
0110
0010
1000
0100
0110
0010
,
0001
1000
0010
0200
0000
0010
0310
1000
,
0001
0010
0011
0001
1000
0010
1010
1000
,
0001
0010
0100
1000
0010
0100
0110
0000
,
0010
1000
0010
1000
0001
0010
0001
0010
,
0100
0000
1000
0001
1000
0000
0010
0000
0110
0000
0000
0000
1001
0000
0000
0000
,
0001
0010
0110
0100
1000
0010
1010
1000
,
0001
0100
1000
0100
0010
1000
1001
0000
,
1000
0100
0110
0001
1000
0010
0110
0001
,
1000
0100
0010
0002
0000
1000
1003
0010
,
1000
0100
0110
0010
0001
0100
0101
0001
,
1000
0010
0001
0010
0100
0001
1001
0000
,
1000
1000
0001
0001
0010
0010
0100
0100
,
0000
1000
1010
0001
0101
0000
1001
0000
,
0010
0010
0011
0000
0100
0100
1100
0000
,
1000
0010
0001
1000
0100
0001
1000
0100
,
0020
0000
0031
0100
1000
0100
0010
1000
,
0100
0010
0001
0000
0011
0000
1010
0000
,
2000
0000
3010
0001
0010
0100
0001
0010
,
0100
1000
0001
0000
0101
0000
1100
0000
,
0200
0000
0310
0001
1000
0010
0001
1000
,
0100
0001
1000
0000
1100
0000
0011
0000
,
0020
0000
0130
1000
0001
0100
1000
0001
,
0010
1000
0001
0000
0011
0000
1100
0000
,
1000
0000
0010
0000
0100
0000
0010
0000
1000
0000
0100
0010
0000
0001
0010
0000
,
0100
1000
0001
0200
0000
0010
0310
0000
,
0100
0000
0001
0000
1000
0000
0100
0000
0010
0000
0100
0001
0000
0100
0000
0010
,
0001
0000
1000
0010
1000
0000
0010
0100
0010
0000
0100
0001
0100
0000
0001
0000
,
1000
0000
0100
0000
0010
0000
0100
0000
1000
0000
0010
0100
0000
0001
0100
0000
,
0010
1000
0001
0020
0000
0100
0130
0000
,
0010
0000
0001
1000
0001
0000
0010
0100
0010
0000
0100
1000
0100
0000
1000
0010
,
1000
0000
0010
0100
0001
0000
0010
0100
1000
0000
0001
0100
0010
0000
1000
0100
,
0010
0001
1000
0010
0001
1000
0100
0001
,
1000
0000
0200
0000
0310
0001
1001
0000
;

//--------------- dance-single - Talkion ----------------
#NOTEDATA:;
#STEPSTYPE:dance-single;
#DESCRIPTION:Talkion;
#DIFFICULTY:Hard;
#METER:17;
#RADARVALUES:0.969305,1.206538,0.330087,0.128367,0.761035,740,704,36,14,0,0,0,0,0,0.969305,1.206538,0.330087,0.128367,0.761035,740,704,36,14,0,0,0,0,0;
#CHARTNAME:Talkion;
#CHARTSTYLE:;
#CREDIT:Talkion;
#NOTES:
0000
0000
0000
0000
,
0000
0000
0000
0000
,
0000
0000
0000
0000
,
0000
0000
0000
0000
,
0000
0000
0000
0000
,
0000
0000
0000
0000
,
1000
0010
1000
0010
1000
0100
1000
0100
,
0010
0001
0010
0001
0100
0001
0100
0001
,
1000
0010
0001
0010
0100
0001
1000
0100
,
0000
0000
0011
0000
0011
0000
1010
0000
1010
0000
0000
0000
1000
0100
0010
0001
,
1000
0000
0010
0000
0100
0000
0001
0000
0010
0000
0100
0010
0000
0100
1000
0100
,
0010
0000
0001
0000
1000
0000
0020
0000
0000
0000
0130
0001
1000
0100
1000
0100
,
0010
0000
0100
0000
1000
0000
0001
0000
0100
0000
0010
0100
0000
0001
0100
0001
,
1000
0000
0100
0010
0001
1000
0010
1000
0010
0100
0001
0100
0001
1000
0100
0010
,
0001
0000
0010
0000
0100
0000
1000
0000
0010
0000
0100
0010
0000
0100
0001
0100
,
0010
0000
1000
0000
0100
0000
0020
0000
0000
0000
0130
1000
0001
0100
0001
0100
,
0010
1000
0100
0010
0001
1000
0010
0100
0001
1000
0100
0010
0100
1000
0010
0100
,
0001
1000
1001
1001
0000
0110
0110
0000
,
0001
0100
0010
1000
0100
0001
0100
0010
,
0001
0000
0100
0000
0010
0000
0100
0000
0001
1000
0001
1000
0100
0000
0010
0000
,
0001
0010
0100
1000
0010
0100
1000
0100
,
0010
0000
1000
0000
0100
0000
0010
0000
0001
1000
0001
1000
0010
0000
0100
0000
,
0010
1000
0100
0010
1000
0010
0001
0100
,
0010
0000
1000
0000
0100
0000
0010
0000
0100
0000
1000
0001
1000
0000
0010
0000
,
0100
0000
0100
0000
0001
0000
0001
0000
1000
0100
0010
0001
0100
0010
0100
0010
,
1000
0000
0000
0000
0000
0000
0000
0000
1001
0000
1000
0010
1000
0010
0100
0001
,
1000
0100
0010
0001
1000
0010
0001
1000
,
0001
0000
0010
0000
0100
0000
0001
0000
1000
0100
1000
0100
0010
0000
0100
0000
,
1000
0010
0100
0001
0010
0100
0001
1000
,
0001
0000
0100
0000
0010
0000
0001
0000
1000
0010
1000
0010
0100
0000
0010
0000
,
1000
0100
0001
0010
1000
0010
0001
0100
,
1000
0000
0001
0000
0010
0000
0100
0000
1000
0000
0010
0100
0010
0000
1000
0000
,
0100
0000
0100
0000
0010
0000
0010
0000
0001
0100
0010
1000
0100
0010
0001
1000
,
0000
1100
1100
0101
0101
0000
0002
0000
,
0023
0000
0000
0100
0100
0000
0001
0000
,
0230
0000
0000
1000
1000
0000
0010
0000
,
2300
0000
0000
0010
0010
0000
0100
0000
,
3002
0000
0000
0000
0013
0000
0100
0000
1000
0010
1000
0010
0100
0001
0100
0001
,
2000
0000
3001
0010
1000
0100
0101
0000
,
0002
0000
1003
0010
0001
0100
1100
0000
,
1020
0000
0031
0010
1000
0100
0110
0000
,
0010
0001
1000
0010
0100
0100
0001
0001
,
1000
0100
0010
0000
0001
0100
0010
0000
1000
0100
1000
0100
0010
0001
0010
0001
,
1000
0010
0100
0001
1000
0100
0001
0100
0010
0001
1000
0010
0100
0000
0000
0000
,
0110
0000
0010
1000
0001
0000
0010
0000
0100
0000
0010
0001
1000
0000
0010
0000
,
0100
0000
0001
1000
0001
0000
0010
0000
0100
0000
1000
0000
1100
0000
0000
0000
,
0110
0000
0100
1000
0001
0000
0100
0000
0010
0000
0100
0001
1000
0000
0100
0000
,
0010
0000
0001
1000
0010
0100
0020
0000
0000
0000
0100
0000
0130
0000
0001
0000
,
1001
0000
1000
0100
0010
0000
0001
0000
0100
0000
0001
0100
0010
0000
1000
0000
,
0100
0000
0010
0100
0010
0000
0001
0000
1000
0000
0010
0000
0110
0000
0000
0000
,
0101
0000
0001
1000
0100
0000
0010
0000
0100
0000
1000
0010
0100
0000
0001
0000
,
0100
0010
0100
0010
1000
0100
0010
0001
1000
0000
0000
0000
1010
0000
0010
0100
,
0001
0000
0100
1000
0100
0000
0010
0000
1000
0000
0100
0001
0100
0000
0010
0000
,
0001
0000
0100
0010
1000
0000
0010
0000
0100
0000
0001
0000
1001
0000
0000
0000
,
1000
0000
0010
0001
0010
0000
0100
0000
0001
0000
0010
1000
0010
0000
0100
0000
,
1000
0000
0010
0100
0001
1000
0002
0000
0000
0000
0010
0000
0013
0000
0100
0000
,
1000
0000
0010
1000
0100
0000
0010
0000
0001
0000
0100
0001
0010
0000
0100
0000
,
1000
0000
0010
0100
0010
0000
1000
0000
0001
0000
0010
0000
0110
0000
0000
0000
,
0100
0000
0100
0000
0010
0000
0010
0000
0001
0010
0100
1000
0010
0100
0001
1000
,
0000
1010
1010
0101
0101
0000
1001
0000
,
0001
0011
1001
0000
1000
1010
1001
0000
,
0001
0000
0010
0000
0100
1000
0100
1000
0001
0100
0010
0100
0001
0010
0100
1000
,
0001
0100
1000
0100
0010
0001
0010
1000
,
0001
0000
0010
0100
1000
0000
0100
0000
0010
0000
0001
0000
1000
0000
0010
0000
,
1000
0100
0001
0100
0010
1000
0010
0001
,
1000
0000
0010
0100
0001
0000
0100
0000
0010
1000
0010
1000
0001
0010
0001
0010
,
0100
1000
0100
0001
1000
0010
0001
1000
,
0010
0000
0100
0001
0100
0000
0010
0000
1000
0000
0100
0000
1000
0000
0010
0000
,
0100
0001
0100
1000
0001
0010
1000
0001
,
0010
0100
0010
0100
1000
0001
1000
0001
0100
0000
0010
0000
1000
0100
0010
0001
,
1000
0000
0010
0000
0100
0000
0010
0000
1000
0000
0100
0001
0000
0100
0010
0100
,
1000
0000
0010
0000
0100
0000
0002
0000
0000
0000
0103
0010
1000
0100
1000
0100
,
0010
0000
0100
0000
1000
0000
0001
0000
0100
0000
0010
0001
0000
0010
0100
0010
,
1000
0000
0100
0010
0001
1000
0010
0100
0001
1000
0100
0010
0001
0010
0100
1000
,
0001
0000
0100
0000
0010
0000
0100
0000
0001
0000
0010
1000
0000
0010
0100
0010
,
0001
0000
0100
0000
0010
0000
2000
0000
0000
0000
3010
0100
0001
0010
0001
0010
,
0100
1000
0100
1000
0001
0100
0001
0100
0010
1000
0010
1000
0001
0010
0100
1000
,
0001
0100
1000
0100
0010
1000
0001
1000
0100
0010
1000
0010
0001
1000
0010
0100
,
0001
0000
1000
0100
0010
0001
0010
0100
1000
0010
0100
0001
0100
0010
1000
0100
,
0010
0000
0000
0000
0100
1000
0100
1000
0001
0000
0100
0000
0110
0000
0000
0000
;
