#VERSION:0.83;
#TITLE:VVelcome!!;
#SUBTITLE:;
#ARTIST:MisoilePunch♪;
#TITLETRANSLIT:;
#SUBTITLETRANSLIT:;
#ARTISTTRANSLIT:;
#GENRE:;
#CREDIT:;
#MUSIC:VVelcome!!.ogg;
#BANNER:;
#BACKGROUND:;
#CDTITLE:;
#SAMPLESTART:6.573;
#SAMPLELENGTH:15.000;
#SELECTABLE:YES;
#OFFSET:0.672;
#BPMS:0.000=265.000
,122.000=530.000
,126.500=265.000
,162.000=132.500
,170.000=265.000
;
#STOPS:32.000=0.453
,122.000=0.085
,122.750=0.085
,123.500=0.085
,124.250=0.085
,125.000=0.085
,125.750=0.085
;
#DISPLAYBPM:132.500:265.000;
#BGCHANGES:;
#FGCHANGES:;

//--------------- dance-single - ----------------
#NOTEDATA:;
#STEPSTYPE:dance-single;
#DESCRIPTION:;
#DIFFICULTY:Challenge;
#METER:20;
#RADARVALUES:0,0,0,0,0;
#NOTES:
0000
0000
0000
0000
,
0000
0000
0000
0000
,
0000
0000
0000
0000
,
0000
0000
0000
0000
,
0000
0000
0000
0000
,
0000
0000
0000
0000
,
0000
0000
0000
0000
,
0000
0000
0000
0000
,
0000
0000
1001
0000
0001
0100
0100
1000
,
0100
0100
0001
0100
0100
1000
0010
0100
,
0001
1000
0100
1000
0001
0010
0010
1000
,
0010
0010
0001
0010
0010
1000
0001
0100
,
0020
0000
0000
0000
1030
0010
1000
0000
0001
0000
0100
0000
0100
0000
1000
0000
,
0100
0100
0001
0100
0100
1000
0010
0100
,
0010
0000
1000
0000
0001
0000
0010
0000
1100
0000
0001
0010
0001
0000
1100
0000
,
0000
0000
0000
1000
0000
0000
0001
0000
0000
0100
0000
0000
0010
0000
0100
0000
0001
0000
0010
0000
0100
0000
1000
0000
,
0010
0100
0001
0010
0100
1000
0001
0000
0000
0000
0000
0000
,
0000
0000
0000
0000
0101
0000
0000
1000
,
0000
0001
1001
0000
1200
0000
0001
0000
,
0310
0000
0010
0001
0000
0001
1000
0000
1000
0010
0000
0010
,
0100
0000
0100
0001
0000
0001
1000
0000
0000
0000
0000
0000
,
0000
0000
0000
0000
1001
0100
0010
1001
,
0000
0000
0001
0000
0011
0000
1000
0000
0010
0000
0100
0010
0100
0000
0001
0000
,
1000
0000
0100
0000
0001
0000
0100
0000
0010
0001
1000
0100
0010
0001
1000
0100
,
0010
0100
1000
0001
0010
0100
1000
0001
0010
0000
0001
1000
0001
0000
0100
0000
,
0010
0001
0010
0100
0010
0001
0010
1000
,
0001
0000
1000
0000
0100
0010
0001
1000
0100
0000
0000
0000
1000
0000
1010
0000
,
0000
0000
0001
0000
0011
0000
1000
0000
0010
0100
0010
0100
0010
0100
0010
0100
,
0001
1000
0010
0100
0001
0000
1000
0001
0020
0000
0000
0000
0130
0000
0010
0000
,
1000
0010
0100
0010
2000
0000
3020
0000
,
0031
1000
0010
0100
0001
1000
0010
0100
0001
0000
0000
0101
0000
0000
1100
0000
,
0000
0101
0000
0000
1100
0000
0000
0101
0000
0000
0110
0000
0010
0000
1000
0010
,
1000
0000
0000
0001
0000
0000
0100
0000
0000
0001
0000
0000
1000
0000
0000
0010
0000
0000
1000
0000
0000
0001
0000
0000
0100
0000
0000
0000
0000
0000
0000
0000
0010
0000
0000
0000
1000
0000
0000
0000
0000
0000
0000
0000
0100
0000
0000
0000
,
1000
0000
0010
0100
0000
0010
0001
0000
0010
1000
0000
0001
,
0000
0000
0010
0001
0000
1000
0010
0000
0100
0010
1000
0100
,
0010
0000
0001
0000
0000
2001
0000
0000
3100
1000
0000
1000
,
0001
0000
0001
0100
0000
0100
0010
0000
0000
2010
0000
0000
,
3001
0000
0010
0100
0000
0002
0000
0000
0103
0010
0000
0010
,
0001
0000
0001
1000
0000
0000
1100
0000
0000
0011
0000
0000
,
1001
0000
1000
0000
0000
1020
0000
0000
0130
0010
1000
0100
,
0010
0000
0001
1000
0001
0000
1000
0000
0100
0000
0010
0000
0001
0000
0000
0000
0000
0000
0000
0000
0000
0000
0000
0000
,
1000
0010
0010
0010
1000
0010
0010
0010
,
2000
0000
0000
0000
0000
0000
0000
0000
3001
0000
0000
0000
1000
0100
0010
0001
,
1000
0100
0010
0100
1000
0001
0010
0100
1000
0000
0000
0000
1001
0000
0000
0000
,
0101
0000
0000
0000
1010
0000
0000
0000
1001
0000
0000
0000
0001
0100
0010
1000
,
0001
0100
0010
0100
0001
1000
0010
0100
0001
0000
0000
0000
1001
0000
0000
0000
,
1100
0000
0000
0000
0011
0000
0000
0000
0001
0000
1000
0100
0010
0000
0001
0000
,
1000
0100
0010
0000
0001
0000
1000
0010
0100
0000
0001
0000
1000
0010
0100
0001
,
1000
0100
0010
0001
1000
0010
0100
0001
2000
0000
0000
0000
0000
0000
0000
0000
,
3000
0000
0000
0100
0000
0000
1000
0000
0000
0000
0000
0000
1001
0000
0000
0000
0001
0000
0100
0000
0000
0000
0100
0000
,
0010
0000
0010
1000
0000
1000
0001
0000
0000
0000
0000
0000
,
0000
0000
0000
0000
,
0000
0000
0000
0000
,
0000
0000
0000
0000
,
0000
0011
1100
0000
,
0000
0000
0000
0000
,
0000
0000
0000
0000
1000
0001
1000
0001
2000
0000
0000
0000
0000
0000
0000
0000
,
0000
0000
0000
0000
3010
0000
0000
0101
,
0000
0000
0000
0000
1010
0000
0000
0000
0001
0000
1000
0100
1000
0100
1000
0000
,
0001
0000
0100
0000
0010
1000
0001
1000
0010
0000
1000
0010
1000
0010
1000
0000
,
0001
0000
0000
0000
0000
0000
0010
0000
0000
0000
0000
0000
0100
0000
0000
0000
0000
0000
1000
0000
0001
0000
1000
0000
0001
0000
0000
0000
0000
0000
0100
0000
0000
0010
0000
0000
0100
0000
0000
0010
0000
0000
0100
0000
0000
0000
0000
0000
,
0010
0000
1000
0000
0002
0000
0023
0000
0130
0000
1000
0001
1000
0001
1000
0000
,
0001
0000
0100
0000
0020
0000
2030
0000
3001
1000
0001
1000
0010
0100
0010
0100
,
0001
1000
0001
1000
0010
0100
0010
0100
0002
0000
2003
0000
3200
0000
0302
0000
,
0103
0010
0001
1000
0100
0010
0001
1000
0000
0000
0000
0000
0000
0000
0000
0000
,
0000
0000
0000
1002
,
0000
0000
0100
0000
0103
0001
1000
0010
0200
0000
0000
0000
1300
0000
0100
0000
,
0002
0000
0000
0010
0000
0000
2003
0000
0000
0010
0000
0000
3001
0000
0000
0000
1000
0000
0100
0000
0000
0020
0000
0000
,
0000
0000
1030
0000
0010
0100
1000
0001
0010
0000
0001
0010
0001
0000
1000
0000
,
0010
0001
0010
0100
0001
0010
0100
0002
,
0000
0000
0103
1000
0001
0010
0100
0010
0001
0000
1000
0000
0010
0000
0102
0000
,
0000
0000
1003
0000
0001
1000
0010
0100
0001
0000
1000
0000
0100
0000
0012
0000
,
0000
0000
1003
0000
0001
0100
0001
0100
0010
0000
1000
0010
0100
0010
1000
0010
,
0100
0000
0001
0000
1000
0000
0100
0000
0010
0000
0001
0000
1000
0000
0000
0010
0000
0000
1000
0000
0000
1002
0000
0000
,
0000
0000
0010
0000
0013
0001
1000
0100
0010
0000
0100
0001
0100
0000
0010
0000
,
0002
0000
0000
0100
0000
0000
2003
0000
0000
0100
0000
0000
3001
0000
0000
0000
1000
0000
0010
0000
0000
0200
0000
0000
,
0000
0000
0000
0000
0000
0000
1300
0000
0000
0000
0000
0000
0100
0000
0000
0000
0001
0000
0000
0000
0010
0000
0000
0000
0100
0000
0000
0000
0000
0000
1000
0000
0000
0100
0000
0000
0010
0000
0000
0000
0000
0000
1001
0000
0000
0000
0000
0000
,
0001
0100
0010
0000
2001
0000
0000
0000
0000
0000
3100
0000
1000
0000
0001
0000
,
0200
0000
0000
0320
0000
0000
1030
0010
0100
1000
0100
0010
,
1000
0000
0001
0010
0000
0100
0001
0000
0100
1000
0000
0001
,
1000
0001
1000
0000
0010
0000
0100
0000
0001
0000
0010
0000
0100
0000
0000
0000
1000
0000
0101
0000
0000
0000
1000
0000
,
0101
0000
1000
0100
0000
0002
0000
0000
0103
0010
0000
0010
,
0001
0000
0000
0000
0000
0000
0000
0000
1000
0000
0000
0000
0010
0000
0000
0000
0000
0000
0000
0000
0100
0000
0000
0000
0001
0000
0000
0000
0000
0000
1000
0000
0000
0010
0000
0000
1000
0000
0000
0010
0000
0000
1000
0000
0000
0000
0000
0000
,
0001
0000
0010
0000
0100
0000
1000
0000
0001
0000
0100
0001
0100
0001
0100
0000
,
0010
0000
1000
0000
0001
0000
0010
0000
0100
0000
1000
0001
1000
0001
0100
0000
,
0010
0000
1000
0000
0100
0000
0010
0000
0001
1000
0010
1000
0001
1000
0010
1000
,
0001
1000
0010
0100
0010
0100
0001
1000
0020
0000
0000
0000
0130
0000
0102
0000
,
0000
1003
1200
0000
0310
0012
0000
1003
,
0010
0100
0010
0100
0001
1000
0010
0100
0001
0000
0000
0000
1000
0001
0100
0001
,
1000
0000
0000
0001
0000
0000
0100
0000
0000
0001
0000
0000
1000
0000
0000
0010
0000
0000
0100
0000
0000
0001
0000
0000
1000
0000
0000
0000
0000
0000
0000
0000
0100
0000
0000
0000
1000
0000
0000
0000
0000
0000
0000
0000
0002
0000
0000
0000
,
0000
0000
0000
0000
0013
0000
0100
0000
0000
0000
0000
0000
1000
0000
0000
0001
0000
0000
0100
0000
0000
0001
0000
0000
,
1000
0001
0100
0001
1000
0001
0100
0001
,
1000
0001
0101
0000
0100
1000
0001
0010
,
1000
0000
0001
0000
0100
0000
1000
0000
0100
0010
0100
0010
1000
0001
0100
0010
,
0000
0000
2010
0000
,
0000
0000
0000
0000
,
0000
3001
0021
0000
,
0000
0000
0130
0000
1001
0100
0010
1001
,
0000
1000
0010
0010
0101
0000
0000
1010
,
0000
0000
1001
0000
0000
0110
0000
0000
,
1001
0000
0000
0000
1001
0000
0000
0000
0002
0000
0000
0000
0013
0100
1000
0001
,
0010
0100
1000
0001
0100
0010
1000
0000
0000
0000
0001
0000
0020
0000
0000
0000
,
0031
0000
0000
0000
1001
0000
0000
0000
1000
0000
0001
0100
0001
0100
0001
0000
,
1000
0000
0100
0000
0010
0000
1000
0000
0010
0000
0001
0010
0100
1000
0100
0010
,
0001
1000
0010
0100
0010
1000
0001
0010
0100
0000
1000
0100
1000
0100
1000
0000
,
0001
0000
0100
0000
0010
0000
1000
0000
0001
0010
0100
1000
0001
0100
0010
1000
,
0001
0000
0000
0000
1001
0000
0000
0000
1000
0000
0100
0010
0100
0010
0100
0000
,
0001
0000
0100
0000
0010
0000
0001
0000
1000
0001
0100
0010
1000
0001
0100
0010
,
1000
0001
0010
0100
0010
0001
1000
0010
0100
0000
0010
0100
0001
0100
0010
0100
,
0001
1000
0010
0100
0001
1000
0200
0000
0000
0000
0310
0000
0100
0000
1000
0000
,
0001
0100
0110
0000
1010
1000
0100
0011
,
0001
0000
0100
0000
1010
0000
1000
0000
0001
0010
0100
1000
0001
0000
1000
0001
,
0100
0010
0100
0001
2000
0000
0000
0000
0100
0000
3100
0000
1000
0000
0011
0000
,
0001
1000
0100
1000
0001
0000
0001
0000
0100
0010
1000
0010
0100
0010
1000
0010
,
0100
0000
0000
0010
0000
0000
1000
0000
0000
0001
0000
0000
0010
0000
0000
0000
0100
0000
0000
0000
1000
0000
0000
0000
0001
0000
0000
0000
0000
0000
0100
0000
0000
0000
0000
0000
0010
0000
0000
0000
0000
0000
1001
0000
0000
0000
0000
0000
,
0100
0000
0010
0000
1001
0000
1000
0000
0001
1000
0010
0100
0001
1000
0100
0010
,
0001
1000
0010
0100
0010
1000
0001
0010
0100
0000
1000
0001
0010
0001
1000
0000
,
0001
0000
0100
0000
0010
0000
1000
0000
0001
0010
0100
0010
0001
1000
0010
1000
,
0001
0010
0100
0010
0001
1000
0010
1000
0001
0000
0010
0001
0010
0001
1000
0000
,
0010
0000
0100
0000
0101
0000
0001
1000
0001
1000
0010
0000
0100
0000
0101
0000
,
0001
1000
0001
1000
0010
0000
0100
0000
0001
0000
1000
0001
1000
0001
1000
0001
,
1000
0001
1000
0001
1000
0001
1000
0001
1000
0001
1000
0001
1000
0001
1000
0001
,
1000
0001
1000
0001
1000
0001
1000
0001
1000
0001
1000
0001
1000
0001
1000
0001
,
1000
0001
1000
0001
1000
0001
1000
0001
1000
0001
1000
0001
1000
0001
1000
0001
,
1000
0001
1000
0001
1000
0001
1000
0001
1000
0001
1000
0001
1000
0001
1000
0001
,
1000
0001
0100
0000
0000
0000
0000
0000
0000
0000
1001
0000
0000
0000
0000
0000
;
