#TITLE:TOKONOMA Spacewalk;
#SUBTITLE:;
#ARTIST:t+pazolite;
#TITLETRANSLIT:;
#SUBTITLETRANSLIT:;
#ARTISTTRANSLIT:;
#GENRE:;
#CREDIT:;
#MUSIC:TOKONOMA Spacewalk.ogg;
#BANNER:TOKONOMA Spacewalk.png;
#BACKGROUND:TOKONOMA Spacewalk-bg.png;
#CDTITLE:;
#SAMPLESTART:27.287;
#SAMPLELENGTH:16.000;
#SELECTABLE:YES;
#OFFSET:-1.687;
#BPMS:0.000=75.000
,8.000=150.000
,38.000=75.000
,39.000=150.000
,69.000=75.000
,70.000=150.000
,114.000=75.000
,115.500=225.000
,117.000=150.000
,181.000=75.000
,189.000=150.000
;
#STOPS:;
#DISPLAYBPM:75.000:150.000;
#BGCHANGES:;
#FGCHANGES:;

//--------------- dance-single - Talkion ----------------
#NOTES:
     dance-single:
     Talkion:
     Easy:
     8:
     0,0,0,0,0:
0000
0000
0000
0000
,
0000
0000
0000
0000
,
1000
1000
0001
0001
,
0010
0100
1000
0000
,
0001
0001
1000
2000
,
0000
3020
0200
0330
,
0001
0010
0100
0010
,
0001
0100
1000
0100
,
0010
1000
0100
1000
,
0010
0100
0001
1000
,
0100
0010
0100
1000
,
0010
0001
0010
0100
,
0001
0010
0001
0100
,
0020
0000
2000
0000
3030
0000
1000
0100
,
1000
0000
0010
0000
0100
0000
0001
1000
,
0001
0000
0010
0000
0100
0000
0010
0001
,
0010
0000
0001
0000
1000
0000
0010
0100
,
0010
0000
1000
0000
0001
0010
0001
0000
,
0100
0000
0010
0000
1000
0001
1000
0000
,
0100
0000
0010
0000
0100
1000
0100
0000
,
1000
0000
0001
0000
0100
0010
0100
0000
,
0220
0330
1000
0100
,
0010
0011
0001
0100
,
0010
1010
1000
0110
,
0001
0110
1000
0100
,
0010
0001
1000
0000
0001
0000
0100
0000
,
0010
1010
1000
0100
,
0010
0011
0001
1100
,
1000
0000
0101
0000
2000
0000
0000
3001
,
0000
0010
0010
0100
,
0100
0000
1000
0000
1000
0000
0001
0100
,
0001
0100
0100
0010
,
0010
0000
1000
0000
1000
0000
0100
0010
,
0100
1000
1000
0010
,
0010
0000
0100
0000
0100
0000
0001
0010
,
0001
0100
0100
1000
,
1000
0110
0000
0010
,
2000
0002
0000
0000
,
0000
0000
0000
0000
,
0000
0000
0000
0000
,
0000
0000
0000
0000
,
3003
0001
0011
1000
,
1010
0001
0101
1000
,
1100
0001
0010
1000
,
0100
0000
0001
1000
0001
1000
0001
1000
,
0001
1000
0001
0000
0000
0000
0000
0000
,
0000
0000
0000
0000
,
0000
2000
0100
0000
,
0100
0000
0100
0000
,
0010
3002
0100
0000
,
0100
0000
0203
0020
,
0330
0000
1000
0100
0010
0000
0100
0000
,
1000
0000
0010
0100
0010
0000
0100
0000
,
0001
0000
0010
0100
1000
0000
0100
0000
,
0010
0000
0001
1000
0010
0000
0200
0000
,
0301
0000
0001
0010
0100
0000
0010
0000
,
0001
0000
0100
0010
0100
0000
0010
0000
,
1000
0000
0100
0010
0001
0000
0010
0000
,
0100
0000
1000
0001
1000
0000
2002
0000
,
3003
0002
0010
1000
,
0100
2003
0010
0001
,
0100
3020
0001
0100
,
1000
0230
1000
0010
,
0001
0320
1000
2030
,
0100
3200
0010
0320
,
0001
0031
0001
1000
,
1000
0000
0010
0100
0010
0200
0020
0000
,
0330
0100
0001
1000
,
0100
0001
0100
1000
,
0010
0100
0001
0100
,
1000
0100
0001
0100
,
0100
0010
1000
0001
,
0010
1000
0010
0001
,
0100
0010
1000
0010
,
0001
0010
2000
0002
,
3003
0000
2000
0000
0000
0010
0000
0000
,
0010
0000
3020
0000
0000
0100
0000
0000
,
0100
0000
0230
0000
0000
0001
0000
0000
,
0001
0000
0302
0000
0000
0010
0000
0000
,
0010
0000
0023
0000
0000
0100
0000
0000
,
0100
0000
0230
0000
0000
1000
0000
0000
,
1000
0000
2300
0000
0000
0010
0000
0000
,
0010
0000
3020
0000
0000
0200
0000
0330
;

//--------------- dance-single - Talkion ----------------
#NOTES:
     dance-single:
     Talkion:
     Medium:
     11:
     0,0,0,0,0:
0000
0000
0000
0000
,
0000
0000
0000
0000
,
1000
0000
0000
0000
1000
0000
0000
0000
0100
0000
0000
0010
0000
0000
0002
0000
,
0000
0000
0100
0000
0103
0000
0000
0000
0010
0000
0000
1001
0000
0000
0000
0000
,
0001
0000
0000
0000
0001
0000
0000
0000
0010
0000
0000
0100
0000
0000
2000
0000
,
0000
0000
3010
0100
0001
0000
1001
0000
,
0200
0000
0301
0010
0001
1000
0100
0000
,
0020
0000
0031
0100
0010
1000
0100
0010
,
0200
0000
1300
0001
0100
0010
1000
0000
,
0020
0000
0130
0001
1000
1000
0020
0000
,
1030
0100
1000
0001
0010
0000
0200
0000
,
1300
0010
0100
0001
0010
0100
0020
0000
,
0031
1000
0010
0001
0010
0100
0010
0000
,
1000
0001
0010
0000
0110
0000
0100
1000
,
0100
0000
1000
0000
0001
0000
0000
0100
0000
0000
0010
0000
1000
0000
0001
0000
,
1000
0001
0010
0000
0110
0000
0010
0001
,
0100
0000
0010
0000
0100
0000
0000
1000
0000
0000
0100
0000
0001
0000
1000
0000
,
0100
0010
0001
0001
0010
0001
0010
0001
,
1000
0000
0000
0010
0000
0000
0100
0000
0001
0000
1000
0000
0001
0000
1000
0000
,
0100
0000
0110
0000
0100
1000
0010
0001
,
0010
0000
0000
1000
0000
0000
0001
0000
0010
0000
1000
0000
0100
0000
0001
0000
,
1000
0000
1001
0000
0001
0010
0001
0010
,
0100
0100
2000
0000
3010
1000
0010
1000
,
0001
0001
0200
0000
0310
1000
0001
0000
,
0010
0001
1000
0000
0010
0100
0010
0100
,
0001
1000
1001
0000
1000
0100
1000
0100
,
0010
0010
0002
0000
0103
0001
0100
0001
,
1000
1000
0020
0000
0130
1000
0100
0000
,
0100
0000
0001
0000
0100
0000
0000
0000
0010
1000
0001
1000
0001
1000
0001
0000
,
0000
0000
0000
0000
0010
0000
0000
1000
0000
0000
0100
0000
0000
0001
0000
0000
,
0010
0000
0001
0000
0100
0000
0000
1000
0000
0000
0010
0000
0000
0001
0000
0000
,
1000
0000
0000
0000
0010
0000
0000
1000
0000
0000
0100
0000
0000
0001
0000
0000
,
0010
0000
0001
0000
0100
0000
0000
1000
0000
0000
0001
0000
0100
0000
0010
0000
,
1000
0000
0000
0000
0100
0000
0000
0001
0000
0000
0010
0000
0000
1000
0000
0000
,
0100
0000
1000
0000
0010
0000
0000
0001
0000
0000
0100
0000
0000
1000
0000
0000
,
0001
0000
0000
0000
0100
0000
0000
1000
0000
0000
0001
0000
0000
0010
0000
0000
,
1000
0000
0001
0000
0010
0000
0000
0110
0000
0000
0110
0000
0100
0000
1000
0000
,
0002
0200
0000
0000
,
0000
0000
0000
0000
,
0000
0000
0000
0000
,
0000
0000
0000
0000
,
0303
0000
0000
0000
0100
0000
0000
1010
0000
0000
1000
0000
0100
0000
0000
0011
,
0000
0000
0001
0000
0100
0000
0000
0110
0000
0000
0010
0000
1000
0000
0000
1001
,
0000
0001
0010
0100
0010
0100
1000
0010
,
1000
0010
0100
0001
1000
0100
0010
0001
,
0100
0010
1000
0000
0000
0000
0000
0000
,
0000
0000
0000
0000
0000
0000
0010
1000
0010
0000
0100
0001
0100
0000
0001
1000
,
0001
0010
0100
0000
1000
0100
0020
0000
,
0032
0000
2003
0000
3010
0100
0002
0000
,
0023
0000
0130
0000
1000
0010
0002
0000
,
1003
0100
0002
0000
1003
0100
0010
0000
,
0110
0000
0000
0000
0100
0000
1000
0000
0100
0000
1000
0000
0001
0000
0000
0100
,
0000
1000
0100
0010
1000
0001
0010
0000
,
0110
0000
0000
0000
0010
0000
0001
0000
1000
0000
0010
0000
0100
0000
0000
0001
,
0000
0010
1000
0010
0100
0010
0001
0000
,
1001
0000
0000
0000
0010
0000
0001
0000
0010
0000
0001
0000
1000
0000
0000
0010
,
0000
0001
0010
0100
0001
1000
0100
0000
,
0110
0000
0000
0000
0010
0000
0001
0000
0100
0000
1000
0000
0100
0000
0000
0001
,
0000
1000
0100
0001
0010
1000
0001
0000
,
1001
0000
2000
0000
3020
0000
0130
0001
,
1000
0000
0200
0000
0320
0000
0031
1000
,
0010
0000
0002
0000
0023
0000
0130
0001
,
1000
0000
0200
0000
0320
0000
1030
0010
,
0001
0000
0002
0000
0203
0000
0310
1000
,
0001
0000
0020
0000
0230
0000
1300
0001
,
0100
0000
0010
1000
0010
1000
0001
0010
,
0001
0010
0200
0000
2300
0000
3020
0000
,
0031
0000
0100
0000
1000
0010
0100
0010
,
1000
0000
0100
0000
0010
0001
0100
1000
,
0100
0010
1000
0000
0100
0010
0001
0010
,
0100
0000
1000
0000
0010
0010
0100
0100
,
0001
0001
0010
0000
0001
0100
0010
0100
,
0001
0000
0010
0000
0100
1000
0010
0001
,
0010
0100
0001
0000
0010
1000
0100
0001
,
0010
0000
0001
0000
1000
0010
0100
0000
,
0110
0000
0020
0000
0000
2030
0000
0000
,
3200
0000
0320
0000
0000
0032
0000
0000
,
0203
0000
0302
0000
0000
0023
0000
0000
,
0230
0000
2300
0000
0000
3020
0000
0000
,
0230
0000
2300
0000
0000
3200
0000
0000
,
0302
0000
2003
0000
0000
3200
0000
0000
,
0302
0000
0203
0000
0000
0320
0000
0000
,
0032
0000
0203
0000
0000
0020
0000
0330
;

//--------------- dance-single - Talkion ----------------
#NOTES:
     dance-single:
     Talkion:
     Hard:
     13:
     0,0,0,0,0:
0000
0000
0000
0000
,
0000
0000
0000
0000
,
1000
0000
0100
0000
1000
0000
0100
0000
0010
0000
0000
0001
0000
0000
1000
0000
,
0000
0000
1000
0000
0010
0000
0100
0000
0001
0000
0000
1000
0000
0000
0000
0000
,
0001
0000
0010
0000
0001
0000
0010
0000
0100
0000
0000
1000
0000
0000
0001
0000
,
0000
0000
0100
0020
2000
3030
1001
0000
,
0002
0000
0023
0000
0130
1000
0000
0010
0000
0100
0000
0010
1000
0000
0001
0000
,
0010
0000
0100
0000
1000
0010
0000
0100
0000
0001
0000
1000
0100
0000
0010
0000
,
0001
0000
1000
0000
0010
0100
0000
0010
0000
1000
0000
0001
0010
0000
0100
0000
,
0010
0000
0001
0000
1000
0010
0000
0100
0001
0000
1001
0000
1000
0000
0100
0000
,
0010
0001
0000
0100
0000
0010
0000
0100
0001
0000
1000
0000
0100
0000
0010
0000
,
0001
0100
0000
0010
0000
1000
0000
0001
0010
0000
0100
0000
1000
0000
0001
0000
,
0100
0010
0000
0010
0100
0000
0020
0000
2030
0000
3002
0000
0013
0000
0000
0000
,
0100
0000
0000
0000
0000
0000
0000
0000
0000
0000
1000
0000
0000
0000
0000
0000
0000
0000
0001
0000
0000
0000
0000
0000
1001
0000
0000
0000
0000
0000
0000
0000
0000
0000
0000
0000
0001
0000
0000
0000
0000
0000
0100
0000
0000
0010
0000
0000
,
0100
0000
0010
0000
1000
0000
0000
1000
0100
0000
1000
0000
0010
0000
0100
0001
,
0100
0000
1000
0000
0100
0000
0000
0100
0010
0000
0000
0000
1000
0000
0100
0010
,
0100
0000
0010
0000
0001
0000
0000
0001
0100
0000
0010
0000
0100
0000
0001
0000
,
1000
0000
0100
0000
0010
0000
0110
0000
0100
0000
1000
0001
1000
0000
0010
0000
,
0100
0000
0000
0100
0001
0000
1000
0000
0100
0000
0010
0001
0010
0000
1000
0000
,
0010
0000
0000
0010
0100
0000
0000
0000
1000
0000
0001
0100
0001
0000
0100
0000
,
0010
0000
0000
0010
1000
0000
0001
0000
0010
0000
0100
0000
1000
0001
1000
0001
,
0100
0000
0000
0100
0010
0000
0000
0000
1000
0000
0100
0000
0010
0000
0001
0000
,
0101
0100
0110
0000
0010
1000
0001
0010
,
0110
0100
1100
0000
1000
0001
0100
1000
,
0100
0010
0100
0000
0010
0000
0000
0000
0100
0000
0001
0000
1000
0000
0100
0000
,
0010
0001
0010
0001
1000
0000
0000
0000
0001
0000
0100
0000
0010
0000
1000
0000
,
1100
0100
0110
0000
0010
0001
1000
0010
,
0110
0100
0101
0000
0001
1000
0100
0001
,
0100
0000
0010
0000
0100
0000
0000
0000
0010
0000
0000
0000
0000
0000
0000
0000
0001
0000
1000
0000
0001
0000
1000
0000
0001
1000
0001
1000
0001
0000
0000
0000
,
0000
0000
0000
0000
0100
0000
0000
0100
0010
0000
1000
0000
0000
1000
0100
0000
,
0001
0000
0100
0000
0010
0000
0000
0010
0001
0000
0100
0000
0000
0100
0010
0000
,
1001
0000
0000
0000
1000
0000
0000
1000
0010
0000
0001
0000
0000
0001
0100
0000
,
1000
0000
0001
0000
1000
0000
0000
0100
0000
0000
0010
0000
0001
0000
1000
0000
,
1010
0000
0000
0000
0010
0000
0000
0010
0100
0000
0001
0000
0000
0001
0010
0000
,
1000
0000
0010
0000
0100
0000
0000
0100
1000
0000
0010
0000
0000
0010
0100
0000
,
1001
0000
0000
0000
0001
0000
0000
0001
0100
0000
1000
0000
0000
1000
0010
0000
,
0001
0000
1000
0000
0010
0000
0000
0100
0000
0000
0001
0000
1000
0000
0100
0000
,
0020
0002
0000
0000
,
0000
0000
0000
0000
,
0033
0000
0000
0000
0010
0000
0100
0000
1000
0001
0000
0200
0000
0000
0010
0000
,
0320
0000
0000
0000
0130
0000
0001
0000
1000
0100
0000
0020
0000
0000
0100
0000
,
0230
0000
0000
0000
1300
0000
0000
0010
0000
0000
0001
0000
0100
0000
0000
1000
,
0000
0000
0010
0000
0001
0000
0000
0010
0000
0000
1000
0000
0100
0000
0000
0001
,
0000
0010
1000
1000
0100
0100
0010
0010
,
0001
0000
0001
0000
1000
0010
1000
0000
0010
0100
0010
0000
0100
0001
0100
0000
,
0001
1000
0001
0000
0010
0000
0000
0000
0000
0000
0000
0000
0000
0000
0000
0000
,
0000
0000
0000
0000
0000
0000
0100
1000
0010
0000
0100
0001
0010
0000
0100
1000
,
0001
0000
0100
0000
0020
0000
1000
0000
0000
1000
0000
0000
0100
0000
0000
0100
,
0000
0000
0230
0000
0000
0001
0000
0000
0302
0000
0000
0000
0010
0000
0000
0010
,
0000
0000
0013
0000
0200
0000
1000
0000
0000
1000
0000
0000
0010
0000
0000
0010
,
0000
0320
0000
0000
0031
0200
0020
0330
,
1001
0000
0000
0000
1000
0000
0010
0100
0001
0000
0100
0000
0010
0000
0000
0010
,
1000
0000
0100
0000
0010
0000
0001
0100
0010
0000
0100
0000
1000
0000
0000
1000
,
0100
0000
0000
0000
0001
0000
0010
0100
1000
0000
0100
0000
0010
0000
0000
0010
,
0001
0000
0100
0000
1000
0000
0001
0000
0010
0000
1000
0000
0001
0000
0000
0001
,
1000
0000
0000
0000
0100
0000
0010
0001
1000
0000
0010
0000
0001
0000
0000
0001
,
0010
0000
0100
0000
0001
0000
1000
0100
0010
0000
0001
0000
1000
0000
0000
1000
,
0010
0000
0000
0000
0100
0000
0010
1000
0001
0000
0010
0000
1000
0000
0000
1000
,
0010
0000
0100
0000
1000
0000
0001
0000
0100
0010
0100
0010
1000
0000
0000
1000
,
0001
0000
0020
0000
1000
0000
0130
0010
,
0011
0001
0200
0000
1000
0000
0301
0010
,
0001
1000
0200
0000
0001
0000
0310
0100
,
1100
1000
0020
0000
0001
0000
1030
0100
,
1000
0001
0020
0000
0230
0000
1300
0010
,
0001
0010
2000
0000
3200
0000
0301
0100
,
1000
0100
0010
0001
0010
0001
1000
0010
,
1000
0000
0010
0000
0100
0001
1000
0000
0100
0010
0100
0010
0002
0000
0000
0000
,
1003
0000
0000
0000
0010
0000
0100
0000
0001
1000
0000
0100
0000
0010
0000
0100
,
1000
0000
0010
0000
0100
0000
0001
0000
1000
0100
0000
0001
0000
0100
0000
0010
,
0001
0000
1000
0000
0010
0000
0100
0000
0010
1000
0000
0001
0000
1000
0000
0100
,
0010
0000
0001
0000
1000
0000
0010
0000
0100
0001
0000
1000
0200
0000
0000
0320
,
0000
0000
0032
0000
0103
0000
0010
0000
1000
0001
0000
0010
0000
0100
0000
0010
,
0001
0000
0100
0000
0010
0000
1000
0000
0001
0010
0000
1000
0000
0010
0000
0100
,
1000
0000
0001
0000
0100
0000
0010
0000
1000
0001
0000
0001
1000
0000
0200
0000
,
0320
0000
0032
0000
1003
0000
0010
0000
0100
0001
0000
0001
2000
0000
0000
0000
,
3001
0000
0020
0000
0000
0230
0000
0000
,
2300
0000
3020
0000
0000
0230
0000
0000
,
0302
0000
2003
0000
0000
3200
0000
0000
,
0302
0000
2003
0000
0000
3020
0000
0000
,
0032
0000
2003
0000
0000
3020
0000
0000
,
0230
0000
0302
0000
0000
0023
0000
0000
,
0230
0000
2300
0000
0000
3020
0000
0000
,
0032
0000
0203
0000
0000
2300
0000
0000
,
3000
0000
0000
0000
;

//--------------- dance-single - Talkion ----------------
#NOTES:
     dance-single:
     Talkion:
     Challenge:
     16:
     0,0,0,0,0:
0000
0000
0000
0000
,
0000
0000
0000
0000
,
0001
0000
0010
0000
0001
0000
0010
0000
0100
0000
0000
1100
0000
0000
0101
0000
,
0000
0000
0100
0000
1000
0000
0100
0000
0010
0000
0000
1010
0000
0000
0000
0000
,
0010
0000
0100
0000
0010
0000
0100
0000
0001
0000
0000
0011
0000
0000
1020
0000
,
0000
0000
0130
0004
4000
3003
1001
0000
,
2000
0000
3200
0000
0310
0001
0000
1000
0000
0001
0000
0100
0010
0000
0100
0000
,
0001
0000
1000
0000
0100
0010
0000
1000
0000
0010
0000
0100
1000
0001
1000
0010
,
0100
0000
0010
0000
0100
0001
0000
1000
0000
0100
0000
0010
0100
0000
1000
0000
,
0010
0100
0010
0000
0100
0001
0000
1000
0100
0010
0001
1000
0001
0000
0100
0000
,
0010
1000
0000
0001
0000
1000
0000
0100
0010
0000
0100
0000
1000
0000
0001
0000
,
0100
0010
0000
0001
0000
0010
0000
0100
0001
1000
0001
0010
0100
0000
1000
0000
,
0010
0000
0000
0100
0000
0000
0000
0000
0000
0100
0000
0000
0001
0000
0000
1000
0000
0000
0100
0000
0010
0000
0100
0000
0010
0000
0000
0000
0000
0000
0001
0000
0000
0000
0000
0000
1000
0000
0000
0000
0000
0000
0000
0000
0000
0000
0000
0000
,
0010
0000
0000
0000
0000
0000
0000
0000
0000
0000
0100
0000
0000
0000
0000
0000
0000
0000
0101
0000
0000
0000
0000
0000
1001
0000
0000
0000
0000
0000
0000
0000
0000
0000
0000
0000
0011
0000
0000
0000
0000
0000
0010
0000
0000
0100
0000
0000
,
0010
0000
0000
0000
0000
0000
0100
0000
1000
0000
0100
0000
1000
0000
0000
0000
0000
0000
0000
0000
0000
1000
0000
0000
0001
0000
0000
0000
0000
0000
0100
0000
0000
0000
0000
0000
0010
0000
0000
0000
0000
0000
1000
0000
0000
0001
0000
0000
,
1000
0000
0000
0000
0000
0000
0100
0000
0010
0000
0100
0000
0010
0000
0000
0000
0000
0000
0000
0000
0000
0010
0000
0000
0001
0000
0000
0000
0000
0000
0000
0000
0000
0000
0000
0000
0101
0000
0000
0000
0000
0000
0100
0000
0000
0010
0000
0000
,
0100
0000
0000
0000
0000
0000
0010
0000
1000
0000
0010
0000
1000
0000
0000
0000
0000
0000
0000
0000
0000
1000
0000
0000
0100
0000
0000
0000
0000
0000
0010
0000
0000
0000
0000
0000
0001
0000
0000
0000
0000
0000
0100
0000
0000
0010
0000
0000
,
1000
0000
0000
0000
0000
0000
0010
0000
1000
0000
0010
0000
1000
0000
0000
0100
0000
0000
0010
0000
0000
0001
0000
0000
1010
0000
0000
0000
0000
0000
0010
0000
0000
0100
0000
0000
0010
0000
0000
0000
0000
0000
0100
0000
0001
0000
0100
0000
,
0001
0000
0000
0000
0000
0000
0000
0000
0000
0001
0000
0000
1000
0000
0000
0000
0000
0000
0100
0000
0000
0000
0000
0000
0010
0000
0000
0000
0000
0000
0001
0000
0000
1000
0000
0000
0001
0000
0000
0000
0000
0000
0100
0000
0010
0000
0100
0000
,
0010
0000
0000
0000
0000
0000
0000
0000
0000
0010
0000
0000
1000
0000
0000
0000
0000
0000
0000
0000
0000
0000
0000
0000
1100
0000
0000
0000
0000
0000
0100
0000
0000
0010
0000
0000
0100
0000
0000
0000
0000
0000
0010
0000
0001
0000
0010
0000
,
0001
0000
0000
0000
0000
0000
0000
0000
0000
0001
0000
0000
1000
0000
0000
0000
0000
0000
0010
0000
0000
0000
0000
0000
0100
0000
0000
0000
0000
0000
0001
0000
0000
0000
0000
0000
1000
0000
0100
0000
1000
0000
0100
0000
1000
0000
0100
0000
,
0010
0000
0000
0010
0001
0000
0000
0000
0101
0000
0100
0000
1100
0000
0100
0000
,
0011
0010
1010
0010
0101
0001
1100
1000
,
0101
0000
0100
0000
0110
0000
0010
1000
0001
0000
0020
0000
0100
0000
0130
0000
,
1000
0010
0100
0000
1000
0000
0100
0010
1000
0000
0001
0010
0100
1000
0010
1000
,
0100
0010
0001
1000
0010
0000
0010
0100
0002
0000
0013
0000
0110
0000
0100
0000
,
1010
0010
0011
0010
1100
0100
0011
0001
,
0101
0000
0100
0000
1010
0000
1000
0001
0010
0000
0200
0000
1000
0000
1300
0000
,
0001
0000
0100
0000
0010
0000
0000
0000
0001
0000
0000
0000
0010
0000
0100
0000
0001
0000
0010
0100
0010
0100
0010
0100
0010
0100
0010
0100
1000
0000
0000
0000
,
0000
0000
0000
0000
1000
0000
0010
0100
0010
0100
0001
0000
0010
0100
0001
0100
,
0010
0000
0001
0000
0100
0000
0010
1000
0010
1000
0100
0000
M100
0001
0100
0001
,
2000
0000
3000
0000
0001
0000
0010
0100
0010
0100
1000
0000
0010
0100
1000
0100
,
0010
0000
1000
0000
0001
0000
0010
0100
0010
0100
0010
0000
0001
0000
0101
0000
,
1001
0000
0000
0000
0001
0000
1000
0010
0100
0001
1000
0000
0001
0001
0010
0100
,
0010
0000
0100
0000
1000
0000
0100
1000
0100
1000
0010
0000
M010
0001
0010
0001
,
0200
0000
0300
0000
0100
0000
0001
0010
0100
1000
0001
0000
1000
1000
0010
0100
,
0010
0000
0100
0000
0101
0000
0000
1100
0000
0100
0010
0000
0001
0000
1000
0000
,
0040
0400
0000
0000
,
0000
0000
0000
0000
,
0000
0000
0000
0000
,
0000
0000
0000
0000
,
0330
0000
0000
0000
0100
0000
0000
0110
0000
0000
1010
0000
1000
0000
0000
0110
,
0000
0000
0011
0000
0001
0000
0000
0101
0000
0000
1100
0000
1000
0000
0000
1010
,
0000
0000
0011
0000
0001
0010
0001
0010
0100
0010
0100
0010
0100
1000
0100
1000
,
0001
1000
0001
1000
0010
0100
0010
0001
0010
0100
0001
1000
0001
0010
0100
0010
,
1000
0010
0100
1000
0001
0000
0000
0000
0000
0000
0000
0000
0000
0000
0000
0000
,
0000
0000
0000
0000
0000
0000
1000
0010
0100
0000
0001
0010
0100
0000
0010
0001
,
1000
0000
0010
0000
0200
0000
0001
0000
0000
0001
0000
0000
0010
0000
0000
1000
,
0000
0000
0010
0000
0000
0001
0000
0000
0302
0000
0000
0000
0010
0000
0000
0010
,
0000
0000
0013
0000
0200
0000
1000
0000
0000
1000
0000
0000
0010
0000
0000
0001
,
0000
0020
0000
0330
0010
0004
4000
3003
,
1001
0000
0000
0000
0000
0000
0000
0000
0000
0000
0000
0000
1010
0000
0000
0000
0000
0000
0010
0000
0000
0100
0000
0000
0001
0000
0000
0000
0000
0000
1000
0000
0100
0000
1000
0000
0100
0000
0000
0000
0000
0000
0000
0000
0000
0100
0000
0000
,
0010
0000
0000
0000
0000
0000
0100
0000
0000
0000
0000
0000
1000
0000
0000
0000
0000
0000
0001
0000
0000
0100
0000
0000
0010
0000
0000
0000
0000
0000
1000
0000
0001
0000
1000
0000
0001
0000
0000
0000
0000
0000
0000
0000
0000
0001
0000
0000
,
0010
0000
0000
0000
0000
0000
0000
0000
0000
0000
0000
0000
0011
0000
0000
0000
0000
0000
0010
0000
0000
0100
0000
0000
1000
0000
0000
0000
0000
0000
0001
0000
0100
0000
0001
0000
0100
0000
0000
0000
0000
0000
0000
0000
0000
0100
0000
0000
,
0010
0000
0000
0000
0000
0000
1000
0000
0000
0000
0000
0000
0100
0000
0000
0000
0000
0000
0001
0000
0000
0100
0000
0000
0010
0000
0000
0000
0000
0000
0001
0000
1000
0000
0001
0000
1000
0000
0000
0000
0000
0000
0000
0000
0000
1000
0000
0000
,
0010
0000
0000
0000
0000
0000
0000
0000
0000
0000
0000
0000
0101
0000
0000
0000
0000
0000
0100
0000
0000
0010
0000
0000
1000
0000
0000
0000
0000
0000
0001
0000
0010
0000
0001
0000
0010
0000
0000
0000
0000
0000
0000
0000
0000
0010
0000
0000
,
0100
0000
0000
0000
0000
0000
0010
0000
0000
0000
0000
0000
0001
0000
0000
0000
0000
0000
1000
0000
0000
0010
0000
0000
0100
0000
0000
0000
0000
0000
0001
0000
1000
0000
0001
0000
1000
0000
0000
0000
0000
0000
0000
0000
0000
1000
0000
0000
,
0100
0000
0000
0000
0000
0000
0000
0000
0000
0000
0000
0000
1100
0000
0000
0000
0000
0000
0100
0000
0000
0010
0000
0000
0001
0000
0000
0000
0000
0000
1000
0000
0010
0000
1000
0000
0010
0000
0000
0000
0000
0000
0000
0000
0000
0010
0000
0000
,
0001
0000
0000
0000
0000
0000
0010
0000
0000
0000
0000
0000
1000
0000
0000
0000
0000
0000
0100
0000
0000
0000
0000
0000
0010
0000
0001
0000
0010
0000
0001
0000
0010
0000
0001
0000
1000
0000
0000
0000
0000
0000
0000
0000
0000
1000
0000
0000
,
0010
0000
0100
0001
2000
0000
0000
0000
3100
0000
0001
0100
0010
0000
0001
0000
,
1000
0000
0010
0000
0100
0000
1000
0000
0100
0000
0001
1000
0200
0000
0000
0320
,
0000
0000
0031
1000
0020
0000
0000
0000
0031
0000
0010
0100
0002
0000
0000
2003
,
0000
0000
3100
0010
0001
0000
1000
0000
0010
0000
0100
1000
0200
0000
0000
0302
,
0000
0000
0013
0001
2000
0000
0000
0000
3010
0000
0001
0010
0100
0000
0001
0000
,
1000
0000
0100
0000
0010
0000
1000
0000
0010
0000
0001
1000
0020
0000
0000
0230
,
0000
0000
0301
1000
0100
0010
0100
0010
0001
0100
0001
0100
0010
1000
0010
1000
,
0100
0000
0000
0001
0000
0000
0100
0000
0000
0010
0000
0000
0001
0000
0000
0100
0000
0000
0010
0000
0000
1000
0000
0000
0100
0000
0010
0000
0100
0000
0010
0000
0100
0000
0010
0000
0002
0000
0000
0000
0000
0000
0000
0000
0000
0000
0000
0000
,
1003
0000
0000
0000
0010
0000
1000
0000
0100
0010
0000
0001
0000
0100
0000
1000
,
0100
0000
0010
0000
1000
0000
0100
0000
1000
0010
0000
0001
0000
0010
0000
0100
,
0001
1000
0100
0010
0001
0000
1000
0000
0010
0100
0000
0010
0000
1000
0000
0100
,
0010
0000
0001
0000
0100
0010
0100
0000
0010
1000
0000
0010
0001
0000
0010
1000
,
0000
0000
0000
0010
0000
0000
0100
0000
0001
0000
0100
0000
0001
0000
0000
0000
0000
0000
1000
0000
0000
0000
0000
0000
0010
0000
0000
0100
0000
0000
0000
0000
0000
0001
0000
0000
0000
0000
0000
0010
0000
0000
0000
0000
0000
1000
0000
0000
,
0010
0000
0100
0000
1000
0000
0010
0000
1000
0100
0000
0001
0000
0100
0000
0010
,
0001
0000
0000
1000
0000
0000
0010
0000
0000
0100
0000
0000
0001
0000
0000
0000
0000
0000
1000
0000
0000
0000
0000
0000
0100
0000
0000
0010
0000
0000
0000
0000
0000
0010
0000
0000
0001
0000
0000
1000
0000
0000
0010
0000
0100
0000
0010
0000
,
0100
0000
0001
0000
1000
0000
0100
0000
0010
0001
0000
0001
2000
0000
0000
0000
,
3001
0000
0200
0000
0010
0320
0000
1000
,
2030
0000
3200
0000
0010
0320
0000
0001
,
0032
0000
0203
0000
1000
2300
0000
0001
,
3002
0000
0023
0000
1000
2030
0000
0001
,
3002
0000
0023
0000
0100
0230
0000
1000
,
2300
0000
3020
0000
0100
0230
0000
0001
,
0302
0000
2003
0000
0000
3200
0000
0000
,
0320
0000
0000
0000
0000
0000
0000
0000
0000
0000
0000
0000
0000
0000
0000
0000
0000
0000
0000
0000
0000
0000
0000
0000
0000
0000
0000
0000
0000
0000
0000
0000
0000
0000
0000
0000
0000
0000
0000
0000
0000
0000
0000
0000
0000
0000
0000
0000
0032
0000
0000
0000
0000
0000
0000
0000
0000
0000
0000
0000
0000
0000
0000
0000
0000
0000
0000
0000
0000
0000
0000
0000
0000
0000
0000
0000
0000
0000
0000
0000
0000
0000
0000
0000
0000
0000
0000
0000
0000
0000
0000
0000
0000
0000
0000
0000
0000
0000
0000
0000
0000
0000
0000
0000
0000
0000
0000
0000
0000
0000
0000
0000
0000
0000
0000
0000
0000
0000
0000
0000
2000
0000
0000
0000
0000
0000
0000
0000
0000
0000
0000
0000
0000
0000
0000
0000
0000
0000
0000
0000
0000
0000
0000
0000
0000
0000
0000
0000
0000
0000
0000
0000
0000
0000
0000
0000
0000
0000
0000
0000
0000
0000
0000
0000
0000
0000
0000
0000
3003
0000
0000
0000
0000
0000
0000
0000
0000
0000
0000
0000
0000
0000
0000
0000
0000
0000
0000
0000
0000
0000
0000
M00M
;
