#TITLE:Stranger;
#SUBTITLE:;
#ARTIST:James Landino;
#TITLETRANSLIT:;
#SUBTITLETRANSLIT:;
#ARTISTTRANSLIT:;
#GENRE:;
#CREDIT:;
#MUSIC:Stranger.ogg;
#BANNER:Stranger.png;
#BACKGROUND:Stranger-bg.png;
#CDTITLE:;
#SAMPLESTART:89.035;
#SAMPLELENGTH:16.842;
#SELECTABLE:YES;
#OFFSET:-0.000;
#BPMS:0.000=171.000
,158.000=85.500
,190.000=171.000
,352.000=85.500
;
#STOPS:;
#BGCHANGES:;
#FGCHANGES:;

//--------------- dance-single - Talkion ----------------
#NOTES:
     dance-single:
     Talkion:
     Easy:
     8:
     0,0,0,0,0:
0000
0000
0000
0000
,
0000
0000
0000
0000
,
0000
0000
0000
0000
,
0000
0000
0000
0000
,
0000
0000
0000
0000
,
0000
0000
0000
0000
,
2000
0010
0000
3010
,
0100
0001
1000
0100
,
0010
0021
0000
0100
,
0001
0130
1000
0001
,
0200
0010
0000
0310
,
2000
0000
0000
3020
0000
0000
0130
0000
,
0010
2000
0000
0001
,
0010
3001
1000
0100
,
0020
0001
0000
0031
,
0020
0000
0000
0230
0000
0000
1300
0000
,
0100
1200
0000
0010
,
1000
0310
0001
1000
,
0020
0100
0000
0130
,
0002
0000
0000
0203
0000
0000
0310
0000
,
1000
0002
0000
1000
,
0100
1003
0001
0010
,
0200
1000
0000
1300
,
0200
0000
0300
0002
0000
0000
0103
0000
,
0010
0000
0000
0022
0000
0033
0000
2002
,
0000
3003
0000
2010
0000
0000
3010
0000
,
0100
0001
0000
0010
,
0100
0000
0000
2200
3300
0000
0220
0330
,
0000
0022
0033
0000
1020
0000
0000
0000
,
0130
0001
1000
0000
,
0100
0010
0001
0100
,
0000
2200
0000
3300
0000
2002
0000
3003
,
0000
0102
0000
0000
0103
0000
0010
0000
,
1000
0000
0100
0010
,
0000
0022
0033
0000
0220
0330
0000
2200
,
3300
0201
0000
0310
,
1000
0001
0000
0010
,
1000
0020
0000
0000
,
0000
0000
0000
0000
,
0000
0000
0031
1000
,
0010
0000
0100
0010
,
1000
0000
0000
0000
0000
0000
0000
0000
0100
0000
0000
0100
0000
0000
0000
0000
,
0020
0000
0000
0000
0030
0000
0000
0000
0100
0000
0000
0100
0000
0000
0000
0000
,
2000
0000
3000
0000
0001
0100
0001
0000
,
0100
0010
0100
0000
0010
1000
0010
0000
,
1000
0100
1000
0000
0100
0010
0001
0000
,
0001
0010
0100
0000
1000
0010
0100
0000
,
0100
0010
1000
0000
0001
0000
0001
0000
,
0010
0000
1000
1000
,
0001
0000
0100
0100
,
1000
0000
0001
0001
,
1000
0000
0010
0100
,
0010
0100
0001
1000
,
0001
0000
1000
0000
0001
0010
0001
0000
,
1000
0010
1000
0000
0200
0000
0000
0000
,
0310
0110
0001
0100
,
0010
0000
1010
0000
1000
0001
1000
0001
,
1000
0100
0010
0001
,
0100
0000
0110
0000
0020
0000
0000
2030
,
0000
3100
0010
0100
,
1000
0000
1001
0000
0001
0100
0001
0100
,
0001
0100
0010
1000
,
0100
0000
0110
0000
0002
0000
0000
2003
,
0000
3100
1000
0010
,
0100
0000
0101
0000
0001
1000
0001
1000
,
0001
0010
0100
1000
,
0010
0000
0110
0000
0200
0000
0000
0302
,
0000
0013
0100
0001
,
0100
0000
1001
0000
1000
0010
0100
0001
,
1000
0000
0000
0000
0001
0000
0000
0000
0010
0000
0000
0010
0000
0000
0000
0000
,
0100
0000
0000
0100
0000
0000
0000
0000
1000
0000
0000
0000
0010
0000
0100
0000
,
0000
0001
1000
0000
0100
0000
0010
0000
,
0001
1000
0001
0000
0010
0000
0100
0000
,
1000
0001
0100
0010
,
1000
0001
1000
0000
0010
0000
0100
0000
,
0001
1000
0100
0001
,
0100
0010
0100
0000
0010
0000
0001
0000
,
1000
0001
0100
1000
,
0100
0010
0100
0000
0020
0000
0000
2030
,
0000
0000
3001
0000
0022
0033
0000
0220
,
0000
0330
0000
2100
0000
0000
0001
0000
,
0010
0000
3001
0000
2020
3030
0000
0220
,
0000
0330
0000
0102
0000
0000
1000
0000
,
0010
0000
1003
0000
2200
3300
0000
0220
,
0330
0000
0022
0033
0000
0202
0303
0000
,
0220
0000
0330
0000
2000
0000
0000
0002
,
0000
0000
0000
0000
,
0000
0000
0000
3003
,
1000
0000
0000
0100
0000
0000
0000
0000
0010
0000
0000
0001
0000
0000
0000
0000
,
0100
0000
0000
0010
0000
0000
0000
0000
1000
0000
0000
0001
0000
0000
0000
0000
,
1000
0000
0000
0100
0000
0000
0000
0000
0001
0000
0000
1000
0000
0000
0000
0000
,
0100
0000
0000
0001
0000
0000
0000
0000
1000
0000
0000
0000
0000
0000
0000
0000
;

//--------------- dance-single - Talkion ----------------
#NOTES:
     dance-single:
     Talkion:
     Medium:
     12:
     0,0,0,0,0:
0000
0000
0000
0000
,
0000
0000
0000
0000
,
0000
0000
0000
0000
,
0000
0000
0000
0000
,
0000
0000
0000
0000
,
0000
0000
0000
0000
,
2001
0000
0100
3200
0000
0010
0320
0000
,
0031
1000
0010
0100
0010
1000
0001
0000
,
0010
0001
0011
0000
2000
0010
0000
0100
,
0000
0010
0000
3001
1000
0010
0100
0000
,
0020
0000
1030
0200
0000
0310
0001
0000
,
0002
0010
0013
0200
1000
1300
0010
0000
,
0100
0000
0100
0000
0010
2000
0000
0100
,
0000
0001
0000
3100
0010
0001
1000
0000
,
0002
0000
0103
0020
0000
0130
1000
0000
,
0200
0010
0310
2000
0001
3001
0010
0000
,
0100
1000
1100
0000
0002
0100
0000
0010
,
0000
0100
0000
1003
0001
0100
0010
0000
,
0200
0000
0301
0020
0000
0130
1000
0000
,
2000
0100
3100
0020
0001
0031
0100
0000
,
0010
0000
0010
0000
0100
0002
0000
0010
,
0000
1000
0000
0013
0100
1000
0001
0000
,
2000
0000
3010
0200
0000
0310
0001
0000
,
0020
1000
1030
0200
0010
0310
0001
0000
,
1001
0000
1000
2200
0000
3300
0100
0220
,
0000
0330
0010
0022
0000
0033
0001
1000
,
0010
0000
0100
0010
1000
0100
0010
0001
,
1000
0000
0010
0220
0000
0330
0202
0000
,
0303
2002
0000
3003
2020
0000
0000
3030
,
1000
0001
0010
0000
0100
1000
0001
0100
,
0010
0100
0002
0000
1003
0000
1001
0000
,
0001
0022
0000
0033
0010
0220
0000
0330
,
0100
2200
0000
3300
1000
0001
0100
0000
,
0010
0100
0001
0010
0100
1000
0001
0000
,
0100
0220
0000
0330
2020
0000
3030
2002
,
0000
3003
0022
0000
0000
0033
0001
1000
,
0010
0000
0001
0010
1000
0100
0001
1000
,
0020
0000
0100
0230
0000
0000
0000
0000
,
0000
0000
0000
0000
,
0000
0000
1300
0010
,
0100
0000
0000
0001
0000
1000
0000
0100
0000
0000
0000
0000
0010
0000
0001
0000
,
2000
0000
0000
0000
0000
0000
0000
0000
3010
0000
0000
0100
0000
0001
0000
1000
,
0000
0000
0000
0000
0100
0000
0000
0000
0010
0000
0000
0100
0000
1000
0000
0000
,
0002
0000
0203
0000
0310
1000
0010
0100
,
0001
0010
0100
0010
0001
0100
0010
1000
,
0100
0010
0100
1000
0001
0100
1000
0100
,
0010
1000
0001
1000
0100
0001
0100
0010
,
0001
1000
0010
0100
0001
0000
0001
0000
,
0010
0010
1000
1000
,
0100
0100
0001
0001
,
0100
0100
1000
1000
,
0020
0030
0110
0000
0001
0010
0001
0000
,
0010
0100
0010
0000
0100
1000
0100
0000
,
1000
0000
0001
0000
1000
0000
0000
0000
0010
0000
0000
0010
0000
0000
1000
0000
,
0001
0000
0000
0001
0000
0000
0010
0000
0200
0000
0000
0000
0010
0000
0000
0000
,
0310
0001
1000
0000
1010
0000
0011
0000
,
1010
0000
0210
0000
0301
0010
0001
0010
,
0100
1000
0100
0000
1000
0000
0000
0000
1200
0000
0000
0000
0310
0000
0000
0000
,
0012
0000
0103
0000
2000
0100
3100
0002
,
0100
0103
0010
0000
0101
0000
1100
0000
,
0101
0000
0120
0000
1030
0100
0010
0001
,
1000
0010
1000
0010
1000
0000
0000
0000
0001
0000
0010
0000
0110
0000
0000
0000
,
1000
0010
0110
0000
0002
0010
0013
0200
,
1000
1300
0001
0000
0101
0000
1100
0000
,
1010
0000
0012
0000
1003
0010
1000
0001
,
0010
0100
0010
0000
0100
0000
0000
0000
1020
0000
0000
0000
0130
0000
0000
0000
,
0102
0000
0013
0000
2000
0010
3010
0002
,
0010
0013
0100
0000
1010
0000
0011
0000
,
0101
0000
2100
0000
3001
0010
1000
0010
,
0001
0100
0001
0100
0001
0000
0000
0000
1000
0000
0000
0100
0000
0110
0000
0000
,
0001
0000
0000
0100
0000
0110
0000
0000
2000
0000
0000
0000
0001
0000
3002
0000
,
0000
0013
0110
0000
0100
1000
0001
0000
,
0100
1000
0100
0000
0010
1000
0100
0010
,
0001
1000
0100
0000
0010
0001
1000
0000
,
0010
0001
0010
0000
0100
0001
0010
0100
,
1000
0001
0100
0000
1000
0100
0001
0000
,
1000
0100
0001
0000
0100
0010
0001
1000
,
0010
0100
0001
0000
1000
0010
0001
0000
,
1000
0010
0001
0000
0200
0010
0310
2000
,
0001
3001
0010
0000
0011
0000
0001
2002
,
0000
3003
1000
1020
0000
0000
0130
0001
,
1000
0100
0010
0000
1100
0000
1000
2002
,
0000
3003
0001
0201
0000
0000
0310
1000
,
0001
0010
0100
0000
1001
0000
1000
1200
,
0000
0310
0120
0000
0031
0201
0000
0310
,
1000
0001
0010
0100
2000
0000
0000
0002
,
0000
0000
0000
0000
,
0000
0000
0000
3003
,
0100
0001
0000
1000
0000
0100
0000
0000
0010
0100
0000
1000
0000
0001
0000
0000
,
0100
0010
0000
1000
0000
0010
0000
0000
0100
0001
0000
0010
0000
0001
0000
0000
,
0010
0001
0000
1000
0000
0010
0000
0000
0100
0010
0000
1000
0000
0001
0000
0000
,
0010
0100
0000
1000
0000
0010
0100
0001
1000
0000
0000
0000
0000
0000
0000
0000
;

//--------------- dance-single - Talkion ----------------
#NOTES:
     dance-single:
     Talkion:
     Hard:
     15:
     0,0,0,0,0:
0000
0000
0000
0000
,
0000
0000
0000
0000
,
0000
0000
0000
0000
,
0000
0000
0000
0000
,
0000
0000
0000
0000
,
0000
0000
0000
0000
,
1001
0000
0000
0000
0010
0000
0001
1000
0010
0000
0100
0000
0001
0010
0001
0000
,
0100
0000
0010
1000
0001
0000
0010
0000
0100
1000
0100
1000
0001
0000
0000
0000
,
0110
0110
1001
0000
0001
1000
0010
0200
,
0000
0000
0010
0000
0000
0000
0310
1000
0001
0000
0010
0000
0100
0000
0000
0000
,
0100
1000
0001
0200
0000
0010
0000
0310
,
1000
0100
1000
0100
0010
0000
0001
0100
0001
0100
0010
0000
1000
0000
0000
0000
,
0001
0100
0010
1000
0100
0010
0100
2000
,
0000
0000
0010
0000
0000
0000
3010
0100
0001
0000
0010
0000
0100
0000
0000
0000
,
0100
0010
0001
2000
0000
0010
0000
3010
,
0100
0001
0100
0001
1000
0000
0100
1000
0100
1000
0001
0000
0010
0000
0000
0000
,
0110
0110
1001
0000
1000
0001
0100
0020
,
0000
0000
0100
0000
0000
0000
0130
0001
1000
0000
0100
0000
0010
0000
0000
0000
,
0010
0001
1000
0020
0000
0100
0000
0130
,
0001
0010
0001
0010
0100
0000
1000
0010
1000
0010
0100
0000
0001
0000
0000
0000
,
1000
0100
0001
0100
0010
1000
0010
0002
,
0000
0000
0100
0000
0000
0000
0103
0010
1000
0000
0100
0000
0010
0000
0000
0000
,
0010
0100
1000
0002
0000
0100
0000
0103
,
0010
1000
0001
0010
0001
0000
0100
0001
1000
0100
1000
0000
0001
0000
0000
0000
,
0201
0000
0310
0120
0000
1030
0001
0021
,
0000
0000
0130
0000
1000
0000
1002
0000
0000
0000
0103
0000
0010
1000
0010
1000
,
0010
0000
0100
0000
0001
0010
0001
0010
0001
0000
1000
0000
0100
0010
0100
0010
,
0100
1000
0010
0210
0000
0301
0021
0000
,
0130
2100
0000
3001
0201
0000
0310
1000
,
0001
0010
0001
0010
0001
0000
0100
0000
0010
1000
0010
1000
0010
0000
0100
0000
,
0001
1000
0001
1000
0001
0000
0010
0000
0100
0000
0000
0000
1020
0000
0000
0000
,
0130
0210
0000
0301
1000
1200
0000
0310
,
0001
0000
2001
0000
0000
0000
3010
0000
0100
0001
0100
0001
1000
0000
0010
0000
,
1000
0100
1000
0100
0010
0000
0001
0000
0010
0100
0010
0100
1000
0000
0001
0000
,
0100
0120
0000
1030
1200
0000
0310
0012
,
0000
0000
1003
0000
1020
0000
0000
0000
0130
0000
0001
0000
1000
0100
0010
0100
,
1000
0000
0010
0000
0100
0001
1000
0001
0100
0000
0010
0000
1000
0010
0100
0001
,
1000
0100
0010
0002
0000
0000
0000
0000
,
0000
0000
0000
0000
,
0000
0000
0000
0000
0000
0000
0000
0000
0103
0000
0000
0010
1000
0001
0000
0000
,
0010
0000
0000
0100
0000
1000
0000
0001
0000
0000
0000
0100
0010
0000
1000
0000
,
0002
0000
0000
0000
0000
0000
0013
0000
0100
0000
0000
1000
0000
0001
0000
0200
,
0000
0000
0000
0000
0310
0000
0100
0000
0001
0000
0000
1000
0000
0100
0000
0000
,
0020
0000
0000
0000
0032
0000
0000
0000
1003
0000
0010
0000
1010
0000
1000
0001
,
0100
0001
1000
0000
0100
0000
0100
0010
0001
0000
0100
0000
0101
0000
0001
1000
,
0010
1000
0001
0000
0010
0000
0010
0100
1000
0000
0010
0000
0110
0000
0100
0001
,
1000
0100
0010
0000
0100
0000
0100
1000
0001
0000
0100
0000
0110
0000
0010
1000
,
0001
0010
0100
0000
0010
0000
0010
0001
1000
0000
0000
0000
1000
0000
0000
0000
,
0010
0010
0001
0001
,
0100
0100
1000
1000
,
0100
0100
0001
0001
,
0020
0030
0110
0000
1000
0010
1000
0010
,
1000
0100
1000
0100
0010
0001
0010
0001
,
0100
0000
0001
0000
0100
0000
0001
0000
1000
0000
0010
0100
0000
0010
0100
0000
,
0001
0000
1000
0100
1000
0100
0010
0001
2000
0000
0000
0000
0001
0000
0000
0000
,
3001
0100
0110
0000
1100
0000
0101
0000
,
1100
0000
0000
0000
0110
0000
0010
0000
0001
0100
0001
0100
0010
0100
0010
0100
,
0010
1000
0001
0000
0010
0000
0100
0000
1100
0000
0010
0000
0110
0000
0000
0000
,
0101
0000
0010
0000
0110
0000
0000
0000
1000
0100
0010
0100
1000
0000
0001
0100
,
0010
0100
0001
0000
0100
0000
0010
0000
1010
0000
0000
0000
0011
0000
0010
0100
,
1000
0000
0020
0000
0100
0000
0130
0000
0001
0010
0001
0010
0001
0100
0010
1000
,
0100
1000
0100
1000
0001
0000
0100
0000
0020
0000
1000
0000
1030
0000
0001
0010
,
0200
0000
0010
0000
0310
0000
0001
1000
0001
0100
0010
1000
0010
0000
1000
0100
,
0010
0001
0010
0000
0100
0000
0010
0000
0011
0000
0000
0000
1010
0000
0000
0000
,
0011
0000
0000
0000
0110
0000
0100
0000
1000
0010
1000
0010
0100
0010
0100
0010
,
0100
0001
1000
0000
0100
0000
0010
0000
0011
0000
0100
0000
0110
0000
0000
0000
,
1010
0000
0100
0000
0110
0000
0000
0000
0001
0010
0100
0010
0001
0000
1000
0010
,
0100
0010
1000
0000
0010
0000
0100
0000
0101
0000
0000
0000
1100
0000
0100
0010
,
0001
0000
0200
0000
0010
0000
0310
0000
1000
0100
0010
0100
0010
0001
0100
0010
,
1000
0100
0010
0100
0010
0000
0001
0000
0100
0000
0010
1000
0000
1010
0000
0000
,
1000
0000
0100
0010
0000
0011
0000
0000
0001
0000
0100
0010
0100
0000
0210
0000
,
0000
0310
1001
0000
0001
0010
0100
1000
,
0010
0000
0100
0000
1000
0000
0100
0010
1000
0000
0100
0000
0100
0000
0001
0010
,
0001
0000
0100
0000
0100
0000
1000
0010
1000
0000
0100
0000
0010
0000
0001
0000
,
0100
0000
0010
0000
0001
0000
0010
0100
0001
0000
0010
0000
0010
0000
1000
0100
,
1000
0000
0010
0000
0010
0000
0001
0100
0001
0000
1000
0000
0100
0000
0001
0000
,
0100
0000
1000
0000
0010
0000
0100
0001
1000
0000
0100
0000
0100
0000
0001
1000
,
0010
0000
0100
0000
0100
0000
1000
0001
0100
0000
0010
0000
1000
0000
0001
0000
,
0010
0000
1000
0000
0010
0000
0001
0000
0100
0010
1000
0001
0010
0000
0100
0010
,
0001
1000
0010
0000
0100
0000
0001
0000
0021
0000
0000
0000
0130
0000
0210
0000
,
0000
0000
1300
0000
0001
0000
2001
0000
0000
0000
0010
0000
3010
0000
0100
0001
,
1000
0001
0100
0000
0110
0000
0000
0000
1200
0000
0000
0000
0310
0000
0120
0000
,
0000
0000
0031
0000
1000
0000
1002
0000
0000
0000
0100
0000
0103
0000
0010
1000
,
0001
1000
0010
0000
0110
0000
0000
0000
0012
0000
0000
0000
0013
0000
1020
0000
,
0000
1030
2100
0000
3100
0201
0000
0301
,
0011
0010
0100
1000
0020
0000
0000
0200
,
0000
0000
0000
0000
,
0000
0000
0000
0330
,
0002
0010
0000
0013
0000
0100
1000
0010
0200
0001
0000
0301
0000
0100
0001
1000
,
0200
0010
0000
0310
0000
0100
0010
0001
2000
0010
0000
3010
0000
1000
0100
0010
,
0002
0100
0000
0103
0000
0010
1000
0001
0020
0100
0000
0130
0000
0010
0001
1000
,
0020
0100
0000
0130
0000
0010
0100
0001
1000
0000
0000
0000
0000
0000
0000
0000
;
