#TITLE:SEVEN ~漆戒~;
#SUBTITLE:;
#ARTIST:NAOKI feat.小坂りゆ;
#TITLETRANSLIT:;
#SUBTITLETRANSLIT:;
#ARTISTTRANSLIT:;
#GENRE:;
#CREDIT:;
#MUSIC:SEVEN.ogg;
#BANNER:SEVEN.png;
#BACKGROUND:SEVEN-bg.png;
#CDTITLE:;
#SAMPLESTART:74.328;
#SAMPLELENGTH:15.000;
#SELECTABLE:YES;
#OFFSET:1.543;
#BPMS:0.000=155.000;
#STOPS:;
#BGCHANGES:;
#FGCHANGES:;

//--------------- dance-single - Talkion ----------------
#NOTES:
     dance-single:
     Talkion:
     Medium:
     10:
     0,0,0,0,0:
0000
0000
0000
0000
,
0000
0000
0000
0000
,
0000
0000
0000
0000
,
0000
0000
0000
0000
,
0000
0000
0000
0000
,
1000
0000
0100
0000
1000
0100
1000
0000
,
0001
0000
0100
0000
0001
0100
0001
0000
,
1000
0000
0100
0000
0010
0100
0010
0000
,
0001
0000
1000
0000
0001
1000
0001
0000
,
0200
0000
0000
0000
0010
0000
0000
0000
0310
0000
0000
1000
0000
0000
0100
0000
,
0010
0000
0000
0001
0000
0000
0100
0000
0020
0000
0000
0000
0030
0000
0000
0000
,
2000
0000
0000
0000
0001
0000
0000
0000
3001
0000
0000
0010
0000
0000
0100
0000
,
1000
0000
0000
0010
0000
0000
0100
0000
0002
0000
0000
0000
0003
0000
0000
0000
,
0020
0000
0000
0000
0100
0000
0000
0000
0130
0000
0000
1000
0000
0000
0010
0000
,
0100
0000
0000
0001
0000
0000
0010
0000
0200
0000
0000
0000
0300
0000
0000
0000
,
1000
0000
0000
0100
0000
0000
0001
0000
0100
0000
0000
1000
0000
0000
0001
0000
,
0100
0000
0000
1000
0000
0000
0100
0000
0001
0000
0000
0000
1001
0000
0000
0000
,
1000
0000
0000
1000
0000
0000
0010
0000
0100
0000
0000
0100
0000
0000
0001
0000
,
1000
0000
0000
1000
0000
0000
0100
0000
0010
0000
0000
0000
0001
0000
1000
0000
,
0001
0000
0000
0001
0000
0000
0010
0000
0100
0000
0000
0100
0000
0000
1000
0000
,
0001
0000
0000
0001
0000
0000
0100
0000
0010
0000
0000
0000
1000
0000
0001
0000
,
1000
0000
0000
0100
0000
0000
0100
0000
0001
0000
0000
0001
0000
0000
0100
0000
,
1000
0000
0000
1000
0000
0000
0001
0000
0100
0000
0000
0000
0010
0000
0100
0000
,
0010
1100
0101
1001
,
1000
0000
0000
0100
0000
0000
0001
0000
0010
0000
0000
0000
1000
0000
0000
0000
,
0001
0000
0000
0001
0000
0000
0100
0000
0010
0000
0000
0010
0000
0000
1000
0000
,
0100
0000
0000
0100
0000
0000
0010
0000
0001
0000
0000
0000
1000
0000
0001
0000
,
1000
0000
0000
1000
0000
0000
0010
0000
0100
0000
0000
0100
0000
0000
0001
0000
,
0010
0000
0000
0010
0000
0000
0100
0000
1000
0000
0000
0000
0001
0000
1000
0000
,
0001
0000
0000
0001
0000
0000
0100
0000
1000
0000
0000
1000
0000
0000
0100
0000
,
0001
0000
0000
0001
0000
0000
0010
0000
0100
0000
0000
0000
0010
0000
0100
0000
,
0010
0101
1100
1001
,
0110
0000
0000
0110
0000
0000
0110
0000
0110
0000
0000
0000
2000
0000
0000
0000
,
0002
0000
0000
0000
,
0000
0000
0000
0000
,
0000
0000
0000
0000
,
0000
0000
0000
0000
,
0000
0000
0000
0000
,
0000
0000
0000
0000
,
0000
0000
0000
0000
,
0000
0000
0000
3003
,
0002
0000
0010
1000
,
0203
0000
1000
0000
,
0320
0000
1000
0001
,
0230
0000
0001
0000
,
0302
0000
0100
1000
,
0023
0000
1000
0000
,
0230
0000
1000
0001
,
0020
0000
0000
0330
,
0001
1000
0001
0100
0010
1000
0001
1000
,
0100
0010
1001
1100
,
0001
1000
0001
0010
0100
1000
0001
1000
,
0010
0100
1001
1010
,
0001
0010
0100
1000
0001
0100
1000
0100
,
0001
1000
0011
1010
,
0001
0000
0000
0101
0000
0000
0000
0000
1000
0000
0000
1100
0000
0000
0000
0000
,
0110
0000
0000
0110
0000
0000
0110
0000
0220
0000
0000
0000
0330
0000
0000
0000
,
0001
0000
0000
0100
0000
0000
1000
0000
0100
0000
0000
0001
0000
0000
0010
0000
,
1000
0000
0000
0010
0000
0000
0001
0000
1000
0000
0001
0000
1000
0000
0000
0000
,
0010
0000
0000
0001
0000
0000
0010
0000
1000
0000
0000
0100
0000
0000
0001
0000
,
0100
0000
0000
1000
0000
0000
0010
0000
0100
0000
0010
0000
0100
0000
0000
0000
,
0001
0000
0000
1000
0000
0000
0100
0000
0001
0000
0000
1000
0000
0000
0010
0000
,
0001
0000
0000
1000
0000
0000
0001
0000
0100
0000
0001
0000
0100
0000
0000
0000
,
0010
0000
0000
1000
0000
0000
0010
0000
0001
0000
0000
1000
0000
0000
0100
0000
,
0001
0000
0000
0010
0000
0000
0100
0000
0010
0000
0100
0000
0010
0000
0000
0000
,
0001
0000
0000
1000
0000
0000
0010
0000
0001
0000
0000
1000
0000
0000
0100
0000
,
0010
0000
0000
1000
0000
0000
0100
0000
0010
0000
0100
0000
0010
0000
0000
0000
,
1000
0000
0000
0010
0000
0000
0001
0000
1000
0000
0000
0010
0000
0000
0100
0000
,
1000
0000
0000
0100
0000
0000
0001
0000
1000
0000
0001
0000
1000
0000
0000
0000
,
0001
0000
0000
1000
0000
0000
0100
0000
0001
0000
0000
1000
0000
0000
0010
0000
,
0100
0000
0000
1000
0000
0000
0010
0000
0100
0000
0010
0000
0100
0000
0000
0000
,
0001
0000
0000
0010
0000
0000
1000
0000
0001
0000
0000
0100
0000
0000
1000
0000
,
0010
0000
0000
0100
0000
0000
0001
0000
1000
0000
0000
0000
0200
0000
0000
0000
,
0020
0000
0000
0000
,
0000
0000
0000
0000
,
0000
0000
0000
0330
,
0001
0000
0000
0010
0000
0000
0100
0000
1000
0000
0000
0000
0020
0000
0000
0000
,
0200
0000
0000
0000
,
0000
0000
0000
0000
,
0000
0000
0000
0000
,
0000
0000
0000
0000
,
0330
0000
0000
0000
;

//--------------- dance-single - Talkion ----------------
#NOTES:
     dance-single:
     Talkion:
     Hard:
     14:
     0,0,0,0,0:
0000
0000
0000
0000
,
0000
0000
0000
0000
,
0000
0000
0000
0000
,
0000
0000
0000
0000
,
0000
0000
0000
0000
,
1000
1000
0100
0100
,
0010
0010
0001
0001
,
1000
1000
0001
0001
,
0100
0000
0000
0000
0100
0000
0000
0000
0020
0000
0000
0000
1030
0000
0001
1000
,
0001
0000
0000
0000
0001
0000
0010
0001
0020
0000
0000
0230
0000
0000
2300
0000
,
3002
0000
0000
0203
0000
0000
2300
0000
3002
0000
0000
0000
0013
0000
0100
0010
,
0100
0000
0000
0000
0100
0000
0001
1000
0002
0000
0000
0023
0000
0000
2030
0000
,
3002
0000
0000
0203
0000
0000
0320
0000
0032
0000
0000
0000
1003
0000
0010
1000
,
0010
0000
0000
0000
0010
0000
0100
0010
0200
0000
0000
2300
0000
0000
3002
0000
,
0023
0000
0000
0230
0000
0000
0302
0000
2003
0000
0000
0000
3100
0000
0010
0001
,
0020
0000
0000
2030
0000
0000
3002
0000
0203
0000
0000
2300
0000
0000
3002
0000
,
0203
0000
0000
0320
0000
0000
2030
0000
3001
0000
0000
0000
1001
0000
0000
0000
,
0011
0000
0000
0010
0100
0000
1000
0000
1010
0000
0000
0010
0100
0000
0001
0000
,
0011
0000
0000
0010
0100
0000
1000
0000
1002
0000
0000
0000
0103
0000
0010
0100
,
0010
0000
0000
0010
1000
0000
0100
0000
0110
0000
0000
0010
0001
0000
0100
0000
,
0110
0000
0000
0010
1000
0000
0001
0000
2001
0000
0000
0000
3100
0000
0010
0001
,
0010
0000
0000
0010
0100
0000
1000
0000
1001
0000
0000
0001
0100
0000
0010
0000
,
0110
0000
0000
0100
0001
0000
1000
0000
2001
0000
0000
0000
3100
0000
0010
0001
,
0010
0000
0000
0010
0100
0000
0000
0100
1000
0000
0000
1000
0001
0000
0000
0001
,
0100
0000
0010
0100
0010
0000
1000
0000
1001
0000
0000
0000
0001
1000
0001
1000
,
0100
0000
0000
0100
0010
0000
0001
0000
0011
0000
0000
0010
0100
0000
1000
0000
,
1100
0000
0000
0100
0010
0000
0001
0000
1002
0000
0000
0000
0103
0000
0010
0100
,
0010
0000
0000
0010
1000
0000
0100
0000
1100
0000
0000
1000
0100
0000
0001
0000
,
0101
0000
0000
0100
1000
0000
0001
0000
2001
0000
0000
0000
3010
0000
0100
0010
,
0100
0000
0000
0100
0001
0000
0010
0000
0110
0000
0000
0100
0001
0000
0100
0000
,
1100
0000
0000
1000
0001
0000
1000
0000
2001
0000
0000
0000
3010
0000
0100
0001
,
0100
0000
0000
0100
0010
0000
1000
0000
0001
1000
0001
1000
0100
0010
0001
1000
,
0001
0000
0000
0101
0000
0000
0110
0000
0110
0000
0000
0000
1000
0001
1000
0002
,
2000
0000
0000
0000
,
0000
0000
0000
0000
,
0000
0000
0000
0000
,
0000
0000
0000
3003
,
0220
0000
0000
0000
,
0000
0000
0000
0000
,
0000
0000
0000
0000
,
0000
0000
0000
0330
,
2000
0000
0000
3020
0000
0000
0032
0000
0023
0000
0000
2030
0000
0000
3002
0000
,
0023
0000
0100
0100
,
0032
0000
0000
0203
0000
0000
2300
0000
3200
0000
0000
0302
0000
0000
2003
0000
,
3200
0000
0010
0010
,
2300
0000
0000
3020
0000
0000
0032
0000
2003
0000
0000
3200
0000
0000
0320
0000
,
2030
0000
0010
0010
,
3002
0000
0000
0023
0000
0000
2030
0000
3002
0000
0000
0203
0000
0000
0320
0000
,
0032
0000
0000
0003
,
1000
0000
0010
1000
0010
0000
0001
0000
0010
0000
0100
0001
0100
0000
0010
0000
,
2000
0000
0000
0000
3001
0000
0010
0001
0010
0000
0000
0000
0110
0000
0001
1000
,
0001
0000
0100
0001
0100
0000
1000
0000
0100
0000
0010
1000
0010
0000
0100
0000
,
0002
0000
0000
0000
1003
0000
0100
1000
0100
0000
0000
0000
0110
0000
1000
0001
,
1000
0000
0010
0001
0010
0000
0100
0000
0001
0000
0010
1000
0010
0000
0100
0000
,
2000
0000
0000
0000
3001
0000
0100
0010
0100
0000
0000
0000
0110
0000
0001
1000
,
0001
0000
0000
0101
0000
0000
0100
0000
0110
0000
0000
1100
0000
0000
0100
0000
,
0110
0000
0000
1001
0000
0000
0110
0000
0110
0000
0000
0000
1000
0001
1000
0001
,
0100
0000
0010
1000
0000
1000
0100
0000
0100
0000
0100
0010
0000
0010
0001
0000
,
0001
0000
0001
1000
0000
1000
0010
0000
0200
0000
0000
0000
0310
0000
1000
0001
,
1000
0000
0100
0010
0000
0010
0001
0000
0001
0000
0001
0100
0000
0100
0010
0000
,
0010
0000
0010
1000
0000
1000
0100
0000
0020
0000
0000
0000
0130
1000
0100
1000
,
0001
0000
0100
0010
0000
0010
1000
0000
1000
0000
1000
0100
0000
0100
0010
0000
,
0010
0000
0010
0001
0000
0001
0100
0000
0020
0000
0000
0000
0130
0000
0001
1000
,
0001
0000
0010
1000
0000
1000
0010
0000
0010
0000
0010
0001
0000
0001
0100
0000
,
0100
0000
0100
0010
0000
0010
1000
0000
0002
0000
0000
0000
1003
0100
1000
0100
,
0010
0000
0001
1000
0000
1000
0010
0000
0010
0000
0010
0100
0000
0100
1000
0000
,
1000
0000
1000
0100
0000
0100
0001
0000
2000
0000
0000
0000
3001
0000
0100
0001
,
0100
0000
0001
1000
0000
1000
0100
0000
0100
0000
0100
0010
0000
0010
1000
0000
,
1000
0000
1000
0010
0000
0010
0001
0000
2000
0000
0000
0000
3001
0010
0001
0010
,
0100
0000
0010
0001
0000
0001
0100
0000
0100
0000
0100
1000
0000
1000
0010
0000
,
0010
0000
0010
0001
0000
0001
0100
0000
0020
0000
0000
0000
1030
0000
0001
1000
,
0001
0000
0010
0100
0000
0100
1000
0000
1000
0000
1000
0001
0000
0001
0100
0010
,
0100
0000
0000
1010
0000
0000
1001
0000
1001
0000
0000
0000
0001
0010
0100
2000
,
0002
0000
0000
0000
,
0000
0000
0000
0000
,
0000
0000
0000
3003
,
2000
0000
0000
3020
0000
0000
0230
0000
0302
0000
0000
0000
0023
0000
0000
0000
,
0200
0000
0000
0000
,
0000
0000
0000
0000
,
0000
0000
0000
0000
,
0000
0000
0000
0000
,
0330
0000
0000
0000
;

//--------------- dance-double - Talkion ----------------
#NOTES:
     dance-double:
     Talkion:
     Hard:
     14:
     0,0,0,0,0:
00000000
00000000
00000000
00000000
,
00000000
00000000
00000000
00000000
,
00000000
00000000
00000000
00000000
,
00000000
00000000
00000000
00000000
,
00000000
00000000
00000000
00000000
,
10000000
10000000
01000000
01000000
,
00100000
00100000
00010000
00010000
,
00001000
00001000
00000100
00000100
,
00000010
00000000
00000000
00000000
00000010
00000000
00000000
00000000
00000002
00000000
00000000
00000000
00001003
00000000
00000010
00001000
,
00000010
00000000
00000000
00000000
00001000
00000000
00000100
00010000
00000200
00000000
00000000
00020300
00000000
00000000
02030000
00000000
,
23000000
00000000
00000000
30020000
00000000
00000000
02030000
00000000
03100000
00000000
00000000
00000000
00100000
00000000
01000000
00010000
,
01000000
00000000
00000000
00000000
00010000
00000000
00100000
00001000
00200000
00000000
00000000
00302000
00000000
00000000
00003020
00000000
,
00000032
00000000
00000000
00002003
00000000
00000000
00003020
00000000
00000130
00000000
00000000
00000000
00000100
00000000
00000001
00001000
,
00000001
00000000
00000000
00000000
00000010
00000000
00000100
00001000
00000200
00000000
00000000
00020300
00000000
00000000
00230000
00000000
,
20300000
00000000
00000000
32000000
00000000
00000000
03200000
00000000
00310000
00000000
00000000
00000000
00010000
00000000
01000000
00100000
,
02000000
00000000
00000000
03020000
00000000
00000000
00032000
00000000
00003200
00000000
00000000
00000302
00000000
00000000
00000203
00000000
,
00020300
00000000
00000000
00032000
00000000
00000000
00203000
00000000
00310000
00000000
00000000
00000000
10010000
00000000
00000000
00000000
,
10100000
00000000
00000000
00100000
00010000
00000000
00001000
00000000
00001100
00000000
00000000
00000100
00000001
00000000
00000010
00000000
,
00000110
00000000
00000000
00000100
00010000
00000000
00001000
00000000
00021000
00000000
00000000
00000000
01030000
00000000
10000000
00010000
,
10000000
00000000
00000000
01000000
00010000
00000000
00001000
00000000
00001010
00000000
00000000
00000010
00000001
00000000
00000100
00000000
,
00000110
00000000
00000000
00000010
00010000
00000000
00001000
00000000
00021000
00000000
00000000
00000000
00030100
00000000
00000010
00000100
,
00000010
00000000
00000000
00000001
00000100
00000000
00001000
00000000
00011000
00000000
00000000
00010000
01000000
00000000
10000000
00000000
,
10010000
00000000
00000000
00010000
01000000
00000000
00100000
00000000
01200000
00000000
00000000
00000000
10300000
00000000
00010000
01000000
,
00010000
00000000
00000000
00100000
00001000
00000000
00000000
00000010
00010000
00000000
00000000
00100000
00001000
00000000
00000000
00010000
,
00001000
00000000
00010000
00001000
00010000
00000000
00000100
00000000
00000110
00000000
00000000
00000000
00000001
00001000
00000001
00001000
,
00000010
00000000
00000000
00000100
00001000
00000000
00010000
00000000
01010000
00000000
00000000
01000000
10000000
00000000
00100000
00000000
,
01100000
00000000
00000000
01000000
00001000
00000000
00010000
00000000
00012000
00000000
00000000
00000000
00003010
00000000
00000100
00001000
,
00000100
00000000
00000000
00000010
00001000
00000000
00010000
00000000
00110000
00000000
00000000
00100000
10000000
00000000
01000000
00000000
,
01100000
00000000
00000000
00100000
00001000
00000000
00010000
00000000
00012000
00000000
00000000
00000000
00003100
00000000
00000001
00001000
,
00000001
00000000
00000000
00000010
00000100
00000000
00010000
00000000
00011000
00000000
00000000
01000000
00100000
00000000
00010000
00000000
,
10010000
00000000
00000000
10000000
00100000
00000000
01000000
00000000
01200000
00000000
00000000
00000000
00310000
00000000
00001000
00010000
,
00001000
00000000
00000000
01000000
00010000
00000000
00000000
00000100
00001000
00000000
00000000
00000000
00010000
00001000
00010000
00001000
,
00000100
00000000
00000000
00000110
00000000
00000000
00001001
00000000
00001001
00000000
00000000
00000000
00000001
00000010
00000100
00000020
,
00000200
00000000
00000000
00000000
,
00000000
00000000
00000000
00000000
,
00000000
00000000
00000000
00000000
,
00000000
00000000
00000000
00000330
,
00022000
00000000
00000000
00000000
,
00000000
00000000
00000000
00000000
,
00000000
00000000
00000000
00000000
,
00000000
00000000
00000000
00033000
,
20000000
00000000
00000000
30200000
00000000
00000000
00320000
00000000
00032000
00000000
00000000
00023000
00000000
00000000
00230000
00000000
,
20300000
00000000
30010000
00001000
,
00000002
00000000
00000000
00000023
00000000
00000000
00002030
00000000
00023000
00000000
00000000
00032000
00000000
00000000
00003020
00000000
,
00000032
00000000
00001003
00010000
,
20000000
00000000
00000000
30020000
00000000
00000000
02030000
00000000
03020000
00000000
00000000
00032000
00000000
00000000
00003200
00000000
,
00000320
00000000
00001030
00010000
,
00200000
00000000
00000000
02300000
00000000
00000000
03020000
00000000
00032000
00000000
00000000
00003200
00000000
00000000
00002300
00000000
,
00003002
00000000
00000000
00000003
,
00000100
00000000
00001000
00010000
00001000
00000000
00010000
00000000
01000000
00000000
00010000
00001000
00010000
00000000
00001000
00000000
,
00000100
00000000
00000000
00000000
00000100
00000001
00000100
00000000
00001000
00000000
00010000
00000000
00011000
00000000
00000000
00000000
,
00010000
00000000
00100000
10000000
00100000
00000000
00010000
00000000
00001000
00000000
00000010
00000001
00000010
00000000
00001000
00000000
,
00010000
00000000
00000000
00000000
00010000
00001000
00010000
00000000
01000000
00000000
00100000
00000000
10010000
00000000
00000000
00000000
,
10000000
00000000
00100000
00010000
00100000
00000000
00010000
00000000
00001000
00000000
00000100
00000001
00000100
00000000
00000001
00000000
,
00001000
00000000
00000000
00000000
00001000
00000100
00001000
00000000
00000100
00000000
00010000
00000000
00011000
00000000
00000000
00000000
,
00110000
00000000
00000000
11000000
00000000
00000000
00011000
00000000
00011000
00000000
00000000
00000011
00000000
00000000
00001001
00000000
,
00001001
00000000
00000000
00010100
00000000
00000000
00011000
00000000
00011000
00000000
00000000
00000000
01100000
00000000
00000000
00000000
,
00010000
00000000
00100000
01000000
00000000
01000000
10000000
00000000
10000000
00000000
10000000
00100000
00000000
00100000
00010000
00000000
,
00010000
00000000
00010000
00001000
00000000
00001000
00000100
00000000
00000001
00000000
00001000
00000000
00001001
00000000
00000000
00000000
,
00001000
00000000
00000010
00000100
00000000
00000100
00000001
00000000
00000001
00000000
00000001
00000010
00000000
00000010
00001000
00000000
,
00001000
00000000
00001000
00010000
00000000
00010000
01000000
00000000
10000000
00000000
00010000
00000000
10010000
00000000
00000000
00000000
,
00010000
00000000
01000000
00100000
00000000
00100000
00010000
00000000
00010000
00000000
00010000
00001000
00000000
00001000
00000010
00000000
,
00000010
00000000
00000010
00000001
00000000
00000001
00000100
00000000
00000010
00000000
00001000
00000000
00001001
00000000
00000000
00000000
,
00001000
00000000
00000100
00000010
00000000
00000010
00001000
00000000
00001000
00000000
00001000
00010000
00000000
00010000
00100000
00000000
,
00100000
00000000
00100000
10000000
00000000
10000000
01000000
00000000
00100000
00000000
00010000
00000000
10010000
00000000
00000000
00000000
,
10000000
00000000
10000000
00100000
00000000
00100000
00010000
00000000
00010000
00000000
00010000
00001000
00000000
00001000
00000010
00000000
,
00000010
00000000
00000010
00000001
00000000
00000001
00001000
00000000
00000010
00000000
00000100
00000000
00000110
00000000
00000000
00000000
,
00000001
00000000
00000001
00000100
00000000
00000100
00001000
00000000
00001000
00000000
00001000
00010000
00000000
00010000
01000000
00000000
,
01000000
00000000
01000000
10000000
00000000
10000000
00010000
00000000
01000000
00000000
00100000
00000000
01100000
00000000
00000000
00000000
,
00010000
00000000
00010000
01000000
00000000
01000000
00100000
00000000
00100000
00000000
00100000
00010000
00000000
00010000
00001000
00000000
,
00001000
00000000
00001000
00000100
00000000
00000100
00000010
00000000
00001000
00000000
00000001
00000000
00001001
00000000
00000000
00000000
,
00001000
00000000
00001000
00000100
00000000
00000100
00000010
00000000
00000010
00000000
00000010
00001000
00000000
00001000
00010000
00001000
,
00010000
00000000
00000000
00101000
00000000
00000000
00110000
00000000
00110000
00000000
00000000
00000000
10000000
00010000
10000000
00200000
,
02000000
00000000
00000000
00000000
,
00000000
00000000
00000000
00000000
,
00000000
00000000
00000000
03300000
,
00002000
00000000
00000000
00003200
00000000
00000000
00000302
00000000
00000023
00000000
00000000
00000000
00002030
00000000
00000000
00000000
,
00020000
00000000
00000000
00000000
,
00000000
00000000
00000000
00000000
,
00000000
00000000
00000000
00000000
,
00000000
00000000
00000000
00000000
,
00033000
00000000
00000000
00000000
;
