#TITLE:Quon;
#SUBTITLE:;
#ARTIST:Feryquitous;
#TITLETRANSLIT:;
#SUBTITLETRANSLIT:;
#ARTISTTRANSLIT:;
#GENRE:;
#CREDIT:;
#MUSIC:Quon.ogg;
#BANNER:;
#BACKGROUND:;
#CDTITLE:;
#SAMPLESTART:85.078;
#SAMPLELENGTH:14.999;
#SELECTABLE:YES;
#OFFSET:2.540;
#BPMS:0.000=94.500
,36.000=189.000
,130.500=94.500
,130.750=189.000
,131.000=378.000
,131.500=189.000
,164.000=94.500
,179.500=189.000
,180.000=94.500
,202.000=189.000
,261.000=378.000
,261.750=189.000
,262.125=94.500
,262.500=378.000
,263.250=189.000
,263.625=94.500
,264.000=189.000
,285.000=94.500
;
#STOPS:179.500=0.079
,179.750=0.079
,202.000=0.079
,202.250=0.079
,202.500=0.079
,202.750=0.079
;
#DISPLAYBPM:94.500:189.000;
#BGCHANGES:;
#FGCHANGES:;

//--------------- dance-single - Talkion ----------------
#NOTES:
     dance-single:
     Talkion:
     Hard:
     14:
     0,0,0,0,0:
0000
0000
0000
0000
,
0000
0000
0000
0000
,
0000
0000
0000
0000
,
1000
0000
0000
0100
0000
0000
0001
0000
0000
1000
0000
0000
0010
0000
0000
0000
,
0001
0000
0000
0010
0000
0000
0100
0000
0000
1000
0001
0001
0100
0010
1000
0100
,
0010
0010
0001
0000
0011
0001
0000
1000
0001
0100
0020
0030
1000
0001
0010
0100
,
1000
0000
0001
0000
0000
0001
0000
0000
0101
0000
0100
0000
0010
0000
1000
0000
0000
0000
0001
0000
0000
1000
0000
0000
0100
0000
0010
0000
0001
0000
1000
0000
,
0001
0000
0001
0000
0100
0000
0000
0000
0110
0000
0020
0000
0000
0000
0030
0000
1000
0001
0010
0000
0002
0000
0000
0000
0103
0000
0100
0000
0010
0000
0000
0000
,
1000
0000
0001
0000
0020
0000
0030
0000
0100
0000
1000
0000
0001
0000
0000
0000
1000
0010
0100
0000
0001
0000
0000
1000
0000
0000
0100
0000
1000
0000
1000
0000
,
00M1
0100
0010
2000
0000
0001
3001
0000
,
1000
0100
0010
0000
1000
0010
0001
0000
,
1000
0001
0100
0020
0000
0031
0010
2000
,
0000
3001
1000
0100
1000
0001
0100
0000
,
0001
0010
0100
2000
0000
0001
3001
0000
,
1000
0010
0100
0000
1000
0100
0001
0000
,
1000
0001
0010
0200
0000
0301
0100
2000
,
0000
0000
3001
0000
1000
0100
1000
0000
0001
0000
0100
0000
0010
0000
0000
0000
,
1000
0010
0001
1000
0100
0001
1000
0010
,
0001
0010
0100
0001
1000
0100
1000
1000
,
0001
0100
1000
0001
0010
1000
0001
0100
,
1000
0100
0010
1000
0001
0010
0001
0001
,
1000
0010
0001
1000
0001
0010
1000
0001
,
0010
0100
0001
1000
0010
0001
1000
1000
,
0001
0100
1000
0001
0010
1000
0001
0100
,
0020
0000
0000
0000
1030
0010
1000
0000
0001
0000
0010
0000
0200
0000
0000
0000
,
1300
0000
0001
0010
0001
0000
1000
0010
,
0100
1000
0100
0010
1000
0000
0001
1000
,
0100
1000
0001
1000
0100
0000
0001
0100
,
2000
0000
0000
0000
3001
1000
0001
0000
0100
0000
0000
0000
0010
0000
0100
0010
,
1000
0000
0001
0100
0001
0000
1000
0100
,
0010
1000
0010
0100
1000
0000
0001
1000
,
0010
1000
0001
1000
0010
0000
0001
0010
,
2000
0000
0000
0000
3001
0000
1000
0000
0100
0010
0002
0000
0000
0000
1003
0000
,
1001
0000
0001
0100
1000
0000
0001
0010
,
1000
0010
0001
0010
0100
0001
1000
0000
,
0001
1000
0100
0001
1000
0000
0010
0001
,
1000
0010
1000
0000
0002
0000
0000
0000
0013
0000
0001
1000
0001
0000
0100
0000
,
0010
0000
1000
0010
0001
0000
1000
0100
,
0001
0100
1000
0100
0010
1000
0001
0000
,
1000
0001
0010
1000
0001
0000
0100
1000
,
0001
1000
0001
0000
0100
0000
0010
0000
1000
0000
0100
0000
0010
0000
0001
0000
,
1M00
1000
0000
0000
1010
0100
0000
0000
0000
0001
0000
0001
1001
0010
0000
0000
,
0001
0001
0000
0000
0101
0010
0000
0000
0000
1000
0000
1000
1001
0100
0000
0000
,
0010
0010
0000
0000
0011
0100
0000
0000
0000
1000
0000
1000
0110
0001
0000
0000
,
0100
0100
0000
0000
0101
0010
0000
0000
0000
1000
0001
1000
0100
0010
0001
0001
,
2000
0000
3010
0100
0001
1000
0100
0010
2000
0000
3010
0100
1000
0000
0001
0000
,
0200
0000
0310
1000
0001
0010
0100
1000
0020
0000
0130
0001
1000
0000
0100
0000
,
0002
0000
0103
0010
0001
2000
0000
0000
0010
0000
0000
0000
3001
1000
0100
0000
,
0010
0001
0001
1000
0001
0001
0100
0000
0000
0010
0010
1000
0001
0010
0100
0000
,
2100
0001
0000
0000
0010
3010
0000
0000
0102
1000
0000
0000
0010
0013
0000
0000
,
2100
0001
0000
0000
0010
3010
0000
0000
0100
0100
0010
0010
100M
0010
0100
0001
,
1000
0000
0002
0010
1003
0002
0100
1003
,
0001
0000
1000
0100
2000
0000
0000
0000
3001
0000
1000
0000
0010
0000
0001
0000
,
0010
0100
0002
1000
0013
0002
1000
0103
,
0001
0000
1000
0100
0020
0000
0000
0000
1030
0000
0010
0000
0001
0000
1000
0000
,
0001
0100
0010
0001
1000
0100
0010
1000
,
0001
0010
0100
0001
0100
1000
0010
0100
,
0001
0010
0100
1000
0001
0100
0010
0001
,
0000
0000
0010
0100
0010
0000
1000
0000
0001
0000
0010
0000
0000
0000
1000
0000
,
0010
0001
2000
0100
3001
2000
0010
3001
,
1000
0000
0001
0010
0002
0000
0000
0000
1003
0000
0001
0000
0100
0000
1000
0000
,
0100
0010
2000
0001
3100
2000
0001
3010
,
1000
0002
0000
0013
0001
1000
0010
0001
,
0010
0100
0001
1000
0001
0010
1000
0010
,
0100
0000
1001
0000
0000
0000
0110
0000
0000
0000
0001
0000
0010
0100
1000
0000
,
0001
0100
0110
0000
0000
0011
0000
0000
,
2010
0000
0000
0000
3002
0000
0000
0000
1003
0001
1000
0000
0100
0000
0010
0000
,
0000
0001
0000
0000
1000
0000
0010
0000
0100
0000
0001
0000
0001
0000
1000
0000
,
0001
0001
0010
0100
1000
0010
0100
0001
,
1001
0000
1000
0001
0100
0010
0010
0100
,
0000
0000
0001
0000
1000
0000
0100
0010
0001
1000
0100
0000
1000
0000
0002
0000
,
0000
0000
0003
0000
2M01
0000
0000
0010
0000
0000
0010
0000
3002
0000
0000
0010
,
0000
0000
1003
0000
0020
0000
0000
0130
0000
0001
0100
0010
2000
0000
0000
0100
,
0000
0000
3001
0000
0200
0000
0000
0310
0000
2000
0000
0000
3001
0000
0000
0000
,
0010
0000
0100
0000
2000
0000
0000
3200
0000
0000
0302
0000
0000
0000
0000
0000
,
0000
0203
0000
2300
,
0000
3020
0000
0230
,
0000
0002
0000
0000
,
0000
0000
0000
0303
;
