#TITLE:P-qoq;
#SUBTITLE:;
#ARTIST:owl * tree;
#TITLETRANSLIT:;
#SUBTITLETRANSLIT:;
#ARTISTTRANSLIT:;
#GENRE:Techno Pop;
#CREDIT:;
#MUSIC:P-qoq.ogg;
#BANNER:P-qoq.png;
#BACKGROUND:P-qoq-bg.png;
#CDTITLE:cdtitle.png;
#SAMPLESTART:22.684;
#SAMPLELENGTH:10.971;
#SELECTABLE:YES;
#OFFSET:0.631;
#BPMS:0.000=175.000;
#STOPS:;
#ORIGIN:;
#PREVIEWVID:;
#JACKET:P-qoq-jacket.png;
#CDIMAGE:;
#DISCIMAGE:;
#BGCHANGES:0.250=P-qoq.avi=1.000=1=0=0=StretchNoLoop==CrossFade==,
99999.000=-nosongbg-=1.000=0=0=0=StretchNoLoop====
;
#FGCHANGES:;

//--------------- dance-single - ----------------
#NOTES:
     dance-single:
     :
     Beginner:
     3:
     0.195243,0.244578,0.061772,0.05405,0,177,169,8,7,0,0,0,0,0,0.195243,0.244578,0.061772,0.05405,0,177,169,8,7,0,0,0,0,0:
0000
0000
0000
0000
,
0000
0000
0000
0000
,
0000
0000
0000
0000
,
0000
0000
0000
0000
,
0000
0000
0000
0000
,
1000
0000
0000
0000
,
1000
0000
0000
0000
,
0001
0000
0000
0000
,
0001
0000
0000
0000
,
0100
0000
0010
0000
,
0100
0000
0010
0000
,
0100
0000
0010
0000
,
0100
0000
0010
0000
,
0100
0000
0100
0000
,
0100
0000
0100
0000
,
0200
0000
0000
0000
,
0300
0000
0000
0000
,
0001
0000
0001
0000
,
0001
0001
0001
0000
,
1000
0000
1000
0000
,
1000
1000
1000
0000
,
0001
0000
0001
0000
,
0001
0001
0001
0000
,
1000
0000
1000
0000
,
1000
1000
1000
0000
,
0100
0000
0100
0000
,
0100
0100
0100
0000
,
0010
0000
0010
0000
,
0010
0010
0010
0000
,
0001
0000
0001
0000
,
1000
0000
1000
0000
,
0010
0000
0100
0000
,
0010
0000
0000
0000
,
1000
0000
0001
0000
,
1000
0000
0000
0000
,
0100
0000
0010
0000
,
0100
0000
0010
0000
,
0000
0000
0000
0000
,
0000
0000
0000
0000
,
1001
0000
0000
0000
,
0000
1001
0000
0000
,
0110
0000
0000
0000
,
0000
0110
0000
0000
,
1001
0000
0000
0000
,
0000
1001
0000
0000
,
0001
0000
1000
0000
,
2002
0000
3003
0000
,
1000
0000
0001
0000
,
1000
1000
1000
0000
,
0001
0000
0001
0000
,
1000
1000
1000
0000
,
0001
0000
1000
0000
,
0001
0001
0001
0000
,
1000
0000
0001
0000
,
2002
0000
3003
0000
,
0001
0001
0001
0000
,
0010
0000
0100
0000
,
1000
1000
1000
0000
,
0010
0000
0100
0000
,
0001
0001
0001
0000
,
0010
0000
0100
0000
,
1000
0000
1000
0000
,
0010
0000
0100
0000
,
0002
0000
0003
0000
,
2000
0000
3000
0000
,
0001
0000
1000
0000
,
0100
0000
0010
0000
,
0001
0000
0010
0000
,
0001
0001
0001
0000
,
1000
0000
0010
0000
,
1000
1000
1000
0000
,
0001
0000
0100
0000
,
0001
0001
0001
0000
,
1000
0000
0100
0000
,
1000
1000
1000
0000
,
0010
0000
0010
0000
,
0010
0010
0010
0000
,
0100
0000
0100
0000
,
0100
0100
0100
0000
,
0001
0001
0001
0000
,
0010
0000
0100
0000
,
1000
1000
1000
0000
,
0010
0000
0100
0000
,
0001
0001
0001
0000
,
1000
1000
1000
0000
,
0100
0000
0010
0000
,
0100
0000
0000
0000
,
1000
0000
0001
0000
,
1000
0000
0000
0000
,
0010
0000
0100
0000
,
0010
0000
0100
0000
;

//--------------- dance-single - ----------------
#NOTES:
     dance-single:
     :
     Easy:
     5:
     0.259221,0.322275,0.123544,0.200758,0,235,219,16,26,0,0,0,0,0,0.259221,0.322275,0.123544,0.200758,0,235,219,16,26,0,0,0,0,0:
0000
0000
0000
0000
,
0000
0000
0000
0000
,
0000
0000
0000
0000
,
0000
0000
0000
0000
,
0000
0000
0000
0000
,
1000
0000
0100
0000
,
0010
0010
0010
0000
,
0001
0000
0100
0000
,
0010
0010
0010
0000
,
1000
0000
1000
0000
,
0001
0000
0001
0000
,
0010
0000
0010
0000
,
0100
0000
0100
0000
,
1000
0000
0010
0000
,
0100
0000
0001
0000
,
1000
0010
0100
0001
,
2000
0000
0000
3000
,
0001
0000
0001
0000
,
0001
0010
0001
0000
,
0100
0000
0100
0000
,
0010
1000
0100
0000
,
1000
0000
1000
0000
,
1000
0010
1000
0000
,
0100
0000
0100
0000
,
0010
0001
0100
0000
,
0001
0000
0010
0000
,
0001
0010
0001
0000
,
1000
0000
0010
0000
,
1000
0010
1000
0000
,
0100
0000
0100
0000
,
0010
0010
0100
0010
,
0001
0000
0001
0000
,
0001
0100
0020
0000
,
1030
0000
1000
0000
,
1000
0100
0020
0000
,
0130
0000
0100
0000
,
0100
1000
0001
0100
,
0000
0010
0010
0000
,
0100
0010
2000
3000
,
2002
3003
0010
0000
,
0000
1001
0010
0000
,
2002
3003
0100
0000
,
0000
1001
0100
0000
,
0022
0033
1000
0000
,
0000
1010
0001
0000
,
2002
3003
0100
0000
,
0220
0330
1000
0001
,
1000
0000
0010
0000
,
1000
1000
1000
0000
,
0010
0000
0010
0000
,
1000
0100
0010
0000
,
0001
0000
0010
0000
,
0001
0001
0001
0000
,
0100
0000
0010
0000
,
2002
0000
3003
0000
,
0001
0010
0001
0000
,
0101
0000
1100
0000
,
1000
0010
1000
0000
,
1100
0000
0101
0000
,
1000
0001
1000
0000
,
0110
0000
1001
0000
,
0002
0000
0023
0000
,
0130
1000
0010
0100
,
0002
0000
0023
0000
,
0230
0000
1300
0001
,
2002
0000
0000
0000
,
3003
0000
0001
1000
,
0001
0000
0001
0000
,
0001
0010
0100
0000
,
0010
0000
0010
0000
,
0100
1000
0010
0000
,
1000
0000
1000
0000
,
1000
0010
0100
0000
,
0010
0000
0010
0000
,
0100
0001
0010
0000
,
0001
0010
0001
0000
,
0001
0100
0001
0000
,
1000
0010
1000
0000
,
1000
0100
1000
0000
,
0001
0000
0001
0000
,
0100
0001
0010
0100
,
1000
0000
1000
0000
,
0100
1000
0010
0100
,
0001
0000
1000
0000
,
1000
0010
0100
0001
,
1000
0000
1000
0000
,
1000
0100
0020
0000
,
0031
0000
0001
0000
,
0001
0100
0020
0000
,
0130
0000
0100
0000
,
0100
0001
1000
0100
,
0000
0010
0010
0000
,
0100
0010
0002
0003
;

//--------------- dance-single - ----------------
#NOTES:
     dance-single:
     :
     Medium:
     8:
     0.380558,0.4297,0.223923,0.517339,0,345,316,29,67,0,0,0,0,0,0.380558,0.4297,0.223923,0.517339,0,345,316,29,67,0,0,0,0,0:
0000
0000
0000
0000
,
0000
0000
0000
0000
,
0000
0000
0000
0000
,
0000
0000
0000
0000
,
0000
0000
0000
0000
,
1000
0000
0001
0000
0100
0000
0000
0010
,
0000
0010
0000
0010
0000
0000
0100
0000
,
0001
0000
1000
0000
0100
0000
0000
0010
,
0000
0010
0000
0010
0000
0000
0100
0000
,
1000
1000
0010
0010
,
0100
0100
0001
0001
,
1000
1000
0100
0100
,
0001
0001
0010
0010
,
1000
0100
0010
0001
,
1000
0100
0010
0001
,
0100
0010
1000
0100
,
0020
0000
0000
0030
,
0002
0010
2003
0010
,
3001
0000
1000
0001
2000
0000
3001
0000
,
2000
0100
3002
0100
,
1003
0000
0000
2001
0000
0000
3001
0000
,
2000
0010
3002
0010
,
1003
0000
0001
1000
0002
0000
1003
0000
,
0002
0100
2003
0100
,
3001
0000
0000
1002
0000
0000
1003
0000
,
0002
0010
2003
0100
,
3001
0000
0100
0010
0200
0000
0310
0000
,
2000
0010
3002
0100
,
1003
0000
0000
2001
0000
0000
3100
0000
,
0010
0000
0001
0000
0100
0000
0000
0010
,
0000
0010
0100
0000
0010
0000
1000
0000
,
0001
0000
0010
0010
,
0100
0010
0002
0000
,
0103
0000
0010
0010
,
0100
0010
2000
0000
,
3100
0000
0010
0010
,
0001
1000
0020
0130
,
0000
0100
0010
1000
,
0001
1000
0200
0300
,
0012
1000
0103
0000
,
0000
0201
0310
0000
,
1002
0013
0001
0010
,
0000
0011
1100
0000
,
2010
0001
3100
0000
,
0000
1200
0310
0000
,
2002
3003
0100
0010
,
0220
0330
0110
1001
,
0001
0010
0100
1000
,
0001
0100
1000
0100
,
0001
0001
1000
1000
,
0001
0010
0010
0100
,
1000
0010
0100
0001
,
1000
0100
0001
0100
,
2000
0000
3010
0000
,
0220
0330
1001
0110
,
0001
0000
0001
0000
1000
0000
0000
1200
,
0000
0310
0000
0000
0021
0000
0130
0000
,
1000
0000
1000
0000
0001
0000
0000
0102
,
0000
0013
0000
0000
2100
0000
3010
0000
,
1000
0000
0001
0000
1000
0000
0000
1002
,
0000
0013
0000
0000
2001
0000
3010
0000
,
1000
0000
0100
0000
0002
0000
0000
0103
,
0000
0001
0100
1000
,
0020
0000
0000
0032
0000
0000
0023
0000
,
0000
2030
0000
0000
3200
0000
0320
0000
,
0031
0000
0000
1010
0000
0000
0011
0000
,
0000
0110
0000
0000
0001
0000
1000
0000
,
0002
0010
2003
0010
,
3001
0000
1000
0010
2000
0000
3010
0000
,
2000
0100
3002
0010
,
1003
0000
0000
2001
0000
0000
3010
0000
,
2000
0010
3002
0010
,
1003
0000
0001
0010
0002
0000
0013
0000
,
0002
0100
2003
0010
,
3001
0000
0000
1002
0000
0000
0013
0000
,
0000
0001
0010
0100
,
1000
0000
0010
0100
0001
0000
1000
0000
,
0100
0010
0001
0100
,
0010
0000
1000
0001
0010
0000
0100
0000
,
1000
0000
0010
0000
1000
0000
0010
0200
,
0000
0000
0310
1000
0010
0000
1000
0000
,
0001
0000
0010
0000
0001
0000
0010
0200
,
0000
0000
1300
0001
1000
0000
0010
0000
,
0100
0000
0001
0000
1000
0000
0100
0020
,
0000
0000
0130
0000
0010
0001
0100
0000
,
1001
0000
0010
0010
,
0100
0010
2000
0000
,
3100
0000
0010
0010
,
0100
0010
0002
0000
,
0103
0000
0010
0010
,
1000
0001
0020
0130
,
0000
0100
0010
0001
,
1000
0001
0200
0300
;

//--------------- dance-single - ----------------
#NOTES:
     dance-single:
     :
     Hard:
     12:
     0.606687,0.608741,0.571389,0.664047,0.015443,550,476,74,86,0,0,0,0,0,0.606687,0.608741,0.571389,0.664047,0.015443,550,476,74,86,0,0,0,0,0:
0000
0000
0000
0000
,
0000
0000
0000
0000
,
0000
0000
0000
0000
,
0000
0000
0000
0000
,
0000
0000
0000
0000
,
2000
0000
3100
0000
1000
0100
1000
0010
,
0000
1010
0000
1010
0000
1000
0010
0100
,
0002
0000
0103
0000
0001
0100
0001
0010
,
0000
1100
0000
0011
0000
0001
0010
0100
,
2000
3010
0002
0013
,
2000
3100
0002
0103
,
2000
3010
0002
0103
,
0002
0013
2000
3100
,
1000
0100
1000
0000
0001
0100
0001
0000
,
1000
0100
0010
0000
0001
0100
0010
0000
,
1000
0100
0010
0001
1000
0001
0100
0010
,
0200
0000
0000
0310
,
2001
3010
2001
3010
,
1000
0010
0100
0010
2000
0000
3010
0000
,
2001
3100
2001
3100
,
1001
0000
1000
0010
0000
0100
0001
0000
,
1002
0013
1002
0013
,
0001
0010
0100
0010
0002
0000
0013
0000
,
1002
0103
1002
0103
,
1001
0000
0001
0010
0000
1000
0010
0000
,
0012
1003
2010
3001
,
1000
0100
0010
0001
2000
0000
3010
0000
,
0102
1003
2100
3001
,
1001
0000
1000
0010
0000
0100
0001
1000
,
0100
0000
0110
0000
0001
0100
0000
0120
,
0000
1030
0100
0000
0010
0001
0100
0010
,
1000
0000
0010
1000
0010
1000
0100
1000
,
0010
0101
2020
3030
,
0001
1000
0100
1000
0100
1000
0010
1000
,
0100
0011
2200
3300
,
1001
0000
0010
0001
0010
0001
0100
0001
,
0010
0000
1100
0000
0012
0000
1000
1003
,
0000
0001
0100
0010
1000
0100
0010
0001
,
0100
0010
2000
3000
,
2001
0000
3010
1000
1000
0100
0000
0000
,
0000
0001
0012
0000
1003
2010
0000
3001
,
1000
0100
0020
0000
0031
0100
0020
0000
,
0030
1000
0010
0100
0010
0100
0001
1000
,
1002
0000
0013
0001
0001
0100
0000
0000
,
0000
1000
2010
0000
3001
0012
0000
1003
,
0100
0000
0000
0010
0000
0000
0002
0000
0000
0000
0000
0000
0103
0000
0000
0000
0010
0000
0000
0000
1000
0000
0000
0000
,
2002
0000
3003
0001
0100
1000
0100
0001
,
2000
0000
3001
0010
0100
0010
0001
0000
,
1100
0000
0010
0001
0100
0010
1000
0000
,
0001
0010
0002
0000
1003
0010
2000
0000
,
3001
0000
1000
0100
0001
0100
1000
0000
,
0002
0000
1003
0010
0100
0010
1000
0000
,
0101
0000
0010
1000
0100
0010
0001
0000
,
0100
0000
0000
0010
0000
0000
2000
0000
0000
0000
0000
0000
3100
0000
0000
0000
0010
0000
0000
0000
0001
0000
0000
0000
,
1002
0000
0000
0013
0001
0100
0110
0000
,
1000
1000
0020
0000
1030
0010
0100
0110
,
0000
1010
0000
0001
1000
0100
0010
0000
,
0001
0001
0020
0000
0031
0010
0100
1100
,
0000
1010
0000
1000
0010
0100
0001
0000
,
1000
1000
0200
0000
1300
0001
0100
0110
,
0000
1001
0000
0001
0010
0100
1000
0001
,
0200
0000
0310
1000
0200
0000
0310
0001
,
0000
1000
0100
0001
0001
0100
1000
0000
,
2200
0000
3300
2002
0000
3003
2020
0000
,
3030
0220
0000
0330
1000
0010
0100
0001
,
0020
0100
0030
0200
1000
0300
2000
0001
,
3000
0001
0100
0000
0010
0100
0010
0000
,
2010
3001
0012
1003
,
1000
0010
0001
0010
2000
0000
3100
0000
,
1200
0301
0201
1300
,
1001
0000
1000
0010
0000
0100
0001
0000
,
0012
1003
2010
3001
,
0001
0010
1000
0010
0002
0000
0103
0000
,
0201
1300
1200
0301
,
1001
0000
0001
0020
0000
0130
1000
0001
,
0100
1010
0101
1010
,
0001
0100
1000
0100
0001
0010
0100
0000
,
0011
1100
1010
0101
,
1000
0100
0001
0100
1000
0010
0100
0001
,
1000
0100
0000
0100
0010
0000
0100
0002
,
0000
0103
0010
0100
0010
0001
1000
0000
,
0001
0100
0000
0100
0010
0000
0100
2000
,
0000
3100
0010
1000
0001
0010
0100
0000
,
0010
0001
0010
0001
1000
0010
0100
0120
,
0000
1030
0010
0001
0010
1000
0100
0010
,
0001
0000
0010
0001
0010
0001
0100
0001
,
0010
1100
0022
0033
,
1000
0001
0100
0001
0100
0001
0010
0001
,
0100
1010
0202
0303
,
1001
0000
0010
1000
0010
1000
0100
1000
,
0010
0000
0101
0000
2010
0000
0001
3001
,
0000
1000
0100
0010
0001
0100
0010
1000
,
0100
0010
0002
0003
;

//--------------- dance-single - ----------------
#NOTES:
     dance-single:
     :
     Challenge:
     14:
     0.701551,0.751975,0.664047,0.694932,0.138986,636,550,86,90,118,0,2,0,0,0.701551,0.751975,0.664047,0.694932,0.138986,636,550,86,90,118,0,2,0,0:
0000
0000
0000
0000
,
0000
0000
0000
0000
,
0000
0000
0000
0000
,
0000
0000
0000
0000
,
0000
0000
0000
0000
,
0102
0000
1003
0000
0001
0100
0001
0010
,
0000
0000
0011
0000
0000
0000
1001
0000
0000
0000
1000
0010
1000
0000
0100
0000
,
1200
0000
0310
0000
0100
1000
0010
1000
,
0000
0000
0101
0000
0000
0000
1100
0000
0000
0000
0001
0010
0001
0000
1000
0000
,
2001
3010
1002
0013
,
0012
1003
2010
3001
,
2100
3010
0102
0013
,
0012
0103
2010
3100
,
1001
1000
0010
0010
0100
0100
0001
0001
,
1000
0010
0100
0001
0010
0100
1000
0001
,
0400
0040
0000
0000
0000
0000
0000
0000
0000
0000
0000
0000
0000
0000
0000
0000
,
0330
0000
0000
0010
,
2001
0000
3010
MMMM
2001
0000
3010
MMMM
,
1000
0010
0001
0010
2000
0000
3010
0000
,
2001
0000
3100
MMMM
2001
0000
3100
MMMM
,
1001
0000
0000
0000
1000
0000
0020
0000
0000
0000
0130
0001
0100
0000
0001
0000
,
1002
0000
0013
MMMM
1002
0000
0013
MMMM
,
0001
0010
1000
0010
0002
0000
0013
0000
,
1002
0000
0103
MMMM
1002
0000
0103
MMMM
,
1001
0000
0000
0000
0001
0000
0020
0000
0000
0000
0130
1000
0100
0000
1000
0000
,
2010
0000
3001
MMMM
0012
0000
1003
MMMM
,
0001
0100
1000
0100
0002
0000
0013
0000
,
2100
0000
3010
MMMM
0102
0000
0013
MMMM
,
1001
0000
0000
0000
1000
0000
0200
0000
0000
0000
0310
0001
0010
0000
0001
0000
,
0100
0010
0110
0000
1000
0100
0010
0110
,
0000
0000
0001
1000
0001
0000
0010
0000
0001
1000
0001
0000
0100
0000
0001
0000
,
1001
0000
0001
0001
0001
0010
1000
0010
,
0001
1100
0022
0033
,
0001
1000
0001
0001
0001
0100
1000
0100
,
0001
0011
2200
3300
,
1001
0000
1000
1000
1000
0010
0001
0010
,
1000
0000
0101
0000
2010
0000
0001
3001
,
0000
1000
0100
0010
0001
0100
0010
1000
,
0100
0010
0002
0003
,
1002
0000
0013
0001
0100
M001
MM00
00MM
,
0000
0001
0022
0033
1000
2020
3030
0010
,
0110
0001
2000
0000
3100
10M0
0M02
M0M0
,
0003
0000
0001
0000
0010
0000
1000
0000
0010
0000
0001
0000
0100
0010
0100
0010
,
2000
0000
3010
1000
0100
100M
00MM
MM00
,
0000
1000
2020
3030
0001
0022
0033
0010
,
0110
0000
0000
1000
0000
0000
0002
0000
0000
0000
0000
0000
0103
0000
0000
0000
0101
0000
0000
0000
0110
0000
0000
0000
,
2020
0000
0000
0000
3030
0000
0001
0010
0001
0000
0010
0000
0100
0000
1000
0000
,
0020
0000
1030
1000
0010
0100
1000
0100
,
0001
0010
1000
0010
0001
1000
0100
0010
,
0001
0100
0101
0000
1000
0100
1100
0000
,
1000
0000
0010
0000
0001
0000
1000
0000
0100
0000
0001
0000
0010
0100
0010
0100
,
0020
0000
0031
0001
0010
0100
0001
0100
,
1000
0000
0010
0000
0001
0000
0010
0000
1000
0000
2010
0000
0000
0000
3001
0100
,
0010
0000
0000
1000
0000
0000
0200
0000
0000
0000
0000
0000
0310
0000
0000
0000
1100
0000
0000
0000
0110
0000
0000
0000
,
0022
0000
0000
0000
0033
0000
0010
0001
0100
0000
0010
0000
1000
0000
0000
0000
,
0002
0010
0013
0100
0020
0001
0031
0101
,
MMMM
0110
MMMM
1010
1000
0100
0010
0001
,
2000
0010
3010
0100
0020
1000
1030
1100
,
MMMM
0110
MMMM
0011
0001
0100
1000
0100
,
0002
1000
1003
0100
0020
0100
0130
0011
,
MMMM
1100
MMMM
1010
0100
0001
0010
0100
,
2000
0100
3100
0010
0002
0100
0103
0110
,
0000
1001
0100
0010
0010
0100
1001
0000
,
2000
0010
0010
3002
0010
0010
2003
0001
,
0010
0000
3002
0000
1000
0000
0010
0000
1003
0010
1000
0000
0001
0010
0001
0000
,
1000
0010
0001
0010
1000
0100
0001
0200
,
0000
0000
1000
0000
2300
0000
0000
0000
3001
0000
0100
0001
0100
0000
0010
0000
,
2010
0000
3001
MMMM
0012
0000
1003
MMMM
,
1000
0010
0001
0010
2000
0000
3100
0000
,
1200
0000
0301
MMMM
0201
0000
1300
MMMM
,
1001
0000
0000
0000
1000
0000
0020
0000
0000
0000
1030
0001
0100
0000
0001
0000
,
0012
0000
1003
MMMM
2010
0000
3001
MMMM
,
0001
0010
1000
0010
0002
0000
0103
0000
,
0201
0000
1300
MMMM
1200
0000
0301
MMMM
,
1001
0000
0000
0000
0001
0000
0020
0000
0000
0000
0130
1000
0010
0000
1000
0000
,
0001
0100
0001
0000
0010
0000
0001
0000
0100
0000
0001
0000
0010
0000
0001
0000
,
1000
1000
0010
0001
0010
1000
0100
0010
,
0100
1000
0010
1000
0100
1000
0010
1000
,
0001
0001
0010
1000
0010
0001
1000
0010
,
0100
0010
0100
0000
0010
0000
1000
0010
1000
0010
1000
0000
0001
0010
0200
0000
,
0000
0310
0001
0100
1000
0100
0010
1000
,
0100
0010
0100
0000
0010
0000
0001
0010
0001
0010
0001
0000
1000
0010
0200
0000
,
0000
0000
0310
0000
1000
0000
0100
0000
0001
0000
0100
0000
0010
0001
0010
0000
,
0001
0000
0100
0000
1000
0000
0001
0000
0010
0000
1000
0000
0001
1000
0002
0000
,
0000
0000
0013
0000
1000
0000
0010
0000
0001
1000
0001
0000
0100
0000
0010
0000
,
1001
0000
1000
1000
1000
0010
0001
0010
,
1000
0101
2020
3030
,
1000
0001
1000
1000
1000
0100
0001
0100
,
1000
1010
0202
0303
,
1001
0000
0001
0001
0001
0010
1000
0010
,
0001
0000
1100
0000
0012
0000
1000
1003
,
0000
0001
0100
0010
1000
0100
0010
0001
,
0100
0010
2000
3000
;

//--------------- dance-double - ----------------
#NOTES:
     dance-double:
     :
     Challenge:
     14:
     0,0,0,0,0:
00000000
00000000
00000000
00000000
,
00000000
00000000
00000000
00000000
,
00000000
00000000
00000000
00000000
,
00000000
00000000
00000000
00000000
,
00000000
00000000
00000000
00000000
,
00010200
00000000
00001300
00000000
00000001
00000100
00000001
00000010
,
00000000
00000000
00000110
00000000
00000000
00000000
00010100
00000000
00000000
00000000
00010000
00001000
00010000
00000000
00001000
00000000
,
02000000
00000000
03010000
00000000
10000000
00100000
01000000
00100000
,
00000000
00000000
00110000
00000000
00000000
00000000
00011000
00000000
00000000
00000000
00010000
00000100
00010000
00000000
00001000
00000000
,
00000020
00000031
00000201
00001300
,
00021000
01030000
02010000
13000000
,
10200000
00310000
00012000
00003010
,
00000012
00000103
00000201
00001300
,
00010000
00010000
00001000
00001000
01000000
01000000
00010000
00010000
,
10000000
01000000
00100000
00001000
00010000
00000100
00000010
00000001
,
00004000
00000004
00000000
00000000
00000000
00000000
00000000
00000000
00000000
00000000
00000000
00000000
00000000
00000000
00000000
00000000
,
00003003
00000000
00000000
00000010
,
00021000
0103MMMM
00012000
MMMM3100
,
00000001
00000010
00000100
00000010
00002000
00000000
00013000
00000000
,
00021000
0013MMMM
00012000
MMMM3010
,
00011000
00000000
00000000
00000000
00001000
00000000
00200000
00000000
00000000
00000000
00310000
10000000
00010000
00000000
01000000
00000000
,
00002000
MMMM3100
00021000
0103MMMM
,
10000000
00100000
01000000
00100000
00020000
00000000
00031000
00000000
,
00012000
MMMM3010
00021000
0013MMMM
,
00011000
00000000
00000000
00000000
00010000
00000000
00000020
00000000
00000000
00000000
00001030
00000001
00001000
00000000
00000100
00000000
,
00000010
00001000
00020000
0000MMMM
00130000
00010000
00002000
MMMM0000
,
00003010
00000001
00000100
00000010
00020000
00000000
00031000
00000000
,
00000100
00001000
00020000
0000MMMM
01030000
00010000
00002000
MMMM0000
,
00003100
00000000
00000000
00000000
00000100
00000000
00000002
00000000
00000000
00000000
00001003
00000100
00001000
00000000
00000001
00000000
,
00000010
00000100
00000010
00001000
00010000
01000000
00100000
00020000
,
00000000
00000000
10030000
00010000
10000000
00000000
01000000
00000000
10000000
00010000
10000000
00000000
00100000
00000000
00010000
00000000
,
00001000
00000000
00010000
00010000
00010000
00000100
00000010
00000100
,
00000001
00000101
00002200
00003300
,
00000100
00010000
00001000
00001000
00001000
01000000
00100000
01000000
,
10000000
11000000
02020000
03030000
,
10010000
00000000
10000000
10000000
10000000
01000000
00100000
01000000
,
00010000
00000000
00011000
00000000
00001020
00000000
00000001
00000031
,
00000000
00000010
00000100
00010000
00001000
01000000
00100000
10000000
,
00010000
00001000
00000002
00000003
,
00002001
00000000
00003100
00000010
00001000
00010000
0000MMMM
MMMM0000
,
00000000
00000100
00020100
00000000
00031000
02001000
00000000
03100000
,
01000000
00001000
00020000
00000000
00030010
00010000
00002000
MMMM0000
,
00003000
00000000
01000000
00000000
00010000
00000000
10000000
00000000
00010000
00000000
00100000
00000000
00001000
00010000
00001000
00010000
,
00000200
00000000
00000310
00000100
00010000
00001000
MMMM0000
0000MMMM
,
00000000
01000000
02100000
00000000
03010000
10020000
00000000
00130000
,
00001000
00000000
00000000
00010000
00000000
00000000
00000200
00000000
00000000
00000000
00000000
00000000
00000310
00000000
00000000
00000000
00000011
00000000
00000000
00000000
00001001
00000000
00000000
00000000
,
00000202
00000000
00000000
00000000
00000303
00000000
00000100
00000010
00000100
00000000
00000010
00000000
00010000
00000000
00001000
00000000
,
00200000
00000000
00310000
00010000
10000000
00100000
01000000
00100000
,
00010000
00001000
00000010
00001000
00010000
00001000
00000100
00000001
,
00000010
00000100
00002000
00000000
00003010
00000100
00002000
00000000
,
00013000
00000000
01000000
00000000
10000000
00000000
00010000
00000000
00100000
00000000
10000000
00000000
00100000
01000000
00100000
01000000
,
00200000
00000000
00310000
00010000
10000000
00100000
01000000
00100000
,
00010000
00000000
00001000
00000000
00000010
00000000
00001000
00000000
00010000
00000000
00012000
00000000
00000000
00000000
00003100
00000010
,
00000100
00000000
00000000
00000001
00000000
00000000
00000020
00000000
00000000
00000000
00000000
00000000
00001030
00000000
00000000
00000000
00001010
00000000
00000000
00000000
00011000
00000000
00000000
00000000
,
00220000
00000000
00000000
00000000
00330000
00000000
00100000
01000000
00100000
00000000
10000000
00000000
00010000
00000000
00000000
00000000
,
00100000
00001000
MMMM2000
00000000
00003010
00010000
0001MMMM
01000000
,
00000000
01100000
00000000
10100000
10000000
00010000
00100000
00010000
,
01000000
00001000
MMMM2000
00000000
00003100
00010000
0001MMMM
00100000
,
00000000
01100000
00000000
11000000
10000000
00010000
01000000
00010000
,
00100000
00001000
MMMM2000
00000000
00003010
00010000
0001MMMM
01000000
,
00000000
01100000
00000000
10100000
10000000
00010000
00100000
00010000
,
02000000
00001000
03001000
00010000
00000200
00001000
00001300
00000001
,
00000000
00000001
00000010
00001000
00010000
01000000
10000000
00000000
,
00200000
00310000
00001000
00000020
00001030
00010000
00200000
00310000
,
00001000
00000000
00000020
00000000
00000031
00000000
00000100
00000000
00000010
00000100
00000010
00000000
00001000
00000001
00001000
00000000
,
00000100
00010000
00001000
01000000
00100000
10000000
01000000
00200000
,
00000000
00000000
00001000
00000000
00302000
00000000
00000000
00000000
00013000
00000000
00000010
00001000
00000010
00000000
00010000
00000000
,
00021000
0013MMMM
00012000
MMMM3010
,
00000001
00000100
00000010
00000100
00002000
00000000
00013000
00000000
,
00021000
0103MMMM
00012000
MMMM3100
,
00011000
00000000
00000000
00000000
00001000
00000000
02000000
00000000
00000000
00000000
03010000
10000000
00010000
00000000
00100000
00000000
,
00002000
MMMM3010
00021000
0013MMMM
,
10000000
01000000
00100000
01000000
00020000
00000000
00031000
00000000
,
00012000
MMMM3100
00021000
0103MMMM
,
00011000
00000000
00000000
00000000
00010000
00000000
00000200
00000000
00000000
00000000
00001300
00000001
00001000
00000000
00000010
00000000
,
00000200
00000000
00001300
00100000
00001000
00010000
00001000
01000000
,
00010000
00010000
10000000
01000000
00100000
01000000
00010000
00001000
,
00000010
00000100
00000100
00001000
00000010
00000100
00000010
00000002
,
00000000
00000000
00001003
00000000
00000100
00000010
00000200
00000000
00000000
00000000
00000301
00000000
00001000
00000000
00000100
00000000
,
00010000
00000000
00001000
00010000
00001000
00000000
01000000
00000000
00010000
01000000
00010000
01000000
00100000
00000000
20000000
00000000
,
00000000
31000000
00010000
00001000
00000010
00000100
00000010
00001000
,
00010000
00000000
00000100
00001000
00000100
00000000
00010000
00000000
00001000
00100000
00001000
00100000
00010000
00000000
20000000
00000000
,
00000000
30100000
00010000
00001000
00000010
00000001
00000100
00000010
,
00010000
00000000
00001000
00010000
00001000
00000000
00100000
00000000
00010000
00100000
00010000
00100000
01000000
00000000
20000000
00000000
,
00000000
30100000
00010000
00001000
00000100
00000010
00000100
00001000
,
00010000
00000000
00001000
00001000
00001000
00100000
01000000
00100000
,
10000000
10100000
00220000
00330000
,
00100000
00001000
00010000
00010000
00010000
00000010
00000100
00000010
,
00000001
00000011
00002020
00003030
,
00001001
00000000
00000001
00000001
00000001
00000010
00000100
00000010
,
00001000
00000000
00011000
00000000
02010000
00000000
10000000
13000000
,
00000000
01000000
00100000
00001000
00010000
00000010
00000100
00000001
,
00001000
00010000
20000000
30000000
;
