#TITLE:Our Love;
#SUBTITLE:;
#ARTIST:lapix;
#TITLETRANSLIT:;
#SUBTITLETRANSLIT:;
#ARTISTTRANSLIT:;
#GENRE:;
#CREDIT:;
#MUSIC:Our Love.ogg;
#BANNER:Our Love.png;
#BACKGROUND:Our Love-bg.png;
#CDTITLE:./CDTitles/jubeat festo.png;
#SAMPLESTART:93.157;
#SAMPLELENGTH:15.000;
#SELECTABLE:YES;
#OFFSET:0.009;
#BPMS:0.000=190.000;
#STOPS:;
#BGCHANGES:;
#FGCHANGES:;

//--------------- dance-single - ----------------
#NOTES:
     dance-single:
     :
     Beginner:
     4:
     0,0,0,0,0:
0000
0000
0000
0000
,
0000
0000
0000
0000
,
0000
0000
0000
0000
,
0000
0000
0000
0000
,
0000
0000
0000
0000
,
0000
0000
0000
0000
,
1000
0000
0000
0000
,
0001
0000
0000
0000
,
0010
0000
0100
0000
,
0010
0000
0010
0000
,
0001
0000
0000
0000
,
1000
0000
0000
0000
,
0010
0000
0100
0000
,
0010
0000
0000
0000
,
1000
0000
0000
0000
,
0001
0000
0000
0000
,
0100
0000
0010
0000
,
0100
0100
0100
0000
,
0010
0000
0010
0000
,
0100
0000
0100
0000
,
1000
0000
1000
0000
,
0001
0000
0001
0000
,
1000
1000
1000
0000
,
0001
0000
0001
0000
,
1000
0000
1000
0000
,
0010
0000
0010
0000
,
0100
0000
0100
0000
,
0010
0000
0010
0000
,
1000
0000
1000
0000
,
0001
0000
0001
0000
,
1000
1000
1000
0000
,
0001
0000
0001
0000
,
1000
0000
1000
0000
,
0100
0000
0100
0000
,
0010
0000
0001
0000
,
0010
0000
0000
0000
,
0100
0000
1000
0000
,
0100
0000
0000
0000
,
0010
0000
0100
0000
,
0010
0000
0000
0000
,
0100
0000
0010
0000
,
0100
0000
0000
0000
,
1000
0000
1000
0000
,
0001
0000
0000
0000
,
0001
0000
0001
0000
,
1000
0000
0000
0000
,
0010
0000
0010
0000
,
0100
0000
0000
0000
,
0100
0000
0100
0000
,
0010
0000
0000
0000
,
1000
0000
0000
0000
,
0001
0000
0000
0000
,
1000
0000
0000
0000
,
0001
0000
0000
0000
,
2000
0000
3000
0000
,
0002
0000
0003
0000
,
2000
0000
3000
0000
,
0002
0000
0003
0000
,
0010
0000
0010
0000
,
0100
0000
0100
0000
,
0010
0000
0010
0000
,
0100
0000
0100
0000
,
1000
0000
1000
0000
,
0001
0000
0001
0000
,
1000
0000
1000
0000
,
0001
0000
0001
0000
,
2002
0000
0000
0000
,
0000
0000
0000
0000
,
0000
0000
0000
0000
,
0000
0000
3003
0000
,
0001
0000
0001
0000
,
1000
0000
1000
0000
,
0010
0000
0010
0000
,
0100
0100
0100
0000
,
0010
1000
0010
0000
,
0100
0001
0100
0000
,
0001
0000
0001
0000
,
1000
0000
1000
0000
,
0001
0010
0001
0000
,
1000
0100
1000
0000
,
0001
0000
0001
0000
,
1000
0000
1000
0000
,
0010
0000
0010
0000
,
0100
0000
0000
0000
,
0100
0000
0100
0000
,
0010
0000
0000
0000
,
0100
0000
0001
0000
,
1000
0000
0100
0000
,
0010
0000
0001
0000
,
1000
0000
0001
0000
,
1000
0000
1001
0000
,
0001
0000
1001
0000
,
0100
0000
0010
0000
,
0100
0000
0010
0000
,
1000
0000
1001
0000
,
0001
0000
1001
0000
,
0010
0000
0100
0000
,
1000
0000
0001
0000
;

//--------------- dance-single - ----------------
#NOTES:
     dance-single:
     :
     Easy:
     8:
     0,0,0,0,0:
0000
0000
0000
0000
,
0000
0000
0000
0000
,
0000
0000
0000
0000
,
0000
0000
0000
0000
,
0000
0000
0000
0000
,
0000
0000
0000
0000
,
0020
0000
0000
0030
,
0200
0000
0000
0300
,
0010
1000
0001
0100
,
0010
0010
0100
0100
,
0002
0000
0000
0003
,
2000
0000
0000
3000
,
0010
1000
0001
0100
,
0010
0010
0100
0100
,
0001
0001
0010
0100
,
1000
1000
0010
0100
,
0001
0010
0100
1000
,
0001
0110
1001
0110
,
1001
0010
1000
0001
,
0010
0010
0100
1000
,
1001
0010
0001
1000
,
0010
0010
0100
0001
,
0100
0100
0010
2000
,
3002
2003
3002
2003
,
3001
0010
0100
1000
,
0010
0100
0010
0010
,
1001
0010
1000
0001
,
0010
0010
0100
1000
,
1001
0010
0001
1000
,
0010
0010
0100
0001
,
0100
0100
0010
2000
,
3002
2003
3002
2003
,
3001
0010
0100
1000
,
0010
0100
0010
0010
,
0100
1001
1001
1001
,
0001
1000
0010
0100
,
0001
0110
0110
0110
,
1000
0001
0010
0100
,
1000
0110
1001
0110
,
0001
0100
0010
1000
,
0010
1001
0110
1001
,
0010
0100
0001
1000
,
0002
1003
0010
0100
,
0010
0010
0100
0100
,
0001
0010
0100
1000
,
0001
0001
2000
3002
,
1003
0100
0010
0001
,
1000
0100
0010
0001
,
0100
0010
1000
0001
,
0100
0010
1000
0001
,
2000
0000
0000
3000
,
0002
0000
0000
0003
,
0020
0000
0000
0030
,
0200
0000
0000
0300
,
1000
0000
0000
0000
,
0001
0000
0000
0000
,
0100
0000
0000
0000
0100
0000
0000
0100
,
0000
0000
0010
0100
,
1000
0010
1000
0000
,
0001
0010
0001
0000
,
1000
0100
0001
0100
,
1000
0001
1001
0000
,
1000
0100
1000
0000
,
0001
0010
0001
0000
,
0010
0001
0100
0010
,
1000
1000
1000
0000
,
0020
0000
0000
0030
,
0200
0000
0000
0300
,
0002
0000
0000
0003
,
2000
0000
0000
3000
,
0001
1000
0001
0000
1001
0000
0000
0000
,
1000
0001
1000
0000
1001
0000
0000
0000
,
0010
1000
0001
0100
,
0010
0010
0010
0000
,
0110
1001
0110
0000
,
0110
1001
0110
0000
,
0001
0100
0100
0010
,
0100
0100
0001
1000
,
1001
0110
1001
0000
,
1001
0110
1001
0000
,
1000
0010
0010
0100
,
0001
0001
0010
0100
,
1000
1000
0001
0001
,
0010
0100
1000
0001
,
0110
1001
0010
0100
,
1001
0110
0001
1000
,
0010
0100
0001
1000
,
0010
0100
0001
0010
,
0100
0010
0001
1000
,
0100
0010
0002
0000
,
1003
0001
2002
3003
,
0001
1000
2002
3003
,
0010
0100
0010
1000
,
0001
1000
0010
0010
,
0100
0010
0220
0330
,
0010
0100
0220
0330
,
1000
1000
0001
0100
,
0100
0000
0010
0000
0100
0010
0100
0010
;

//--------------- dance-single - ----------------
#NOTES:
     dance-single:
     :
     Medium:
     12:
     0,0,0,0,0:
0000
0000
0000
0000
,
0000
0000
0000
0000
,
0000
0000
0000
0000
,
0000
0000
0000
0000
,
0000
0000
0000
0000
,
0000
0000
0000
0000
,
2000
3000
0002
0003
,
0100
0010
1000
0001
0100
0000
0110
0000
,
0100
0001
0010
0100
1000
0000
0001
0020
,
0000
0130
1000
0001
0100
0100
0100
0000
,
1001
0100
0010
0100
,
1001
0010
0100
0010
,
0001
0100
0010
0000
1000
0010
0100
0000
,
0020
0001
1030
0110
,
0001
0010
0100
0000
0100
1000
0010
0000
,
0100
0001
0010
0000
0010
0100
1000
0000
,
0001
0010
0100
1000
0100
0010
0001
1000
,
0010
0110
1100
0101
,
2000
0000
0001
0000
3100
0000
1000
0010
,
0001
0010
1000
0010
0100
0000
0100
0000
,
0002
0000
1000
0000
0103
0000
0001
0010
,
1000
0010
0001
0010
0100
0000
1001
0000
,
0001
0100
0001
0100
0010
0000
1010
0000
,
1100
0011
0101
1001
,
0001
0010
1000
0010
0001
0000
1000
0100
,
0001
0100
1000
0000
0010
0100
0001
0000
,
0002
0000
1000
0000
0013
0000
0001
0100
,
1000
0100
0001
0100
0010
0000
0010
0000
,
1000
0001
1000
0000
0001
0000
1000
0100
,
0001
0100
1000
0100
0010
0000
1001
0000
,
1000
0010
1000
0010
0100
0000
0101
0000
,
0011
1100
1010
1001
,
1000
0100
1000
0000
0001
0010
0001
0000
,
1000
0010
0100
0000
0100
0010
0100
0000
,
0002
0000
0000
0000
1000
0000
0000
0000
0013
0000
0000
0010
0001
0000
0010
0000
,
0100
1000
0100
0010
0001
0100
0010
0000
,
2000
0000
0000
0000
0001
0000
0000
0000
3010
0000
0000
0010
1000
0000
0100
0000
,
0010
0001
0100
0010
1000
0000
1001
0000
,
2000
0000
0000
0000
0001
0000
0000
0000
3100
0000
0000
0100
1000
0000
0010
0000
,
0100
0010
1000
0100
0010
0001
0010
0100
,
2000
0000
0000
0000
0001
0000
0000
0000
3100
0000
0000
0100
1000
0000
0010
0000
,
1000
1000
0010
0010
0100
0100
0001
0000
,
0010
0000
0010
0000
0010
0000
0000
0000
0110
0000
0000
0100
1000
0000
0001
0000
,
0010
0001
0100
0010
1000
0100
0010
0001
,
1000
0000
0000
0000
0010
0000
0000
0000
0110
0000
0000
0100
0001
0000
0010
0000
,
0100
1000
0001
0100
0020
0230
0320
0230
,
0310
1000
0100
0000
0010
0001
0100
0000
,
0001
1000
0100
0000
1000
0001
0100
0000
,
0001
0100
0010
1000
0100
0010
0001
1000
,
0010
0000
0010
0010
0000
0010
0000
0000
,
0200
0000
0320
0000
,
0230
0000
0320
0000
,
2030
0000
3002
0000
,
2003
0000
3002
0000
,
1003
0000
0000
0000
0000
0010
0000
0000
,
0100
0000
0000
0001
0000
0000
0000
0000
,
0110
0000
0000
0000
1001
0000
0000
1100
,
0000
1000
0100
0000
0100
0100
0100
0000
,
0010
0000
0001
0000
0010
0001
0010
0000
,
0100
0000
1000
0000
0100
1000
0100
0000
,
1000
0010
1000
0000
0010
1000
0001
0000
,
1000
0001
0010
0100
,
0010
0010
0001
0000
0100
0000
0010
0000
,
1000
1000
0100
0000
0010
0000
0100
0000
,
1000
0100
0010
0001
1000
0100
0010
0001
,
1000
0001
0100
0010
1000
0001
0100
0010
,
0200
0000
0320
0000
1030
0001
0100
0000
,
0002
0000
2003
0000
3001
0010
0100
0000
,
2000
0000
3002
0000
1003
0100
0001
0000
,
0200
0000
2300
0000
3001
0010
1000
0000
,
0010
0001
0010
0001
0100
0010
0100
0000
,
0010
1000
0010
1000
0100
0010
0001
0000
,
1000
0001
0100
0010
1000
0100
0010
0001
,
1000
0000
0001
0000
1000
0001
1000
0000
,
0001
0100
0001
0000
1001
0000
0110
0000
,
1000
0100
1000
0000
1001
0000
0110
0000
,
0010
1000
0010
1000
0010
0000
0100
0001
,
0100
0001
0100
0000
0010
0010
0010
0000
,
1000
0100
0010
0000
0110
0000
1001
0000
,
0001
0100
0010
0000
0110
0000
1001
0000
,
0001
0100
0001
0100
0001
0000
1000
0100
,
1000
0100
1000
0000
0010
0100
0010
0000
,
1000
1000
0001
0000
0001
0001
1000
0000
,
0010
1000
0001
0000
0100
0001
1000
0000
,
1010
0000
0101
0000
0001
0100
0010
0000
,
0011
0000
1100
0000
1000
0100
0010
0000
,
0001
0000
1000
0000
0001
0100
0010
1000
,
0001
0000
1000
0000
0001
0100
0010
1000
,
0001
0000
0010
0000
0100
0000
0010
0100
,
0010
0100
1000
0000
0002
0000
0000
0000
,
1003
0010
0100
0000
0220
0000
0330
0000
,
0001
0010
0100
0000
0220
0000
0330
0000
,
0001
1000
0001
1000
0001
0000
0010
0100
,
0010
0100
0010
0000
0010
0001
0100
0000
,
0001
0100
0010
0000
0220
0000
0330
0000
,
1000
0100
0010
0000
0220
0000
0330
0000
,
1000
0001
1000
0001
1000
0000
0100
0010
,
0100
0010
0100
0000
0100
1000
0010
0010
;

//--------------- dance-single - ----------------
#NOTES:
     dance-single:
     :
     Hard:
     15:
     0,0,0,0,0:
0000
0000
0000
0000
,
0000
0000
0000
0000
,
0000
0000
0000
0000
,
0000
0000
0000
0000
,
0000
0000
0000
0000
,
0000
0000
0000
0000
,
2000
3010
0002
0013
,
0100
0010
0001
1000
0100
0000
1001
0000
,
0100
1000
0010
0100
0001
0000
0001
0020
,
0000
0130
1000
0010
0100
0010
0110
0000
,
0010
1000
0010
1000
0100
0010
0001
0000
,
0010
0001
0010
0001
0100
0010
1000
0000
,
0100
0010
0001
0010
1000
0001
0100
1000
,
0200
0001
1300
0110
,
0010
0001
0100
0010
1000
0100
0010
0001
,
0100
0010
1000
0001
0010
1000
0010
0001
,
1000
0100
1000
0000
0001
0000
1000
0000
0001
0100
0001
0000
0010
0000
0100
0000
,
0110
1100
0101
0110
,
0200
0000
0000
0000
0010
0000
0000
0000
1300
0000
0000
0100
0001
0000
0010
0000
,
0100
0010
0100
0000
0010
0000
0001
0000
1000
0000
0001
0000
0010
0000
0000
0000
,
0200
0000
0000
0000
0010
0000
0000
0000
0301
0000
0000
0100
1000
0000
0010
0000
,
0100
0010
0100
0000
0010
0000
1000
0000
0001
0000
1000
0000
0001
0000
0100
0000
,
0001
1000
0001
1000
0110
0000
2000
0000
,
3020
0032
0023
2030
,
3100
1000
0100
0000
0010
0000
0001
0000
0101
0000
0000
0000
0010
1000
0010
0000
,
1000
0000
0010
0000
1010
0000
0000
0000
0001
1000
0010
0000
1000
0001
0010
0000
,
0200
0000
0000
0000
1000
0000
0000
0000
0301
0000
0000
0001
0100
0000
1000
0000
,
0010
0100
0010
0000
0001
0000
0010
0000
0110
0000
0000
0000
1010
0000
0000
0000
,
1000
0010
1000
0010
2000
0000
0000
0000
3001
0000
0000
0001
1000
0000
0001
0000
,
0010
0100
0010
0000
0001
0000
0010
0000
0100
0000
1000
0000
0100
0000
1000
0000
,
0020
0230
0302
2003
3100
0000
0002
0000
,
0023
2030
3020
0032
,
1003
0010
0100
0001
0010
1000
0010
0001
,
2000
0000
0000
0000
3020
0000
0000
0000
0130
0010
0100
0000
0001
0000
1000
0000
,
0100
0000
0000
0000
1100
0000
0000
0000
1100
0000
0000
1000
0100
0000
0010
0000
,
0001
0000
0010
0001
0020
0000
0000
0000
0031
0010
0001
0000
1000
0010
1000
0000
,
0010
0000
0000
0000
1010
0000
0000
0000
1010
0000
0000
1000
0010
0000
0100
0000
,
0001
0100
0001
0000
0100
0001
0100
0000
0010
1000
0010
0000
1000
0010
1000
0000
,
0010
0000
0000
0000
0011
0000
0000
0000
0011
0000
0000
0001
0010
0000
0100
0000
,
1000
0000
0100
1000
0200
0000
0000
0000
1300
0100
1000
0000
0001
0100
0001
0000
,
0100
0000
0000
0000
0101
0000
0000
0000
0101
0000
0000
0001
0100
0000
0010
0000
,
1000
0010
1000
0000
0010
1000
0010
0000
0100
0001
0100
0000
0001
0100
0001
0000
,
0100
0000
0100
0000
0100
0000
0000
0000
0100
0000
0000
0100
0010
0000
1000
0000
,
0001
0000
0010
0100
0020
0000
0000
0000
0130
0000
0000
0010
0100
0000
0010
0000
,
0001
0000
1000
0001
2000
0000
0000
0000
3001
0000
0000
1000
0001
0000
1000
0000
,
0010
1000
0010
0000
0100
0001
0100
0000
0010
0000
0100
0000
0010
0000
0100
0000
,
0001
0010
1000
0010
0001
1000
0010
0001
,
0010
1000
0001
1000
0010
0100
0001
0010
,
0100
0000
1000
0000
0001
0000
1000
0000
0010
0000
0100
0000
0001
1000
0001
0000
,
1001
0000
1100
0101
0000
0110
0000
0000
,
2010
0100
0010
3100
,
0012
0100
0010
0103
,
0020
0100
1000
0100
,
0001
0100
0100
0130
,
0110
0000
0000
0000
0000
1100
0000
0000
,
0101
0000
0000
1100
0000
0000
0000
0000
,
0110
0000
0000
0000
0011
0000
0000
1100
,
0000
1000
0100
0000
0100
0100
0100
0000
,
1000
0010
1000
0010
1000
0010
0001
0010
,
1000
0100
1000
0100
1000
0100
0001
0100
,
0010
0001
0100
1000
0100
0001
0010
1000
,
0001
0100
1000
0010
0001
1000
0100
0001
,
1000
0100
1000
0000
0010
0000
0100
0000
0001
0000
0010
0000
0100
0000
1000
0000
,
0001
0100
0001
0000
1000
0000
0100
0000
0010
0000
0001
0000
0100
0000
0010
0000
,
1000
0100
1000
0000
0010
0000
0100
0000
0001
0100
0001
0000
0010
0000
0100
0000
,
1000
0010
0001
0010
1000
0100
0001
0100
,
1000
0000
0100
0000
1000
0100
1000
0000
0010
0000
0100
0000
0010
0100
0010
0000
,
0100
0000
0001
0000
0100
0001
0100
0000
0010
0000
0100
0000
0001
0000
1000
0000
,
0001
0000
1000
0000
0001
0010
0001
0000
1000
0000
0001
0000
1000
0010
1000
0000
,
0100
0000
0010
0000
0100
0010
0100
0000
0010
0000
0001
0000
1000
0100
0010
0000
,
0001
0100
0010
1000
0100
0010
0001
0100
,
0010
1000
0001
0010
0100
1000
0001
0010
,
0100
0010
0100
0000
0010
0001
0010
0000
0100
0010
0100
0000
1000
0100
1000
0000
,
0100
0000
0100
0000
0100
0100
0100
0000
,
1000
0000
0010
0000
1010
0000
0000
0000
1100
0000
0000
0000
1000
0001
1000
0000
,
0001
0000
0010
0000
0011
0000
0000
0000
0101
0000
0000
0000
0001
1000
0001
0000
,
0010
0000
1000
0000
0010
0000
0001
0000
1000
0001
1000
0000
0010
0000
1000
0000
,
0010
0000
0100
0010
0100
0000
0010
0000
1000
0000
0001
0000
0010
0000
0000
0000
,
0100
0000
0010
0000
0110
0000
0000
0000
1100
0000
0000
0000
1000
0100
1000
0000
,
0010
0000
0100
0000
0110
0000
0000
0000
0101
0000
0000
0000
0001
0100
0001
0000
,
1000
0000
0100
0000
0010
0000
0001
0100
0001
0000
0000
0000
0100
0000
0001
0000
,
0100
0000
0010
1000
0010
0000
0000
0000
0100
0000
0001
0000
1000
0000
0100
0000
,
0010
0100
1000
1000
0010
0100
0001
0001
,
0010
0001
0010
0000
0100
0000
1000
0000
0010
1000
0010
0000
0100
0000
0001
0000
,
0101
0000
0000
0000
1100
0000
0000
0000
1000
0100
0010
0000
0001
0000
0010
0000
,
0011
0000
0000
0000
1100
0000
0000
0000
1000
0100
0010
0000
0001
0100
0010
0000
,
0100
0001
1000
0100
0010
0100
0020
0230
,
1300
0010
0100
0001
1000
0100
0020
0230
,
0310
0000
0001
0000
1000
0000
0010
0000
0100
0000
0010
0100
0000
0100
0010
0000
,
1000
0001
1001
0000
0001
0010
0100
1000
,
0010
1000
0010
0000
2020
0000
3030
0000
,
0100
0001
0100
0000
0202
0000
0303
0000
,
0001
0010
0100
1000
1010
0000
1000
0010
,
0100
0000
0001
0000
0011
0000
0000
0000
0100
0010
0100
0000
0010
0000
0000
0000
,
0010
0100
0010
0000
0220
0000
0330
0000
,
1000
0001
1000
0000
2002
0000
3003
0000
,
1000
0000
0010
0000
0100
0001
0100
0000
0010
0000
0000
0000
0100
0000
0001
0000
,
0010
0000
0100
1000
0100
0000
0000
0000
0010
0000
0001
0000
1000
0000
1000
0000
;

//--------------- dance-single - Talkion ----------------
#NOTES:
     dance-single:
     Talkion:
     Challenge:
     17:
     0,0,0,0,0:
0000
0000
0000
0000
,
0000
0000
0000
0000
,
0000
0000
0000
0000
,
0000
0000
0000
0000
,
0000
0000
0000
0000
,
0000
0000
0000
0000
,
0000
0000
0000
0000
,
0000
0000
0000
0000
,
0000
0000
0000
0000
,
0000
0000
0000
0000
,
0001
0001
0100
0100
,
0010
0010
1000
1000
,
0001
0001
0010
0010
,
0100
0100
1000
1000
,
0001
0100
0001
1000
0001
0010
0001
1000
,
0010
0100
0010
0001
0010
0100
0010
1000
,
0001
0010
0100
1000
0001
0010
0100
1000
0001
0100
0010
1000
0001
1000
0010
0100
,
0002
0003
0002
0003
0002
0003
1100
0000
,
1002
0000
0000
0000
0100
0000
0000
0000
0100
0000
0000
0103
0001
1000
0100
0000
,
0000
1000
0100
0000
0100
0000
1000
0001
0100
0010
1000
0001
0200
0000
0000
0000
,
0302
0000
0000
0000
0010
0000
0000
0000
0010
0000
0000
0013
0001
1000
0010
0000
,
0000
1000
0010
0000
0010
0000
1000
0001
0020
0000
2030
0000
3020
0000
0032
0000
,
0103
0010
1001
0010
1001
0000
2010
0000
,
3100
0000
0000
0000
1000
0000
0000
1000
0001
0000
0000
0000
0100
0000
0000
0000
,
0010
1000
1001
0001
0011
0000
0010
0001
,
1001
0000
1000
0000
0010
0000
0010
0100
0001
0000
1000
0000
0100
0010
0001
0000
,
2000
0000
0000
0000
0010
0000
0000
0000
0010
0000
0000
3010
1000
0100
0010
0000
,
0000
0100
0010
0000
0010
0000
0001
1000
0020
0000
0032
0000
0023
0000
2030
0000
,
3001
1000
0100
1000
0002
0000
0000
0000
0100
0000
0000
0103
0001
0010
0100
0000
,
0000
0010
0100
0000
0100
0000
1000
0001
0200
0000
0320
0000
0230
0000
0320
0000
,
1030
1001
0011
2001
,
3010
0000
0000
0000
0100
0000
0000
0100
0010
0000
1000
0001
0010
0000
0000
0000
,
0011
0002
0000
0000
0103
0110
1001
0000
,
1100
0000
0000
0000
1100
0000
1000
0000
0001
0000
0100
0000
0010
1000
0010
1000
,
0001
0000
0000
0000
0011
0000
0000
0000
1001
0000
0000
1000
0010
0100
0001
0000
,
0010
0100
0001
0000
0100
0000
0010
0100
1000
0000
0000
0100
1000
0001
0100
0010
,
1000
0000
1000
0001
0010
0000
0000
0000
0011
0000
0000
0001
1000
0010
0100
0000
,
1000
0100
0010
0000
1000
0000
0100
0010
0001
0000
0010
0001
0100
0000
0010
1000
,
0100
0000
0000
0000
1100
0000
0000
0000
1001
0000
0000
0001
0100
0010
1000
0000
,
0100
0010
1000
0000
0010
0000
0100
0010
0001
0000
0000
0010
0001
1000
0010
0100
,
0001
0000
0001
1000
0100
0000
0000
0000
1100
0000
0000
1000
0001
0100
0010
0000
,
0001
0010
1000
0000
0001
0000
1000
0000
0100
0001
0100
0010
0002
0000
2003
0000
,
3010
0000
0010
0000
0101
0000
0000
0000
1001
0000
0000
1000
0100
0010
0001
0000
,
1000
0010
0001
0000
0010
0000
0100
0010
1000
0000
0000
0100
1000
0001
0010
0100
,
1000
0000
1000
0010
0100
0000
0000
0000
0101
0000
0000
0001
1000
0100
0010
0000
,
1000
0010
0100
0000
1000
0000
0001
0000
0200
0000
0320
0000
0230
0000
0320
0000
,
1030
0000
0000
0000
1010
0000
0000
0000
1001
0000
0000
0001
0010
0100
1000
0000
,
0001
0100
1000
0000
0100
0000
0010
0100
0001
0000
0000
0010
0001
1000
0100
0010
,
0002
0100
2003
0010
3002
0010
2003
0100
,
3001
0000
0011
1010
0000
1002
0000
0000
,
0103
0000
0010
0000
0100
0020
0100
0000
,
1030
0000
0001
0000
1000
0002
1000
0000
,
0103
0000
0010
0000
0100
0020
0100
0000
,
1030
0001
0010
0100
,
2200
0000
0000
0000
3300
2002
0000
3003
,
0202
0000
0303
0120
0000
1000
0000
1030
,
1002
0000
0013
0000
2001
0000
3010
0210
,
0000
0301
0000
0001
1000
1000
1000
0000
,
1100
0101
1100
0101
,
1010
0011
1010
0011
,
1100
0101
1100
0101
,
0110
1001
0110
1001
,
1000
0100
1000
0001
1000
0010
1000
0001
,
0010
0100
0010
1000
0010
0100
0010
0001
,
1000
0010
0100
0001
1000
0100
0010
0001
1000
0010
0100
0010
1000
0001
0010
0100
,
2000
0010
0001
3100
,
1000
0001
0100
1000
0001
0010
1000
0001
,
1000
0010
0001
1000
0100
0001
1000
0100
,
0010
1000
0001
0100
1000
0001
0100
0010
,
0001
0000
1000
0000
0100
0000
0001
0000
1000
0100
1000
0100
0010
0001
0010
0001
,
1000
0010
0010
0001
0100
0100
1000
0001
,
1000
0100
0100
0001
0010
0010
1000
0001
,
0010
0100
1000
0001
0010
0100
1000
0001
0100
0010
1000
0001
0100
0010
1000
0100
,
0020
0030
0020
0030
0021
0031
1001
1000
,
0010
0000
0200
0001
0000
0310
0100
0000
0010
0000
2000
0010
0000
3001
1000
0000
,
0100
0000
0020
1000
0000
0130
0010
0000
0001
0000
1000
0000
1001
0000
0000
0000
,
1000
0000
0020
1000
0000
0130
0010
0000
0100
0000
0002
0100
0000
1003
0001
0000
,
0010
0000
0200
0001
0000
0310
0100
0000
1000
0000
0001
0000
1001
0000
0000
0000
,
1000
0000
0002
0010
0000
1003
0001
0000
0100
0000
0020
1000
0000
0130
0010
0000
,
1000
0000
0200
0001
0000
0310
0100
0000
1000
0000
0001
0000
1001
0000
0000
0000
,
0001
0000
2000
0100
0000
3001
1000
0000
0010
0000
0200
0001
0000
0310
0100
0000
,
0020
0000
0000
2030
0000
0000
3001
0000
0010
0000
0100
0000
1000
0000
1000
0000
,
0001
0000
0200
1000
0000
0301
0100
0000
0010
0000
2000
0010
0000
3100
1000
0000
,
0100
0000
0020
1000
0000
0031
0010
0000
0001
0000
1000
0000
0110
0000
0001
0000
,
1000
0000
0020
0001
0000
1030
0010
0000
0100
0000
0002
0100
0000
0013
0001
0000
,
0010
0000
0200
0001
0000
1300
0100
0000
1000
0000
0001
0000
0110
0000
1000
0000
,
0001
0000
1000
0010
0001
0010
0100
0000
0001
0000
1000
0000
2200
0000
3300
0000
,
1000
0000
0001
0100
1000
0100
0010
0000
1000
0000
0001
0000
0022
0000
0033
0000
,
1001
0100
1010
0000
0011
0000
1001
0010
,
0101
0000
0000
0000
0101
0000
0000
0000
0200
0000
0320
0000
1030
0010
0100
0001
,
2000
0000
0000
0000
3001
0010
0020
0000
,
0000
0100
0130
0000
1001
0000
0000
0000
,
0002
0000
0100
2003
,
0000
0000
0000
3100
1000
0000
0001
0000
,
0100
0000
0100
0000
0010
1000
2000
0000
,
0000
0000
3100
0000
1001
0001
0100
0000
,
0010
0020
0000
0000
1030
0002
0000
0000
,
0023
0000
0000
0000
0130
0010
0100
0100
;

//--------------- dance-double - ----------------
#NOTES:
     dance-double:
     :
     Easy:
     8:
     0,0,0,0,0:
00000000
00000000
00000000
00000000
,
00000000
00000000
00000000
00000000
,
00000000
00000000
00000000
00000000
,
00000000
00000000
00000000
00000000
,
00000000
00000000
00000000
00000000
,
00000000
00000000
00000000
00000000
,
20000000
00000000
00000000
30000000
,
00020000
00000000
00000000
00030000
,
00100000
00001000
00010000
00000100
,
00001000
00001000
00000100
00000100
,
00002000
00000000
00000000
00003000
,
00000002
00000000
00000000
00000003
,
00000010
00000100
00010000
00001000
,
00100000
00100000
01000000
01000000
,
10000000
00100000
01000000
00010000
,
00100000
00001000
00010000
00000100
,
00001000
00000010
00000100
00000001
,
00001000
00000110
00001001
00000110
,
00001001
00000001
00000010
00000100
,
00001000
00001000
00000100
00010000
,
00011000
00001000
01000000
00100000
,
10000000
10000000
01000000
00100000
,
00010000
00010000
00100000
00002000
,
00023000
00032000
00023000
00032000
,
00013000
01000000
10000000
00100000
,
01000000
00100000
01000000
01000000
,
10010000
10000000
00100000
01000000
,
00010000
00010000
01000000
00001000
,
00011000
00010000
00000100
00000010
,
00000001
00000001
00000100
00000010
,
00001000
00001000
00000010
00020000
,
00032000
00023000
00032000
00023000
,
00031000
00000100
00000001
00000010
,
00000100
00000010
00000100
00000100
,
00000010
00000110
00000110
00000110
,
00000001
00000100
00001000
00010000
,
01000000
01100000
01100000
01100000
,
10000000
01000000
00010000
00001000
,
00010000
00011000
00011000
00011000
,
00001000
00000100
00000001
00000010
,
00000100
00001001
00001001
00001001
,
00000100
00000010
00001000
00000100
,
00020000
00031000
00001000
00100000
,
00010000
00010000
00100000
00100000
,
01000000
10000000
01000000
00010000
,
00001000
00001000
00020000
00032000
,
00013000
00001000
00100000
00010000
,
01000000
00100000
10000000
01000000
,
00100000
00001000
00010000
00000100
,
00000010
00000001
00001000
00000010
,
00000200
00000000
00000000
00000000
,
00000320
00000000
00000000
00000000
,
00002030
00000000
00000000
00000000
,
00003200
00000000
00000000
00000000
,
00010300
00000000
00000000
00000000
,
00001000
00000000
00000000
00000000
,
00010000
00000000
00000000
00000000
00001000
00000000
00000000
00010000
,
00000000
00000000
00001000
00011000
,
00010000
01000000
10000000
00000000
,
00100000
01000000
00010000
00000000
,
10000000
01000000
00010000
00001000
,
00000100
00000001
00001000
00000000
,
00001000
00000100
00000001
00000000
,
00000100
00000010
00000001
00000000
,
00000001
00000100
00001000
00010000
,
00001000
00001000
00001000
00001000
,
00020000
00000000
00000000
00000000
,
00032000
00000000
00000000
00000000
,
00203000
00000000
00000000
00000000
,
02300000
00000000
00000000
00000000
,
03100000
01000000
00100000
00000000
01100000
00000000
00000000
00000000
,
10000000
00010000
10000000
00000000
10010000
00000000
00000000
00000000
,
00100000
00001000
00010000
00000100
,
00001000
00001000
00001001
00000000
,
00000110
00001001
00000110
00000000
,
00001001
00000110
00001001
00000000
,
00000001
00000100
00001000
00001000
,
00010000
00100000
00100000
01000000
,
01100000
10010000
01100000
00000000
,
10010000
01100000
10010000
00000000
,
10000000
01000000
00010000
00010000
,
00001000
00000010
00000010
00000100
,
00001000
00001000
00000001
00000001
,
00000100
00001000
00010000
00001000
,
00011000
00011000
00010000
01000000
,
01100000
01100000
10000000
00010000
,
10000000
01000000
00010000
00001000
,
00010000
00001000
00000100
00000001
,
00000010
00000100
00000010
00000001
,
00001000
00000010
00000200
00000000
,
00000310
00000100
00000220
00000330
,
00001000
00000001
00002002
00003003
,
00000001
00000100
00001000
00010000
,
00001000
00010000
01000000
10000000
,
00100000
01000000
02200000
03300000
,
00010000
10000000
20020000
30030000
,
10000000
10000000
00100000
01000000
,
00010000
00000000
00010000
00000000
00100000
00001000
00100000
00001000
;

//--------------- dance-double - ----------------
#NOTES:
     dance-double:
     :
     Medium:
     12:
     0,0,0,0,0:
00000000
00000000
00000000
00000000
,
00000000
00000000
00000000
00000000
,
00000000
00000000
00000000
00000000
,
00000000
00000000
00000000
00000000
,
00000000
00000000
00000000
00000000
,
00000000
00000000
00000000
00000000
,
00200000
00300000
02000000
03000000
,
00100000
01000000
00100000
10000000
00010000
00000000
01100000
00000000
,
10000000
01000000
00010000
00001000
00010000
00000000
00001000
00020000
,
00000000
00031000
00000100
00000001
00000010
00000010
00000010
00000000
,
00000011
00000100
00000010
00001000
,
00001100
00000010
00000001
00000100
,
00001000
00010000
00001000
00000000
00010000
00001000
00010000
00000000
,
00020000
01000000
00031000
00011000
,
00010000
00001000
00100000
00000000
00010000
01000000
00100000
00000000
,
10000000
01000000
00100000
00000000
00010000
00100000
00001000
00000000
,
00010000
00001000
00000100
00000010
00001000
00000001
00000010
00000100
,
00000010
00000110
00001001
00000110
,
00000002
00000000
00000010
00000000
00000103
00000000
00000001
00000100
,
00001000
00010000
00001000
00000100
00000001
00000000
00000010
00000000
,
00000200
00000000
00000010
00000000
00001300
00000000
00000001
00000100
,
00001000
00010000
00100000
10000000
01000000
00000000
01100000
00000000
,
10000000
01000000
00100000
00010000
10000000
00000000
10100000
00000000
,
10010000
01100000
00110000
00011000
,
00001000
00010000
00001000
00100000
00010000
00000000
00100000
00010000
,
01000000
00100000
10000000
00000000
01000000
00100000
01100000
00000000
,
02000000
00000000
00100000
00000000
13000000
00000000
10000000
01000000
,
00010000
00001000
00000010
00000001
00000100
00000000
00000110
00000000
,
00000001
00000100
00000010
00000000
00000110
00000000
00001000
00000010
,
00000001
00000010
00001000
00000100
00001000
00000000
00011000
00000000
,
00010000
00001000
00010000
00000010
00001000
00000000
00000011
00000000
,
00000101
00000110
00001100
00011000
,
00001000
00010000
01000000
00000000
00100000
00010000
10000000
00000000
,
00010000
01000000
00100000
00000000
01000000
00100000
01000000
00000000
,
00200000
00000000
10000000
00000000
01300000
00000000
00100000
10000000
,
01000000
00010000
00001000
00010000
00001000
00000100
00000001
00000000
,
00000020
00000000
00000001
00000000
00000130
00000000
00000010
00000001
,
00000100
00001000
00010000
00001000
00010000
01000000
10000000
00000000
,
00020000
00000000
00100000
00000000
01030000
00000000
00100000
01000000
,
00010000
00100000
00001000
00010000
00001000
00000010
00000100
00000000
,
00000020
00000000
00001000
00000000
00000130
00000000
00000010
00000100
,
00001000
00000100
00010000
00001000
00010000
00100000
01000000
00000000
,
00010000
00010000
00010000
00000000
10010000
00000000
00010000
00100000
,
00010000
01000000
00100000
10000000
01000000
00100000
00010000
00100000
,
00001000
00000000
00010000
00000000
00011000
00000000
00001000
00010000
,
00001000
00000010
00000001
00000100
00000020
00000230
00000320
00000230
,
00000301
00000100
00000010
00000000
00001000
00000010
00000100
00000000
,
00000010
00000100
00001000
00000000
00010000
00001000
00010000
00000000
,
00001000
00010000
01000000
00100000
00010000
10000000
00100000
00010000
,
00001000
00000000
00010000
00010000
00000000
00001000
00000000
00000000
,
00020000
00000000
00032000
00000000
,
00003200
00000000
00000302
00000000
,
00000023
00000000
00000230
00000000
,
00020300
00000000
00032000
00000000
,
00013000
00000000
00000000
00000000
00000000
00001000
00000000
00000000
,
00100000
00000000
00000000
01000000
00000000
00000000
00000000
00000000
,
10010000
00000000
00000000
00000000
01100000
00000000
00000000
00110000
,
00000000
00010000
00100000
00000000
01000000
01000000
01000000
00000000
,
10000000
00000000
00100000
00000000
10000000
00100000
10000000
00000000
,
01000000
00000000
00100000
00000000
01000000
00100000
01000000
00000000
,
00100000
00001000
00100000
00000000
00001000
00010000
00000100
00000000
,
00001000
00000100
00000010
00000001
,
00000010
00000010
00000100
00000000
00000010
00000000
00000001
00000000
,
00001000
00001000
00000010
00000000
00000100
00000000
00000010
00000000
,
00001000
00000100
00000010
00000001
00001000
00000100
00000010
00000001
,
00000100
00001000
00010000
00001000
00010000
00001000
00100000
01000000
,
00200000
00000000
02300000
00000000
13000000
00100000
01000000
00000000
,
00200000
00000000
02300000
00000000
03010000
00100000
00001000
00000000
,
00020000
00000000
00032000
00000000
00013000
00001000
00000100
00000000
,
00000020
00000000
00000230
00000000
00000310
00001000
00000001
00000000
,
00000010
00000001
00000010
00000001
00000100
00000010
00000100
00000010
,
00001000
00000100
00001000
00000100
00010000
00001000
00010000
00000000
,
00001000
00010000
00100000
10000000
00100000
01000000
00010000
00100000
,
00001000
00000000
00010000
00000000
00001000
00010000
00001000
00000000
,
00100000
00010000
00100000
00000000
00110000
00000000
00011000
00000000
,
00000010
00001000
00000010
00000000
00001010
00000000
00011000
00000000
,
00001000
00010000
00001000
00010000
00000100
00000000
00001000
00000010
,
00001000
00000010
00000100
00000000
00000010
00000010
00000010
00000000
,
00001000
00000100
00000001
00000000
00000110
00000000
00001001
00000000
,
00000001
00000100
00001000
00000000
00000110
00000000
00001001
00000000
,
00001000
00000100
00001000
00000100
00010000
00000000
00001000
00010000
,
00001000
00010000
00100000
00000000
01000000
00100000
01000000
00000000
,
00100000
00100000
01000000
00000000
01000000
01000000
00100000
00000000
,
01000000
00100000
10000000
00000000
01000000
00100000
00010000
00000000
,
00110000
00000000
00011000
00000000
00001000
00010000
00000100
00000000
,
00001100
00000000
00001001
00000000
00000001
00000100
00000010
00000000
,
00000100
00000000
00000010
00000000
00001000
00000100
00010000
00001000
,
00100000
00000000
00001000
00000000
00010000
00001000
00100000
01000000
,
00100000
00000000
01000000
00000000
10000000
00000000
01000000
00100000
,
01000000
00100000
00010000
00000000
20000000
00000000
00000000
00000000
,
30100000
01000000
00010000
00000000
00220000
00000000
00330000
00000000
,
00001000
00010000
00000100
00000000
00020200
00000000
00030300
00000000
,
00000100
00001000
00000100
00000010
00000001
00000000
00000100
00000010
,
00001000
00000100
00010000
00000000
00001000
00010000
00001000
00000000
,
00010000
00001000
00100000
00000000
00220000
00000000
00330000
00000000
,
10000000
01000000
00100000
00000000
02200000
00000000
03300000
00000000
,
01000000
10000000
01000000
00100000
00010000
00000000
01000000
00100000
,
10000000
00010000
01000000
00000000
00001000
00010000
00001000
00001000
;

//--------------- dance-double - ----------------
#NOTES:
     dance-double:
     :
     Hard:
     15:
     0,0,0,0,0:
00000000
00000000
00000000
00000000
,
00000000
00000000
00000000
00000000
,
00000000
00000000
00000000
00000000
,
00000000
00000000
00000000
00000000
,
00000000
00000000
00000000
00000000
,
00000000
00000000
00000000
00000000
,
00020000
00031000
00002000
00013000
,
00001000
00010000
01000000
00010000
00001000
00000000
00011000
00000000
,
00010000
00001000
00000100
00001000
00010000
00000000
00010000
00002000
,
00000000
00003100
00000010
00000100
00000001
00000010
00000110
00000000
,
00000010
00000001
00000010
00000001
00000100
00001000
00010000
00000000
,
00001000
00010000
00001000
00010000
00100000
10000000
01000000
00000000
,
10000000
01000000
00010000
00001000
00010000
01000000
10000000
00100000
,
00020000
00001000
00100000
00031000
,
00011000
00000000
00001000
00010000
00001000
00100000
00010000
00000000
,
01100000
00000000
10000000
01000000
00010000
00001000
00010000
00000000
,
00001000
00010000
00001000
00000000
00000010
00000000
00000100
00000000
00001000
00000001
00001000
00000000
00000010
00000000
00000100
00000000
,
00000101
00000110
00001100
00011000
,
00200000
00000000
00000000
00000000
00001000
00000000
00000000
00000000
01300000
00000000
00000000
10000000
00100000
00000000
00010000
00000000
,
00001000
00010000
00001000
00000000
00010000
00000000
00001000
00000000
00000100
00000000
00000010
00000000
00001000
00000000
00000000
00000000
,
00000020
00000000
00000000
00000000
00010000
00000000
00000000
00000000
00000130
00000000
00000000
00000001
00000010
00000000
00001000
00000000
,
00010000
00001000
00010000
00000000
00100000
00000000
10000000
00000000
01000000
00000000
00100000
00000000
00010000
00000000
00100000
00000000
,
00001000
00010000
00001000
00010000
00011000
00000000
00020000
00000000
,
00032000
00203000
02300000
23000000
,
30100000
01000000
00100000
00000000
01000000
00000000
00010000
00000000
00110000
00000000
00000000
00000000
00100000
00010000
00100000
00000000
,
00001000
00000000
00010000
00000000
00011000
00000000
00000000
00000000
00010000
00000100
00001000
00000000
00000100
00001000
00000001
00000000
,
00002000
00000000
00000000
00000000
00000010
00000000
00000000
00000000
00003100
00000000
00000000
00001000
00000100
00000000
00000001
00000000
,
00000100
00001000
00000100
00000000
00010000
00000000
00001000
00000000
00011000
00000000
00000000
00000000
00110000
00000000
00000000
00000000
,
00010000
10000000
00010000
10000000
00020000
00000000
00000000
00000000
00130000
00000000
00000000
00100000
00001000
00000000
00010000
00000000
,
00001000
00010000
00001000
00000000
00000100
00000000
00000001
00000000
00000010
00000000
00001000
00000000
00010000
00000000
00001000
00000000
,
00020000
02030000
23000000
30020000
10030000
00000000
20000000
00000000
,
30200000
00320000
00032000
00003200
,
00000301
00000010
00001000
00000010
00000001
00001000
00000100
00010000
,
00002000
00000000
00000000
00000000
00023000
00000000
00000000
00000000
00031000
00010000
00001000
00000000
00100000
00000000
00010000
00000000
,
01000000
00000000
00000000
00000000
01100000
00000000
00000000
00000000
01100000
00000000
00000000
00100000
10000000
00000000
01000000
00000000
,
00010000
00000000
00001000
00010000
00002000
00000000
00000000
00000000
00013000
00001000
00010000
00000000
00000100
00001000
00000100
00000000
,
00001000
00000000
00000000
00000000
00000110
00000000
00000000
00000000
00000110
00000000
00000000
00000010
00000001
00000000
00000100
00000000
,
00001000
00000000
00010000
00001000
00020000
00000000
00000000
00000000
00031000
00010000
00001000
00000000
01000000
00010000
01000000
00000000
,
00010000
00000000
00000000
00000000
10100000
00000000
00000000
00000000
10100000
00000000
00000000
10000000
00100000
00000000
00010000
00000000
,
00001000
00000000
00000100
00000010
00000200
00000000
00000000
00000000
00000310
00000100
00000010
00000000
00001000
00000001
00001000
00000000
,
00000010
00000000
00000000
00000000
00000011
00000000
00000000
00000000
00000011
00000000
00000000
00000001
00000010
00000000
00001000
00000000
,
00010000
00000000
01000000
00100000
02000000
00000000
00000000
00000000
03100000
01000000
00100000
00000000
00010000
10000000
00010000
00000000
,
00100000
00000000
00100000
00000000
00100000
00000000
00000000
00000000
01100000
00000000
00000000
01000000
00100000
00000000
00010000
00000000
,
01000000
00000000
00001000
00010000
00002000
00000000
00000000
00000000
00013000
00000000
00000000
00010000
00001000
00000000
00000100
00000000
,
00000010
00000000
00000100
00000010
00000200
00000000
00000000
00000000
00000310
00000000
00000000
00000100
00000010
00000000
00001000
00000000
,
00000001
00001000
00000001
00000000
00001000
00000010
00001000
00000000
00000100
00000000
00010000
00000000
00000100
00000000
00010000
00000000
,
00001000
00000100
00000001
00000010
00000100
00001000
00000100
00000010
,
00000001
00000100
00001000
00010000
01000000
10000000
00100000
01000000
,
00010000
00000000
00100000
00000000
01000000
00000000
10000000
00000000
00100000
00000000
01000000
00000000
00010000
00100000
00010000
00000000
,
00110000
00000000
00110000
00011000
00000000
00011000
00000000
00000000
,
00020100
00000010
00001000
00030100
,
01002000
00100000
00010000
01003000
,
00001000
00000100
00000001
00000010
,
00001000
00010000
00001000
00010000
,
00011000
00000000
00000000
00000000
00000000
00110000
00000000
00000000
,
01100000
00000000
00000000
11000000
00000000
00000000
00000000
00000000
,
00110000
00000000
00000000
00000000
00011000
00000000
00000000
00001100
,
00000000
00000000
00000011
00000000
00000100
00000100
00000100
00000000
,
00000001
00000010
00000001
00000010
00000001
00000010
00001000
00010000
,
00001000
00010000
00001000
00010000
00001000
00010000
01000000
10000000
,
00100000
10000000
01000000
00010000
01000000
00100000
00001000
00010000
,
00000100
00001000
00000100
00000001
00000100
00010000
00001000
00010000
,
00001000
00010000
00001000
00000000
00010000
00000000
00001000
00000000
00100000
00000000
00010000
00000000
01000000
00000000
00100000
00000000
,
10000000
01000000
10000000
00000000
01000000
00000000
00100000
00000000
00001000
00000000
00010000
00000000
00001000
00000000
00000010
00000000
,
00000100
00001000
00000100
00000000
00000010
00000000
00000001
00000000
00000100
00000001
00000100
00000000
00000010
00000000
00001000
00000000
,
00000100
00000010
00000001
00000100
00001000
00010000
01000000
10000000
,
00010000
00000000
00100000
00000000
01000000
10000000
01000000
00000000
00100000
00000000
01000000
00000000
00100000
01000000
00100000
00000000
,
00010000
00000000
00100000
00000000
00001000
00010000
00001000
00000000
00010000
00000000
00000100
00000000
00001000
00000000
00000010
00000000
,
00000100
00000000
00000001
00000000
00001000
00000010
00001000
00000000
00000001
00000000
00000010
00000000
00000100
00001000
00000100
00000000
,
00010000
00000000
00001000
00000000
00010000
00001000
00010000
00000000
00001000
00000000
00100000
00000000
00010000
01000000
00100000
00000000
,
10000000
01000000
00100000
00010000
01000000
00100000
10000000
01000000
,
00100000
00001000
00010000
00001000
00100000
00001000
00010000
00000100
,
00000010
00000001
00000010
00000000
00000100
00000010
00000100
00000000
00001000
00000100
00001000
00000000
00000100
00010000
00000100
00000000
,
00010000
00000000
00001000
00000000
00010000
00010000
00010000
00000000
,
00001000
00000000
00100000
00000000
00110000
00000000
00000000
00000000
01010000
00000000
00000000
00000000
00010000
01000000
00010000
00000000
,
10000000
00000000
00100000
00000000
10100000
00000000
00000000
00000000
11000000
00000000
00000000
00000000
10000000
01000000
00100000
00000000
,
00010000
00000000
00100000
00000000
00001000
00000000
00010000
00000000
00001000
00010000
00001000
00000000
00000010
00000000
00000100
00000000
,
00001000
00000000
00000001
00001000
00000001
00000000
00000100
00000000
00000010
00000000
00001000
00000000
00000100
00000000
00000000
00000000
,
00010000
00000000
00000010
00000000
00001010
00000000
00000000
00000000
00001100
00000000
00000000
00000000
00001000
00000100
00001000
00000000
,
00000001
00000000
00000010
00000000
00000011
00000000
00000000
00000000
00000101
00000000
00000000
00000000
00000001
00000100
00000010
00000000
,
00001000
00000000
00000010
00000000
00010000
00000000
00001000
00000000
00010000
00001000
00010000
00000000
00100000
00000000
01000000
00000000
,
00010000
00000000
10000000
00010000
10000000
00000000
01000000
00000000
00100000
00000000
00010000
00000000
01000000
00000000
00100000
00000000
,
10000000
01000000
00100000
00100000
00001000
00010000
00001000
00001000
,
00010000
00001000
00010000
00000000
00000100
00000000
00000010
00000000
00000001
00001000
00000001
00000000
00000100
00000000
00000010
00000000
,
00000110
00000000
00000000
00000000
00001010
00000000
00000000
00000000
00010000
00001000
00010000
00000000
00001000
00000000
00100000
00000000
,
00110000
00000000
00000000
00000000
11000000
00000000
00000000
00000000
00010000
01000000
00100000
00000000
10000000
01000000
00100000
00000000
,
00010000
10000000
01000000
00010000
00001000
00010000
00002000
00023000
,
00031000
00000100
00000001
00001000
00000010
00000100
00000020
00000230
,
00000310
00000000
00001000
00000000
00000100
00000000
00010000
00000000
00001000
00000000
00010000
00001000
00000000
00001000
00010000
00000000
,
00001000
00010000
00011000
00000000
00001000
00010000
01000000
10000000
,
00100000
10000000
01000000
00000000
11000000
00000000
00000000
00000000
,
10000000
01000000
00010000
00000000
01010000
00000000
00000000
00000000
,
00010000
00001000
00000100
00000001
00000101
00000000
00000001
00000010
,
00001000
00000000
00000010
00000000
00000011
00000000
00000000
00000000
00000100
00000010
00000100
00000000
00000010
00000000
00000000
00000000
,
00001000
00000100
00010000
00000000
00010100
00000000
00000000
00000000
,
00001000
00100000
00010000
00000000
00110000
00000000
00000000
00000000
,
00010000
00000000
00100000
00000000
01000000
00100000
01000000
00000000
10000000
00000000
00000000
00000000
01000000
00000000
00100000
00000000
,
00001000
00000000
00010000
00001000
00010000
00000000
00000000
00000000
00001000
00000000
00000100
00000000
00000001
00000000
00000001
00000000
;
