#TITLE:Libertas;
#SUBTITLE:;
#ARTIST:Zekk;
#TITLETRANSLIT:;
#SUBTITLETRANSLIT:;
#ARTISTTRANSLIT:;
#GENRE:;
#CREDIT:;
#MUSIC:Libertas.ogg;
#BANNER:Libertas.png;
#BACKGROUND:Libertas-bg.png;
#CDTITLE:;
#SAMPLESTART:73.516;
#SAMPLELENGTH:12.000;
#SELECTABLE:YES;
#OFFSET:-0.016;
#BPMS:0.000=160.000;
#STOPS:;
#ORIGIN:;
#PREVIEWVID:;
#JACKET:Libertas-jacket.png;
#CDIMAGE:;
#DISCIMAGE:;
#BGCHANGES:;
#FGCHANGES:;

//--------------- dance-single - kaya ----------------
#NOTES:
     dance-single:
     kaya:
     Easy:
     11:
     0.579881,0.666448,0.284591,0.38944,0.220932,542,504,38,52,0,0,0,0,0,0.579881,0.666448,0.284591,0.38944,0.220932,542,504,38,52,0,0,0,0,0:
0000
0000
0000
0000
,
0000
0000
0000
0000
,
0000
0000
0000
0000
,
0000
0000
0000
0000
,
1001
0000
0100
0000
0010
0000
0000
0110
0000
0000
1001
0000
0000
0000
0000
0000
,
2000
0000
0000
0100
0000
0000
3100
0000
0002
0000
0000
0010
0000
0000
0013
0000
,
2000
0000
0000
0010
0000
0000
3010
0000
0002
0000
0000
0100
0000
0000
0103
0000
,
2000
0000
0000
0000
0000
0000
0000
0000
0001
0000
0000
0001
0000
0000
3001
0000
,
0110
1001
1010
0101
,
0001
0010
0100
0020
0000
0031
1000
0000
,
1000
0010
0100
0020
0000
1030
0001
0000
,
0100
0010
0100
0002
0000
0013
0100
0000
,
0100
0010
0100
2000
0000
3010
0100
0000
,
0001
0010
0001
1000
0010
1000
0001
0100
,
0001
1000
0100
1000
0001
0100
0010
1000
,
0001
0001
0010
0010
0100
0100
1000
1000
,
0002
0000
0010
0103
,
1001
0000
1000
0001
0100
1000
0100
0001
,
0010
0000
1000
0000
0010
0000
0010
0001
0000
0000
1000
0000
0010
0000
0010
0000
,
0200
0300
0001
1000
0010
0001
0010
1000
,
0200
0000
0000
0000
0000
0000
0000
0000
0000
0010
0000
0000
0000
0000
0000
0000
0000
0000
1300
0000
0000
0000
0000
0000
0010
0000
0000
0000
0000
0000
0000
0000
0010
0000
0000
0000
0100
0000
0000
0000
0000
0000
0000
0000
0100
0000
0000
0000
,
0002
0003
0010
0100
1000
0010
0100
0010
,
1000
0000
0100
0000
0010
0000
0010
0001
0000
0000
1000
0000
0010
0000
0100
0000
,
0002
0000
1000
0000
0000
0010
0000
0000
,
1003
0000
0100
0000
0000
0100
0010
0000
0001
0000
0001
0000
1000
0000
0000
0000
,
0110
0000
0001
1000
0010
0100
1000
0100
,
0001
0000
0001
0000
1000
0000
1000
0000
0100
0000
0000
0100
0010
0000
0000
0000
,
0001
0000
0010
0000
0100
0000
0001
0000
0100
0000
0010
0001
0000
0000
0001
0000
,
1000
0000
0001
0000
0100
0000
0010
0000
0001
0000
0000
0010
0000
0000
1000
0000
,
0200
0000
0310
0001
0100
0010
1000
0001
,
0200
0000
0310
1000
0100
0010
0001
1000
,
0002
0000
0000
0013
0000
0100
0010
0000
0001
0010
0000
0100
,
2000
0000
0000
0000
3001
0010
0110
0000
,
0002
0000
0000
0000
,
2003
0000
0000
0000
,
3020
0000
0000
0000
,
0230
0000
0302
0000
,
1003
0000
0000
0001
0000
0000
0100
0000
0000
0000
0010
0000
1000
0000
0000
0000
,
0001
0000
0000
1000
0000
0000
0100
0000
0000
0000
0010
0000
0010
0000
0001
0000
,
2000
0000
0000
0000
,
3010
0000
0100
0000
0001
1000
0001
0000
0010
0000
0100
0000
1000
0000
0000
0000
,
1010
0001
0100
0020
0000
1030
0001
0000
,
0011
1000
0100
0020
0000
1000
0031
0000
,
0101
1000
0010
0200
0000
1000
0301
0000
,
1100
0001
0010
0200
0000
0001
1300
0000
,
0010
0100
0010
1000
0100
1000
0001
0010
,
0001
0100
0010
0100
0001
0010
0100
1000
,
0001
0000
0001
0000
1000
0000
1000
0000
0010
0100
0010
0000
1000
0002
2000
0000
,
0000
0000
0000
3003
0010
0000
0100
0000
,
0021
0000
0000
0000
0130
0000
0001
0000
0100
0010
0000
0010
0000
0000
0001
0000
,
1020
0000
0000
0000
0130
0000
1000
0000
0100
0010
0000
0010
0000
0000
1000
0000
,
0021
0000
0000
0000
1030
0000
0010
0000
0100
1000
0000
1000
0000
0000
0010
0000
,
1002
0000
0000
0000
0103
0000
0010
0000
1000
0001
0000
1000
0001
0000
1000
0000
,
0002
0000
0000
0000
0013
0000
0100
0000
1000
0100
0000
0010
0000
0000
0001
0000
,
2000
0000
0000
0000
3010
0000
0100
0000
0001
0010
0000
0100
0000
0000
1000
0000
,
0001
0000
0000
0001
0000
0000
0001
0000
0010
0000
0100
0000
0001
0000
0100
0000
,
1000
0010
0100
0001
0010
0100
1000
0000
,
1001
0000
0001
1000
0001
0100
0001
1000
,
0001
0010
0100
1000
0001
0100
0010
1000
,
0001
0001
1000
0100
1000
0001
1000
0100
,
1000
0000
0010
0000
0100
0000
0001
0000
0010
0000
0100
0010
0000
0100
0010
0000
,
0002
0000
1000
0000
1000
0000
1003
0001
,
2000
0000
0001
0000
0001
0000
3001
1000
,
0001
0010
0100
1000
0010
0100
0001
2000
,
0002
3003
0110
1001
,
1000
0000
0100
0000
0010
0000
0001
0000
1000
0000
0010
0100
0000
0010
0100
0000
,
0001
0010
1000
0010
0001
0100
1000
0100
,
0001
0010
0100
0001
1000
0010
0100
1000
,
0010
0000
0100
0000
0101
0000
0010
0000
1100
0000
1000
0001
0000
0000
0001
0000
,
2000
0000
3100
0010
0002
0000
0000
0000
,
0013
0100
1000
0001
0010
0100
1000
0010
,
0100
0001
1000
0001
1000
0010
0100
0001
,
1000
0000
0100
0010
0000
0001
0010
0000
0100
2000
0000
0000
,
3010
0000
0000
0001
0010
0000
1000
0000
0100
0010
0000
0000
0001
0000
1000
0000
,
0100
0000
0000
0001
0100
0000
1000
0000
0010
0100
0000
0000
0110
0000
1001
0000
,
0000
0000
0001
0000
0010
0100
0010
0000
0001
0000
0010
0000
1000
0000
0010
0001
,
0000
0000
1000
0000
0010
0000
0100
0000
0001
0000
1000
0001
0000
1000
0001
0000
,
0220
0000
0000
0000
0330
0000
0000
0000
1001
0000
0000
1001
0000
0000
1001
0000
,
1000
0000
0100
0001
0000
0100
1000
0000
0100
0001
0000
0000
0110
0000
0110
0000
,
2002
0000
0000
3003
,
0220
0000
0330
1000
0001
0000
0110
0000
,
0002
0000
0000
0010
0000
0000
0013
0000
0001
0000
0010
0000
0100
0000
0010
0000
,
0002
0000
0000
0100
0000
0000
0103
0000
0010
0000
0100
0000
0001
0000
1000
0000
,
0002
0000
0000
0000
0000
0000
0000
0000
1000
0000
0000
1000
0000
0000
1003
0000
,
0011
1010
0110
1001
;

//--------------- dance-single - kaya ----------------
#NOTES:
     dance-single:
     kaya:
     Medium:
     15:
     0.660123,0.72992,0.284591,0.329526,0.475566,617,579,38,44,0,0,0,0,0,0.660123,0.72992,0.284591,0.329526,0.475566,617,579,38,44,0,0,0,0,0:
0000
0000
0000
0000
,
0000
0000
0000
0000
,
0000
0000
0000
0000
,
0000
0000
0000
0000
,
0001
0000
1000
0000
0010
0100
0000
0100
0001
0000
0001
0000
0010
0000
0100
0000
,
1000
0000
0001
1000
0000
0001
1000
0000
0200
0000
0000
0010
0000
0000
0310
0000
,
0001
0000
1000
0001
0000
1000
0001
0000
0020
0000
0000
0100
0000
0000
0130
0000
,
1000
0000
0000
0001
0000
0000
0100
0010
0100
0000
0001
1000
0001
0000
0010
0000
,
1100
0011
1010
0101
,
1000
0100
0010
2000
0000
3010
0001
0000
,
0001
0100
0010
0002
0000
0013
1000
0000
,
1000
0010
0100
2000
0000
3100
0001
0000
,
0001
0010
0100
0002
0000
0103
1000
0000
,
0001
0000
0010
0000
0100
0000
1000
0000
0010
0000
0100
0000
0001
0000
1000
0001
,
1000
0100
0010
0001
1000
0010
0100
0001
,
1000
0000
1000
0000
0001
0000
0001
0000
1000
0001
1000
0001
1000
0001
1000
0002
,
2000
0000
0000
3003
0010
0000
0100
0000
,
1001
0000
0000
0000
1000
0000
0010
0100
0010
0000
0000
1000
0000
0000
0001
0100
,
0001
0000
0000
1000
0000
0000
1000
0001
0000
0000
1000
0100
0010
0000
0001
0000
,
2000
0000
0000
0000
3001
0000
0100
0010
0100
0000
0000
0001
0000
0000
1000
0000
,
0001
0000
0000
0000
0000
0000
0000
0000
0000
0110
0000
0000
0000
0000
0000
0000
0000
0000
1000
0000
0000
0000
0000
0000
0001
0000
0000
0000
0010
0000
0000
0000
0001
0000
0000
0000
0010
0000
0000
0000
0100
0000
0000
0000
1000
0000
0000
0000
,
0020
0000
0000
0000
1030
0000
0001
0010
0001
0000
0000
0100
0000
0000
0001
0010
,
0001
0000
0000
0100
0000
0000
0001
1000
0000
0000
0001
0010
0100
0000
1000
0000
,
0200
0000
0001
0000
0000
1300
0000
0010
,
0100
0000
0001
0000
0000
1000
0100
0000
0010
0000
0001
1000
0010
0000
0000
0000
,
0110
0000
0000
0000
1001
0000
0000
0000
0001
0000
0100
0001
0000
0100
0001
0000
,
1000
0000
0100
0000
0001
0000
0100
0000
1000
0000
0010
1000
0000
0010
1000
0000
,
0001
0000
0010
0000
0100
0000
1000
0000
0010
0000
0100
0001
0000
1000
0100
0000
,
0110
0000
0010
0000
0001
0000
1000
0000
1010
0000
0000
0101
0000
0000
1100
0000
,
0002
0000
0000
0000
0013
0100
0010
0100
0010
0000
0001
0000
0100
0000
0010
0000
,
2000
0000
0000
0000
3100
0010
0100
0010
0100
0000
1000
0000
0010
0000
0100
0000
,
1001
0000
0000
0000
,
0220
0000
0000
0330
0110
1000
0001
0000
,
0020
0000
0000
0000
,
0230
0000
0000
0000
0000
1300
0001
0010
,
0000
0100
0000
1000
0000
0100
0000
0010
,
0000
0001
0000
2000
0000
0000
0000
0000
,
3010
0000
0000
0100
0000
0000
0001
0000
0000
0000
1000
0000
1000
0000
0000
0000
,
0001
0000
0000
0010
0000
0000
0100
0000
0000
0000
0010
0000
0001
0000
1000
0000
,
0020
0000
0000
0000
,
0130
0000
0001
0000
0010
0100
0010
0000
0001
0000
1000
0000
0010
0000
0000
0000
,
0001
0010
1000
0200
0000
0310
0010
0000
,
1000
0000
0010
0000
0001
0000
0200
0000
1000
0000
0000
0010
0000
0000
0301
0000
,
0010
0001
1000
0200
0000
0001
1300
0000
,
0010
1000
0001
0200
1000
0000
0010
0000
,
0301
1000
1000
0010
0100
0100
0001
0010
,
0100
1000
0010
0100
0001
1000
0100
0010
,
0001
1000
0001
0000
0100
0010
0100
0000
0001
0010
0001
0010
0100
1000
0100
1000
,
0002
0000
0013
0100
,
2001
0000
0000
0000
3010
0100
0001
0000
1000
0010
0000
1000
0010
0000
0100
0000
,
1002
0000
0000
0000
0103
0010
1000
0000
0001
0010
0000
0001
0010
0000
0100
0000
,
0021
0000
0000
0000
0130
1000
0001
0000
0100
0010
0000
0100
0010
0000
1000
0000
,
0201
0000
0000
0000
0310
1000
0010
0000
0001
0010
0000
0010
0100
0000
1000
0000
,
0002
0000
0000
0000
0103
0010
0100
0000
1000
0100
0000
1000
0100
0000
0001
0000
,
2000
0000
0000
0000
3100
0010
0100
0000
0001
0100
0000
0001
0100
0000
1000
0000
,
0010
0000
1000
0010
0000
1000
0010
0000
0100
0001
0000
0000
1000
0010
0100
0000
,
0002
0013
0010
2000
3010
0010
0002
0003
,
1001
0000
1000
0010
0001
1000
0100
0010
,
0100
0001
0010
1000
0001
0100
0010
0001
,
1000
0010
0100
1000
0100
0010
0100
0001
,
1000
0000
0100
0000
0110
0000
0010
0000
0001
0000
1000
0001
0000
1000
0001
0000
,
2002
0000
0000
0000
0000
0000
3003
0100
,
0220
0000
0000
0000
0000
0000
0000
0000
0000
0000
0000
0000
0000
0000
0000
0330
0000
0000
0001
0000
1000
0000
0001
0000
,
1000
0000
0100
0000
0100
0000
0010
0000
0010
0000
0001
0000
1000
0001
0100
0020
,
0200
0000
0000
0330
0110
0000
1001
0000
,
0001
0000
0010
0000
0100
0000
0010
0000
0001
0000
0100
0001
0000
0100
0010
0000
,
1000
0000
0100
0000
0010
0000
0001
1000
0001
0000
0010
0000
0100
0000
0000
0000
,
1000
0010
0100
1000
0001
0010
0100
0001
,
1000
0000
0100
0010
0001
0000
1000
0010
0100
0000
0010
0100
0000
0010
0100
0000
,
0002
0000
1003
0100
0010
0010
0010
0010
,
0001
0100
1000
0100
0001
0010
1000
0010
,
0001
0010
0100
1000
0010
0100
0001
1000
,
0100
1000
0100
1000
0010
0100
0010
0100
0001
1000
0000
0000
,
0001
0010
0000
0100
0000
0001
0100
0000
0001
0100
0000
0001
0100
0010
0100
0000
,
1000
0010
0000
0100
0000
1000
0100
0000
1000
0100
0000
1000
0100
0000
0001
0000
,
0000
0000
1000
0000
0100
1000
0100
0000
0010
0000
0001
1000
0001
0000
0100
0000
,
0010
0000
0001
0000
1000
0000
0100
0000
0010
0000
1000
0001
0000
1000
0001
0000
,
0220
0000
0000
0000
0330
0000
0000
0000
0101
0000
0000
1100
0000
0000
0101
0000
,
0011
0000
0000
1010
0000
0000
0101
0000
0000
1100
0000
0000
0001
0000
1000
0100
,
0020
1000
0100
0031
,
2000
0000
3010
0100
0001
0000
1001
0000
,
0001
0000
0000
0001
0000
0000
0010
0000
0010
0000
0100
0000
1000
0000
0100
0010
,
0000
0010
0000
0001
1000
0000
0010
0100
0001
0000
0100
0010
0001
0000
0010
0000
,
1000
0000
0000
0001
0000
0000
0010
0100
0010
0000
0001
1000
0001
0000
0100
0000
,
1010
0101
0110
1001
;

//--------------- dance-single - kaya ----------------
#NOTES:
     dance-single:
     kaya:
     Hard:
     17:
     0.813117,0.953473,0.254634,0.479311,0.962367,760,726,34,64,5,0,4,0,0,0.813117,0.953473,0.254634,0.479311,0.962367,760,726,34,64,5,0,4,0,0:
0000
0000
0000
0000
,
0000
0000
0000
0000
,
0000
0000
0000
0000
,
0000
0000
0000
0000
,
1001
0000
1000
0001
0100
0010
0000
0001
0020
0030
1000
0000
0001
0000
0010
0100
,
1000
0000
0020
0100
0000
1030
0001
1000
0100
0000
0010
0001
0000
0000
1000
0000
,
0001
0000
0200
0010
0000
0301
1000
0001
0010
0000
0100
1000
0000
0000
0001
0000
,
2010
0000
0000
0010
0000
0000
3001
0100
0010
0000
1000
0100
0010
0000
0001
0000
,
1000
0001
0110
1001
,
0001
0000
0010
0001
0010
0000
0200
0000
0000
0000
0001
0000
1300
0000
0001
0000
,
1000
0000
0010
1000
0010
0000
0200
0000
0000
0000
1000
0000
0301
0000
0000
0000
,
1000
0000
0100
1000
0100
0000
0020
0000
0000
0000
1000
0000
0031
0000
1000
0000
,
0001
0000
0100
0001
0100
0000
0020
0000
0000
0000
0001
0000
1030
0000
0000
0000
,
0001
0000
0100
0000
0010
0000
1000
0000
0100
0000
0010
0000
0001
0000
1000
0001
,
1000
0010
0100
0001
0010
0100
1000
0001
,
0100
0010
0100
0010
1000
0001
1000
0001
0010
0100
1000
0010
0100
0001
1000
0002
,
2000
0000
0000
0000
0000
0000
3003
0000
0001
0010
0100
0000
1000
0000
0010
0000
,
0202
0000
0303
0000
1000
0001
0100
0001
0010
0000
0001
0010
0000
0010
0100
0010
,
0001
0000
0100
0010
0000
0001
0010
2000
0000
3001
0010
0001
1000
0000
0001
0000
,
2200
0000
3300
0000
0001
1000
0100
1000
0010
0000
1000
0010
0000
0010
0100
0000
,
0101
0000
0000
0000
0000
0000
0000
0000
0000
1100
0000
0000
0000
0000
0000
0000
0000
0000
0011
0000
0000
0000
0000
0000
1000
0000
0000
0000
0100
0000
0000
0000
0100
0000
0000
0000
M001
0000
0000
0000
0010
0000
0000
0000
0010
0000
0000
0000
,
200M
0000
0000
0000
3001
1000
0010
1000
0100
0000
1000
0100
0000
0100
0010
0100
,
1000
0000
0010
0100
0000
1000
0100
0002
0000
1003
0100
1000
0001
0000
1000
0000
,
0102
0000
1000
0000
0000
0010
0000
0013
,
0001
0000
1000
0000
0000
0010
0100
0000
0001
0000
0010
0001
0010
0000
0100
0000
,
2002
0000
3003
0000
1000
0010
0100
0000
0001
0000
0010
0100
0000
1000
0001
0100
,
0010
0000
0001
0000
0010
0000
1000
0000
0100
0000
0010
0100
0000
1000
0010
0000
,
0100
0010
0100
0001
1000
0100
0000
0010
0100
0000
1000
0001
0000
0100
0010
1000
,
0001
0000
0010
0000
1000
0000
0010
0000
0011
0000
0000
1010
0000
0000
0101
0000
,
1000
0010
0100
0001
1000
0001
0010
0100
2000
0000
0010
0000
3001
0000
0100
0000
,
0001
0010
0100
1000
0001
1000
0010
0100
0001
0010
0002
0000
1000
0000
0103
0000
,
0001
0000
0010
0001
1000
0000
0010
0000
0100
0000
0001
0000
1000
0000
0100
0000
0010
0000
0001
0000
0100
0000
0010
0000
,
4000
0004
0000
0000
0000
0000
0000
0000
0000
3003
0000
0000
1001
0000
0000
0000
0000
0000
0110
0000
0000
0000
0000
0000
,
2000
0000
0000
0000
,
3020
0000
0000
0000
,
0230
0000
0000
0000
,
0302
0000
2000
3003
,
0002
0000
0000
0010
0000
0000
2000
0000
0000
0003
3000
0001
1000
0000
0000
0000
,
2000
0000
0000
0100
0000
0000
0002
0000
3000
0000
0103
0000
0010
0000
1000
0000
,
0002
0000
2000
3003
,
1000
0000
1000
0000
0001
0100
0001
0000
0010
0000
0100
0000
1001
0000
0000
0000
,
1000
0000
0100
0010
0100
0000
0020
0000
0000
0000
1000
0000
0031
0000
1000
0001
,
1000
0000
0010
0000
0100
0000
0001
0000
2000
0000
0000
0100
0000
0000
3001
0000
,
0001
0000
0010
0100
0010
0000
0200
0000
1000
0000
0000
0001
0000
0000
1300
0000
,
0001
0000
0100
0000
0010
0000
1000
0000
0001
1000
0001
0000
0010
0100
0010
0000
,
0100
1000
0010
0100
0001
0010
0001
0100
,
0010
1000
0100
0010
0001
1000
0010
0100
,
0001
0010
0001
1000
0001
0100
0010
1000
0001
0010
0100
1000
0010
0100
0001
2000
,
0002
0000
0000
3003
0010
0100
1001
0000
,
1020
0000
0000
0000
0031
0010
0100
0000
0001
1000
0000
0100
1000
0100
0010
0000
,
0021
0000
0000
0000
1030
0010
0100
0000
1000
0001
0000
0100
0001
0100
0010
0000
,
2001
0000
0000
0000
3010
0100
1000
0000
0100
0010
0000
1000
0100
0000
0100
1000
,
0002
0000
0000
0000
0013
0100
0001
0000
0100
0010
0001
0100
0010
1000
0100
1000
,
0020
0000
0000
0000
1030
0001
0100
0000
0010
0001
0000
0010
0100
0001
0010
0000
,
0200
0000
0000
0000
1300
0001
0010
0000
0100
0001
0000
0100
0010
0000
0001
1000
,
0010
0000
0100
0010
0000
0100
0001
0000
1000
0100
0000
0010
0100
1000
0001
0100
,
0020
0000
0130
0010
1000
0001
0020
0000
0130
0010
0001
1000
0010
0000
0100
0000
,
2002
0000
3003
0000
0001
0010
0100
0000
1000
0001
0000
0010
0100
0000
1000
0001
,
2000
0000
3010
0200
0000
0301
2000
0000
3100
0000
0010
0100
1000
0000
0001
0000
,
0100
0010
1000
0001
0010
0100
1000
0100
,
0020
0000
0130
1000
0001
0000
0001
1000
0001
0100
0010
0100
0001
0010
0100
1000
,
0002
0000
0000
0000
0100
0000
0000
0000
0100
0000
0000
0000
0103
0000
0100
0010
,
2000
0000
0000
0100
0000
0000
0100
0000
0000
3100
0010
0001
,
1000
0000
0010
0000
1000
0000
0010
0000
0100
0001
1000
0100
0010
0001
0100
0010
,
2000
0000
3001
1001
,
0001
0000
0100
0000
0010
0000
1000
0000
0001
0000
0010
0100
1000
0100
0010
0000
,
0001
0000
1000
0020
0000
0100
0000
1030
0001
0000
0010
0000
0100
0010
0100
0000
,
1000
0000
0010
0100
0000
0001
0000
1000
0100
0000
0100
0010
0001
0100
0010
0100
,
0001
0010
0100
1000
0001
0100
0010
1000
0001
0010
0001
1000
0010
1000
0001
0100
,
0010
0000
0000
0000
1000
0001
0100
0040
0400
0000
0000
0000
0330
0000
0000
0000
,
0001
0010
0100
1000
0010
0100
0001
0010
0100
0010
0000
0010
0001
0000
1000
0000
,
0001
0100
0010
1000
0001
0010
0100
1000
0010
0100
0001
1000
0010
1000
0001
0100
,
0001
0000
0010
0000
0010
0000
100M
0000
0010
0000
0010
0000
M001
0000
0010
0000
0010
0000
100M
0000
0000
0001
0000
0000
,
0010
0200
0000
0001
0000
0000
1000
0000
0000
0001
0000
1300
0010
0100
0001
1000
,
0010
0200
0000
1000
0000
0000
0001
0000
0000
1000
0000
0301
0010
0000
0110
0000
,
0000
0000
1000
0001
1000
0001
0100
0000
0001
1000
0001
1000
0100
0010
0100
1000
,
0000
0000
0010
0100
0001
1000
0001
0010
0001
0100
0010
1000
0010
0100
0001
1000
,
0100
0020
0000
1000
0000
0000
0031
0100
0020
0000
0000
0001
0000
0000
1030
0000
,
0011
0000
0000
1010
0000
0000
0011
0000
0000
1010
0000
0001
0010
0000
0010
0100
,
1000
0000
0010
0001
0010
0100
0001
1000
0100
0010
0001
1000
,
0020
0000
0130
0010
1001
0000
0110
0000
,
0011
0000
0100
1000
0000
0000
0001
0100
0010
0000
1000
0000
0010
0000
0100
0001
,
0000
0010
0000
0010
0100
0000
1000
0001
0010
0100
0001
0100
1000
0000
0010
0000
,
0102
0000
0000
0100
0000
0000
1003
0010
0100
0000
0001
0010
0100
0000
1000
0000
,
0001
0000
1000
0000
0110
0000
2002
3003
;

//--------------- dance-double - ----------------
#NOTES:
     dance-double:
     :
     Challenge:
     17:
     0,0,0,0,0:
00000000
00000000
00000000
00000000
,
00000000
00000000
00000000
00000000
,
00000000
00000000
00000000
00000000
,
00000000
00000000
00000000
00000000
,
00011000
00000000
00010000
00001000
01000000
00010000
00000000
01000000
00100000
00000000
01100000
00000000
10010000
00000000
00000000
00000000
,
10000000
00000000
01000000
00010000
00000000
00001000
00010000
00001000
01000000
00000000
00001000
00010000
00000000
00000010
00000100
00000010
,
00001000
00000001
00000000
00001000
00000100
00000000
00001000
00000001
00001000
00000010
00000100
00000000
00001000
00000000
00010000
00000000
,
00021000
00000000
00000000
01000000
00000000
00000000
00031000
00100000
00001000
00000000
00010000
00000010
00010000
00000000
00001000
00000000
,
01000000
00000100
00100000
00011000
,
00000010
00000000
00001000
00000001
00001000
00000000
00000200
00000000
00000000
00000000
00000001
00000000
00000310
00000000
00000001
00000000
,
00000100
00000000
00001000
00010000
00001000
00000000
02000000
00000000
00000000
00000000
00010000
00000000
03100000
00000000
00000000
00000000
,
01000000
00000000
00010000
10000000
00010000
00000000
00200000
00000000
00000000
00000000
10000000
00000000
01300000
00000000
10000000
00000000
,
00100000
00000000
00010000
00001000
00010000
00000000
00000020
00000000
00000000
00000000
00001000
00000000
00000130
00000000
00000000
00000000
,
00000001
00000000
00000100
00000010
00000000
00000000
00000100
00000000
00001000
00010000
00000000
00001000
00000000
00001000
00100000
00010000
,
10000000
00000000
01000000
00100000
00000000
00000000
01000000
00000000
00010000
00001000
00000000
00001000
00000000
00010000
00000010
00001000
,
00000001
00001000
00000100
00001000
00000001
00000100
00000010
00001000
00000010
00010000
00001000
01000000
00010000
01000000
00001000
01000000
,
00200000
00000000
00000000
00000000
00010000
01000000
10300000
00000000
,
20010000
00000000
00000000
00000000
31000000
00000000
10000000
01000000
00010000
00000000
00000000
00011000
00000000
00000000
00010000
00100000
,
10000000
00000000
00000000
10010000
00000000
00010000
00100000
01000000
00000000
00100000
00001000
00010000
00000100
00001000
00000001
00000000
,
00001002
00000000
00000000
00000000
00000103
00000000
00000001
00000100
00001000
00000000
00000000
00011000
00000000
00000000
00001000
00000000
,
00000010
00000000
00000000
00001000
00000000
00000000
00010000
00000000
00000000
00001000
00000000
00000000
00000000
00000000
00000000
01000000
00000000
00000000
00001000
00000000
00000000
00000000
00000000
00000000
01000000
00000000
00000000
00000000
00010000
00000000
10000000
00000000
00010000
00000000
00000000
00000000
00100000
00000000
00000000
00000000
01000000
00000000
00000000
00000000
10000000
00000000
00000000
00000000
,
20010000
00000000
00000000
00000000
30100000
00000000
10000000
00100000
00010000
00000000
00000000
00011000
00000000
00000000
00010000
01000000
,
10000000
00000000
00000000
10010000
00000000
00010000
01000000
00100000
00000000
01000000
00001000
00010000
00000100
00001000
00000001
00000000
,
00001002
00000000
00000010
00000000
00000000
00001003
00000100
00010000
,
00001000
00000000
01000000
00000000
00000000
00100000
01000000
00000000
00010000
00000000
10000000
01000000
00100000
00000000
00001000
00000000
,
00022000
00000000
00033000
00000000
00010000
00000010
00001000
00000000
00000001
00000000
00000010
00000001
00000000
00001000
00000001
00000100
,
00000010
00000000
00000100
00001000
00010000
00000000
00001000
00000000
00100000
00000000
00010000
00100000
01000000
00000000
10000000
00000000
,
00010000
10000000
00100000
01000000
00000000
00001000
00000000
00010000
00001000
00000000
01000000
00001000
00000000
00010000
00001000
00000010
,
00000100
00000000
00000010
00000001
00001000
00000001
00000100
00000000
00000201
00000000
00000000
00000010
00000000
00000000
00001300
00000000
,
00011000
00000000
00010000
00001000
01000000
00100000
10000000
00010000
00200000
00000000
10000000
00000000
01000000
00000000
00310000
00000000
,
00110000
00000000
00100000
00001000
00010000
00000100
00000010
00000001
00001000
00000010
00000200
00000000
00001000
00000000
00000310
00000000
,
00010000
00000000
00000010
00001000
00000010
00000000
00010000
00000000
00001000
00000000
00100000
00000000
00010000
00000000
10000000
00000000
00010000
00000000
01000000
00000000
00100000
00000000
10000000
00000000
,
00040000
00000000
00000000
00000000
00130000
00001000
00000100
00000000
,
00002001
00003200
00000000
00000000
,
00000320
00000000
00000000
00000000
00000000
00000130
00010000
00001000
,
01000000
00010000
10000000
00010000
00100000
00010000
10000000
00020000
,
00000000
02030000
00000000
03002000
00000000
00023000
00000000
00000000
,
00030200
00000000
00000000
00000000
,
00000000
00000000
00000320
00000000
,
00000031
00001000
00000100
00001000
00000001
00000200
00000010
00000300
,
00000001
00000100
00010000
00001000
00100000
10000000
10010000
00000000
,
01010000
00000000
00010000
10000000
00010000
00000000
00200000
00000000
00000000
00000000
10000000
00000000
01300000
00000000
10000000
00010000
,
10000000
00000000
00100000
00010000
00001000
00000000
00020000
00000000
00000100
00000000
00000000
00001000
00000000
00000000
00030010
00000000
,
00001010
00000000
00001000
00000001
00001000
00000000
00000200
00000000
00000001
00000000
00000000
00000010
00000000
00000000
00001300
00000000
,
00001001
00000000
00000001
00000100
00000010
00000000
00000100
00000000
00002100
00000000
00000000
00000000
01003000
00000000
00000000
00000000
,
00010000
00000000
10000000
00000000
01000000
00000000
00100000
01000000
00000000
00100000
00001000
00010000
00000000
00001000
00010000
00000010
,
00001000
00000000
00000001
00000000
00000100
00000000
00000010
00000100
00000000
00000010
00010000
00001000
00000000
00010000
00001000
00100000
,
00010000
10000000
00010000
01000000
00010000
10000000
00010000
00100000
00001000
00010000
00000100
00001000
00000001
00000010
00000100
00000010
,
00002000
00000000
00000000
00000000
00000010
00010000
00103000
00000000
,
12000000
00000000
00000000
00000000
03010000
00001000
00010000
00000000
00000100
00000010
00000000
00000001
00001000
00000001
00000100
00000000
,
00000201
00000000
00000000
00000000
00001300
00010000
00001000
00000000
01000000
00100000
00000000
01000000
10000000
01000000
00100000
00000000
,
10200000
00000000
00000000
00000000
00310000
00001000
00010000
00000000
00000010
00000100
00000000
00000100
00000010
00000000
00001000
00000001
,
00000020
00000000
00000000
00000000
00001030
00010000
00001000
00000000
01000000
00100000
00010000
00100000
01000000
00010000
10000000
00000000
,
12000000
00000000
00000000
00000000
03010000
00001000
00010000
00000000
00000100
00000010
00000000
00000001
00001000
00000001
00000100
00000000
,
00000201
00000000
00000000
00000000
00001300
00010000
00001000
00000000
01000000
00100000
00000000
01000000
10000000
00000000
01000000
00100000
,
00010000
00000000
00001000
00010000
00000000
00000100
00010000
00000000
00001000
00010000
00000000
00000100
00000010
00001000
00000010
00000100
,
00001000
00000000
00010000
00000100
00010000
00001000
01000000
00001000
00010000
00000010
00000100
00000010
00002000
00000000
00000001
00000000
,
00003200
00000000
00000000
00000000
00000310
00000000
00000100
00000000
00010000
00000000
00001000
00000000
01000000
00000000
00010000
10000000
,
00020000
00000000
00000000
00100000
00000000
00000000
10030000
00000000
00020000
00000000
00000000
01000000
00000000
00000000
20030000
00000000
,
00000000
31000000
00100000
00002000
00000000
00013000
00000100
00000010
,
00000011
00000000
00000001
00000000
00001001
00000000
00000001
00000000
00000101
00000000
00000100
00000010
00000000
00000010
00010000
00000000
,
00021000
00000000
00000000
00000000
01000000
00000000
00000000
00000000
01000000
00000000
00000000
00000000
01030000
00000000
00010000
00001000
,
00020000
00000000
00000000
00100000
00000000
00000000
00230000
00000000
00000000
10300000
00010000
00100000
,
01000000
00000000
00010000
00000000
00001000
00000000
00000010
00000000
00000001
00001000
00000100
00001000
00000001
00000100
00000010
00000100
,
00002000
00000000
01003000
00011000
,
00010000
00000000
01000000
00000000
00100000
00000000
00010000
00000000
10000000
00100000
01000000
00100000
00000000
00100000
00010000
00000000
,
00001000
00000000
00010000
00000100
00000000
00001000
00000100
00001000
00000001
00000000
00000010
00000000
00001000
00010000
00001000
00000000
,
01000000
00000000
00010000
01000000
00000000
00100000
00000000
01000000
00010000
00000000
10000000
01000000
00100000
00010000
00100000
00001000
,
00010000
00000100
00001000
00000100
00010000
00001000
00010000
00000000
00000010
00000000
00000100
00001000
00000000
00001000
00000100
00000010
,
00002000
00000000
00003000
00000001
00001000
00000100
00000010
00001000
00000000
00000000
00014000
00000000
00000000
00000000
00003000
01000000
,
00010000
10000000
00010000
00100000
01000000
00100000
00010000
10000000
00000000
00100000
01000000
00100000
00010000
00000000
00001000
00000000
,
00010000
00001000
00000100
00000000
00001000
00000100
00000001
00000000
00000100
00000001
00001000
00000001
00000010
00001000
00010000
00001000
,
01000000
00000000
00100000
00000000
10000000
00000000
00100000
00000000
01000000
00000000
00001000
00000000
00010000
00000000
00000100
00000000
00000010
00000000
00002000
00000000
00000000
00000010
00000000
00000000
,
00013000
00000000
00000000
00000000
00021000
00000000
00001000
00000000
00000000
01030000
00000000
00100000
01000000
10000000
00010000
00000000
,
01000000
00200000
00000000
00010000
00000000
00000000
01000000
00000000
00000000
00310000
00000000
00010000
00001000
00000100
00000010
00000000
,
00001000
00000000
00000001
00000010
00000100
00000010
00001000
00000000
00010000
01000000
00100000
01000000
10000000
00000000
00010000
10000000
,
00100000
01000000
00010000
00100000
01000000
00100000
00001000
00000000
00012000
00000000
00000000
00003100
00000000
00000000
00000001
00000000
,
00001002
00000000
00000000
00000013
00000000
00000000
00000010
00001000
00010000
00000000
00000000
01010000
00000000
00000000
11000000
00000000
,
20010000
00000000
00000000
30100000
00000000
00000000
00110000
00000000
00000000
00011000
00000000
00000000
00001100
00000000
00000100
00000001
,
00000010
00000000
00000001
00001000
00000100
00001000
00000001
00000010
00001000
00010000
01000000
00100000
,
00002000
00000000
01000000
00010000
00103000
00000000
00110000
00000000
,
11000000
00000000
00000000
10000000
00000000
00000000
00010000
00000000
00000000
00000000
01000000
00000000
01000000
00000000
00001000
00010000
,
00000100
00001000
00000000
00001000
00000001
00000000
00000100
00000010
00001000
00000001
00001000
00000000
00000100
00000000
00010000
00000000
,
00021000
00000000
00000000
00100000
00000000
00000000
00031000
01000000
00001000
00000000
00010000
00000100
00010000
00000000
00001000
00000000
,
00100000
00000010
01000000
00011000
;
