#TITLE:HARD BRAIN;
#SUBTITLE:;
#ARTIST:AJURIKA;
#TITLETRANSLIT:;
#SUBTITLETRANSLIT:;
#ARTISTTRANSLIT:;
#GENRE:;
#CREDIT:;
#MUSIC:HARD BRAIN.ogg;
#BANNER:HARD BRAIN.png;
#BACKGROUND:HARD BRAIN-bg.png;
#CDTITLE:./CDTitles/bm IIDX 26 Rootage.png;
#SAMPLESTART:88.209;
#SAMPLELENGTH:15.000;
#SELECTABLE:YES;
#OFFSET:0.000;
#BPMS:0.000=155.000;
#STOPS:;
#BGCHANGES:;
#FGCHANGES:;

//--------------- dance-single - ----------------
#NOTES:
     dance-single:
     :
     Beginner:
     3:
     0,0,0,0,0:
0000
0000
0000
0000
,
0000
0000
0000
0000
,
0000
0000
0000
0000
,
0000
0000
0000
0000
,
0000
0000
0000
0000
,
0010
0000
0000
0000
,
0010
0000
0000
0000
,
0100
0000
0000
0000
,
0200
0000
0300
0000
,
0001
0000
0001
0000
,
1000
0000
1000
0000
,
0001
0000
0001
0000
,
1000
0000
1000
0000
,
0010
0000
0010
0000
,
0100
0000
0100
0000
,
0010
0000
0010
0000
,
0100
0000
0100
0000
,
0001
0000
1000
0000
,
0001
0000
1000
0000
,
0001
0000
1000
0000
,
0001
0000
1000
0000
,
0010
0000
0100
0000
,
0010
0000
0100
0000
,
0010
0000
0100
0000
,
0010
0000
0100
0000
,
0001
0000
0000
0000
,
0010
0000
0000
0000
,
0100
0000
0000
0000
,
1000
0000
0000
0000
,
0010
0000
0000
0000
,
0100
0000
0000
0000
,
0002
0000
0003
0000
,
2000
0000
3000
0000
,
1001
0000
0010
0000
,
0100
0000
0010
0000
,
1001
0000
1000
0000
,
0001
0000
1000
0000
,
1001
0000
0100
0000
,
0010
0000
0100
0000
,
2000
0000
3000
0000
,
0002
0000
0003
0000
,
1000
0000
1000
0000
,
0010
0000
0000
0000
,
0100
0000
0100
0000
,
0001
0000
0000
0000
,
0010
0000
0010
0000
,
0100
0000
0000
0000
,
1000
0000
1000
0000
,
0001
0000
0000
0000
,
0001
0000
0010
0000
,
0001
0000
0010
0000
,
0001
0000
0010
0000
,
0001
0000
0010
0000
,
0100
0000
1000
0000
,
0100
0000
1000
0000
,
0100
0000
1000
0000
,
0200
0000
0300
0000
,
1000
0000
1000
0000
,
0010
0000
0010
0000
,
0100
0000
0100
0000
,
0001
0000
0001
0000
,
0010
0000
0100
0000
,
1000
0000
0001
0000
,
0100
0000
0010
0000
,
1000
0000
0001
0000
,
1000
0000
1000
0000
,
0001
0001
0001
0000
,
0100
0100
0100
0000
,
0010
0000
0010
0000
,
1000
1000
1000
0000
,
0001
0001
0001
0000
,
0010
0000
0100
0000
,
0020
0000
0030
0000
,
0100
0100
0100
0000
,
0010
0010
0010
0000
,
1000
0000
1000
0000
,
0001
0000
0001
0000
,
1000
1000
0010
0000
,
0001
0001
0100
0000
,
0010
0000
0100
0000
,
0001
1000
0001
0000
,
1001
0000
0000
0000
;

//--------------- dance-single - ----------------
#NOTES:
     dance-single:
     :
     Easy:
     6:
     0,0,0,0,0:
0000
0000
0000
0000
,
0000
0000
0000
0000
,
0000
0000
0000
0000
,
0000
0000
0000
0000
,
0000
0000
0000
0000
,
1000
0000
1000
0000
,
0001
0000
0001
0000
,
0010
0000
0010
0000
,
0200
0000
0300
0000
,
0001
0010
0001
0000
,
1000
0100
1000
0000
,
0010
0100
0010
0000
,
1000
0001
1000
0020
,
0130
0010
0100
0000
,
0001
1000
0001
0000
,
1000
0010
1000
0000
,
0002
0000
1003
2000
,
3100
0010
0100
0000
,
0010
0100
1000
0000
,
0010
0100
0001
0000
,
0010
1000
0001
2000
,
3001
0100
0010
0000
,
1000
0001
0100
0000
,
0001
1000
0010
0000
,
0100
0001
0010
0100
,
1000
1000
1000
1001
,
0001
0001
0001
1001
,
0010
0010
0010
0110
,
0100
0100
0100
0110
,
1000
0100
1000
1001
,
0001
0100
0001
1001
,
0020
0000
0230
0000
,
0320
0000
0030
1001
,
0010
1000
0010
1000
,
0001
0100
0001
0000
,
0010
0001
0010
0001
,
1000
0100
1000
0000
,
0010
0100
0010
1000
,
0001
1000
0001
0000
,
2000
3100
0002
0103
,
0020
0230
0302
2003
,
3001
0000
0001
0000
,
1000
0000
1000
0000
,
0010
0000
0010
0000
,
0100
0000
0100
0000
,
0002
0000
0003
0000
,
2000
0000
3000
0000
,
0020
0000
0030
0000
,
0200
0000
0300
0000
,
0001
0010
0001
0001
,
1000
0010
1000
1000
,
0010
0100
0010
0010
,
0100
0010
0100
0100
,
0001
0010
0100
0100
,
1000
0010
0100
0100
,
0001
1000
0001
0001
,
1001
0000
0000
0000
,
0110
0010
1000
0010
,
0110
0100
0001
0100
,
0110
0010
1000
0001
,
0110
0100
0001
2000
,
3001
0100
0001
1001
,
1000
0100
1000
1001
,
0001
0100
0010
1001
,
1000
0100
0010
0001
,
0010
0001
0010
0100
,
1000
0100
0010
0001
,
1000
0010
0100
0001
,
0010
0000
0100
0000
1000
1000
0200
0000
,
0310
0001
0010
0001
,
1000
0010
1000
0010
,
0100
0001
0100
0001
,
2002
0000
0000
3003
,
1001
0010
0110
0100
,
1001
0100
0110
0010
,
1001
1000
0110
0001
,
1001
0001
0110
1000
,
1000
0100
0010
0001
,
0100
0010
1000
0001
,
1000
1000
1000
0000
0001
0001
0001
0000
,
0010
0100
1000
0001
,
1001
0000
0000
0000
;

//--------------- dance-single - ----------------
#NOTES:
     dance-single:
     :
     Medium:
     10:
     0,0,0,0,0:
0000
0000
0000
0000
,
0000
0000
0000
0000
,
0000
0000
0000
0000
,
0000
0000
0000
0000
,
0000
0000
0000
0000
,
0020
0130
0001
0010
,
0200
1300
0010
0100
,
0020
0130
0001
1000
,
0002
0000
0000
0003
,
1001
0000
0010
0000
0001
0010
0100
0000
,
1001
0000
0010
0000
1000
0010
0100
0000
,
0110
0000
0001
0000
1000
0001
0100
0000
,
0110
0000
1000
0000
0001
1000
0200
0000
,
1300
0000
1001
0000
0001
0100
1000
0000
,
0100
0000
1001
0000
1000
0100
0001
0000
,
0100
0000
0110
0000
0001
0010
1000
0000
,
0010
0100
0000
0100
0000
0100
0000
0100
0000
0000
1000
0000
0001
0000
0000
0000
,
1010
0000
0010
0000
1000
0010
0100
0000
,
0011
0000
0010
0000
0001
0010
0100
0000
,
1100
0000
0001
0000
1000
0100
0010
0000
,
0101
0000
1000
0000
0001
0100
0020
0000
,
1030
0000
0110
0000
0010
1000
0100
0000
,
0010
0000
0110
0000
0010
0001
0100
0000
,
0010
0000
0110
0000
0001
1000
0010
0000
,
2000
0000
3010
0010
0200
0000
0301
0001
,
0100
0000
0010
0000
1000
0000
0100
1000
,
0100
0000
0010
0000
0001
0000
0010
0001
,
0010
0000
0100
0000
1000
0000
0001
1000
,
0010
0000
0100
0000
0001
0000
1000
0001
,
0010
0000
0100
0000
0010
0000
0100
1000
,
0010
0000
0100
0000
0010
0000
0100
0001
,
0010
0001
0020
0000
0130
1000
0200
0000
,
0310
0000
0100
0000
0010
0000
0100
0000
0000
0010
0000
0000
0010
0000
0010
0000
,
0001
0000
0101
0000
1000
0100
1000
0000
,
0100
0000
1100
0000
0010
1000
0010
0000
,
1000
0000
1010
0000
0001
0010
0001
0000
,
0010
0000
0011
0000
0100
0001
0100
0000
,
0010
0000
1001
0000
0010
0010
1000
0000
,
0001
0000
1001
0000
1000
1000
0010
0000
,
1000
0010
2000
0000
3001
0100
0002
0000
,
1003
0100
1000
0100
0010
0001
0010
0001
,
1000
1000
0010
0100
,
0010
0010
0100
0001
,
0010
0010
0100
1000
,
0001
0001
0100
0010
,
2000
3100
0200
0310
,
0020
0031
0002
0103
,
0200
0310
0020
1030
,
2000
3001
0002
1003
,
0100
1001
0010
1001
,
0100
1010
0010
0101
,
0010
1100
0010
0011
,
0100
0110
0010
1001
,
1000
0100
1000
0000
0101
0000
1001
0000
,
0001
0100
0001
0000
1100
0000
1001
0000
,
0010
0100
0010
0000
0110
0000
1001
0000
,
0220
0000
0000
0330
,
1000
0100
1000
0000
0010
0100
0010
0000
,
0100
0001
0100
0000
0001
0010
0001
0000
,
0010
0100
0010
0000
0100
1000
0100
0000
,
0010
0001
1000
0000
0010
0000
0200
0000
,
0301
0100
0001
0000
0010
0100
0010
0000
,
0100
1000
0100
0000
1000
0010
1000
0000
,
0010
0100
0010
0000
0100
0001
0100
0000
,
0020
2030
3002
0203
,
0301
0010
0100
0000
1000
0010
0100
0000
,
0001
1000
0010
0000
1000
0001
0010
0000
,
0001
0100
0010
0000
1000
0100
0010
0000
,
0100
1000
0001
0000
0011
0000
1100
0000
,
1000
0100
0010
0000
0001
0100
0010
0000
,
1000
0001
0100
0000
0001
1000
0100
0000
,
1000
0010
0200
0000
0301
0010
0100
0000
,
0220
0000
0000
0330
,
0001
0100
0010
1000
0001
0000
0010
0000
,
0100
0010
0001
1000
0010
0000
0100
0000
,
0010
1000
0001
0100
0010
0000
0100
0000
,
0001
0010
0100
1000
0010
0000
0100
0000
,
0001
0100
0010
0100
0001
0000
1000
0000
,
0100
0010
0001
0010
0100
0000
0010
0000
,
0001
0100
0020
0000
1030
0100
0020
0000
,
0031
0100
0010
1000
0100
0010
0001
0100
,
0010
0000
0000
0000
;

//--------------- dance-single - ----------------
#NOTES:
     dance-single:
     :
     Hard:
     15:
     0,0,0,0,0:
0000
0000
0000
0000
,
0000
0000
0000
0000
,
0000
0000
0000
0000
,
0000
0000
0000
0000
,
0000
0000
0000
0000
,
2000
3010
1000
0001
,
0020
0031
1000
0100
,
0020
0031
0100
0010
,
2002
0000
0000
3003
,
0100
1000
0100
1000
0001
0100
0001
0100
,
0010
1000
0010
1000
0001
0010
0001
0010
,
0100
1000
0100
1000
0001
0100
0001
0100
,
0001
0000
0010
0000
0100
0000
1000
0000
0010
0000
0100
0010
0200
0000
0000
0000
,
0301
0010
1000
0010
0001
1000
0010
0001
,
0010
0100
1000
0100
0001
0100
0010
1000
,
0010
0001
0010
1000
0001
0100
0010
1000
,
0001
1000
0000
1000
0000
1000
0000
1000
0001
0000
0100
0010
0100
0000
0010
0100
,
0001
0000
0010
0000
0100
0000
1000
0000
0010
0000
0100
0000
0001
0000
1000
0010
,
0100
0000
0010
0000
1000
0000
0001
0000
0010
0000
0100
0000
1000
0000
0001
0010
,
0100
0000
1000
0000
0001
0000
0100
0000
0010
0000
1000
0000
0100
0000
0010
0100
,
1000
0000
0001
0000
0100
0000
0010
0000
1000
0000
0010
1000
0002
0000
0000
0000
,
1003
0000
0010
0000
0100
0000
0001
0010
0100
0000
1000
0001
0100
0000
0010
0000
,
0100
0000
0001
0000
1000
0000
0100
0010
0001
0000
1000
0001
0010
0000
0100
0000
,
1000
0000
0010
0000
0100
0000
0001
0100
0010
0000
1000
0001
0100
0000
0010
0000
,
1000
0100
1000
0000
0010
0000
0100
0000
0000
0010
0000
0100
0010
0000
1000
0001
,
0020
0000
0000
0031
0000
0000
1000
0000
0000
0001
0000
0000
0100
0000
0010
0000
,
2000
0000
0000
3100
0000
0000
0010
0000
0000
0001
0000
0000
1000
0000
0100
0000
,
0020
0000
0000
0031
0000
0000
1000
0000
0000
0010
0000
0000
0100
0000
0010
0000
,
2000
0000
0000
3010
0000
0000
0001
0000
0000
0010
0000
0000
1000
0000
0100
1000
,
0200
0000
0000
0310
0000
0000
0100
0000
0000
1000
0000
0000
0001
0000
0001
0000
,
2000
0000
0000
3010
0000
0000
0100
0000
0000
0001
0000
0000
1000
0000
1000
0000
,
0001
0100
0001
0100
0001
0100
0010
0000
1000
0100
1000
0100
1000
0100
0010
0000
,
0001
1000
0100
0010
0001
1000
0010
0100
0000
0010
0000
0000
0110
0000
0110
0000
,
1010
0100
0001
0010
0100
1000
0001
0100
,
0110
0010
1000
0001
0010
1000
0010
0001
,
1001
1000
0010
0100
0001
0010
0100
1000
,
1100
0100
0010
1000
0010
0001
0100
0010
,
1010
1000
0010
0001
0011
0010
1000
0001
,
0101
0100
1000
0100
0101
0001
0010
0100
,
1000
0100
1000
0100
2000
0000
3010
0100
0010
0100
0001
1000
0002
0000
1003
0010
,
1000
0010
0100
0001
0100
0001
0010
0001
0010
0100
1000
0100
1000
0001
0100
0010
,
0200
0310
1000
0001
,
0020
0130
1000
0001
,
2000
3010
0100
0001
,
0020
0130
1000
0001
,
0200
0010
1000
0010
,
0302
0010
0100
1000
,
0203
0010
1000
0001
,
0320
1000
0100
2030
,
3001
0100
0010
1000
0100
0010
0011
0000
,
1000
0010
0100
0001
0100
0010
0110
0000
,
1000
0100
0001
0100
1000
0010
0110
0000
,
0001
0010
0100
1000
0010
0100
0110
0000
,
0001
0100
0010
0000
0110
0000
1010
0000
,
1000
0100
0010
0000
0110
0000
0011
0000
,
0001
1000
0100
0000
1010
0000
0101
0000
,
0000
0001
0000
0100
0000
0001
0100
0010
0000
1000
0000
0100
0000
1000
0100
0010
,
0001
0010
0011
0001
0100
0010
0110
0100
,
0010
1000
1010
0010
1000
0100
0110
0010
,
0001
1000
1001
0001
0100
0010
1010
1000
,
0100
0010
0011
0001
1000
0010
0200
0000
,
0310
0000
1000
0000
0010
1000
0010
0000
0100
0000
0001
0000
0100
0001
0100
0000
,
0001
0000
0010
0000
0001
0010
0001
0000
1000
0000
0100
0000
1000
0100
1000
0000
,
0010
0000
0100
0000
0010
0100
0010
0000
1000
0000
0001
0000
1000
0001
1000
0000
,
0010
0100
0010
0000
1000
0010
1000
0000
0001
0010
0001
0000
1000
0001
1000
0000
,
0010
1000
0100
0000
0010
0000
0001
0000
0100
0001
1000
0000
0010
0000
0100
0000
,
0010
1000
0100
0000
0010
0000
0100
0000
1000
0001
0010
0000
0100
0000
1000
0000
,
0001
0010
0100
0000
0010
0000
0001
0000
0100
0001
0010
0000
0100
0000
1000
0000
,
0010
0100
0010
0000
1000
0001
1000
0000
0001
0100
0010
1000
0001
1000
0001
0000
,
0001
0010
0100
0000
0010
0000
0001
0000
1000
0100
0010
0000
0001
0000
1000
0000
,
0010
0100
0001
0000
0010
0000
0100
0000
0010
0100
1000
0000
0001
0000
1000
0000
,
0001
1000
0010
0000
0100
0000
0010
0000
1000
0001
0100
0000
0010
0000
0100
0000
,
0000
0001
0000
1000
0000
0001
0010
0100
0000
1000
0000
0001
0000
1000
0010
0100
,
0010
1000
0000
0010
1000
0000
1010
0000
0010
0100
0001
0000
0010
0000
0001
0000
,
0010
0001
0000
0010
0001
0000
0011
0000
0010
0001
0100
0000
0010
0000
1000
0000
,
0010
0100
0000
0010
0100
0000
0110
0000
0100
0001
0010
0000
0100
0000
0010
0000
,
0100
0010
0000
0100
0010
0000
0110
0000
0001
1000
0100
0000
1000
0000
0001
0000
,
1000
0010
1000
0010
1000
0010
0200
0000
0301
0010
0001
0010
0001
0010
0200
0000
,
0310
0001
0010
0001
0010
0001
2000
0000
3001
0100
0001
0100
0001
0100
0020
0000
,
1030
0100
0010
0001
0100
0010
2000
0000
3001
0010
0100
1000
0010
0100
0002
0000
,
1003
0010
1000
0010
0100
0001
0100
0001
0010
0100
1000
0010
0100
0001
0010
0100
,
1000
0000
0000
0000
;

//--------------- dance-single - Talkion ----------------
#NOTES:
     dance-single:
     Talkion:
     Challenge:
     18:
     0,0,0,0,0:
0000
0000
0000
0000
,
0000
0000
0000
0000
,
0000
0000
0000
0000
,
0000
0000
0000
0000
,
0000
0000
0000
0000
,
2000
0100
0100
0100
,
3002
0000
0000
0000
0100
0000
0000
0000
0100
0000
0000
2003
0001
0000
0000
0000
,
3200
0010
0010
0010
,
1300
0000
0000
0000
,
0001
0000
1000
0000
0001
0010
0200
1000
0000
0310
0001
0000
1000
0010
1000
0000
,
0010
0000
0100
0000
0001
1000
0200
0010
0000
1300
0001
0000
0100
0010
0100
0000
,
0001
0000
1000
0000
0001
0010
0200
1000
0000
0310
0001
0000
1000
0010
1000
0000
,
0010
0000
0100
0000
0001
1000
0200
0010
0000
0301
0100
1000
0002
0000
0000
0000
,
0103
0000
0001
0000
1000
0010
0200
0001
0000
0310
1000
0000
0001
0010
0001
0000
,
0010
0000
0100
0000
1000
0001
0200
0010
0000
0301
1000
0000
0100
0010
0100
0000
,
1000
0000
0001
0000
1000
0010
0200
0001
0000
0310
1000
0000
0001
0010
0001
0000
,
1000
0100
0000
0100
0000
0100
0000
0100
0001
0000
0110
0000
1001
0000
1000
0010
,
0100
0000
0001
1000
0100
1000
0002
0100
0000
1003
0001
0000
1000
0100
0010
0000
,
0001
0000
0100
0001
1000
0001
0200
0010
0000
0301
0100
0000
0010
1000
0001
0000
,
0010
0000
0001
1000
0010
1000
0002
0010
0000
1003
0001
0000
1000
0010
0100
0000
,
0001
0000
0010
0001
1000
0001
0020
0100
0000
1030
0010
0001
2000
0000
0000
0000
,
3100
0000
1000
0001
0100
0001
2000
0100
0000
3001
1000
0000
0001
0100
0010
0000
,
1000
0000
0100
1000
0001
1000
0200
0010
0000
1300
0100
0000
0010
0001
1000
0000
,
0010
0000
1000
0001
0010
0001
2000
0010
0000
3001
1000
0000
0001
0010
0100
0000
,
1000
0200
0000
0000
0001
0000
0301
0000
0100
1000
0000
0010
0100
0000
0010
0010
,
2000
0010
0001
0010
,
3002
0010
1000
0010
,
0203
1000
0010
1000
,
0320
0000
0000
0000
0001
0000
0000
0000
0100
0000
0000
0000
1030
0000
0001
1000
,
0002
0010
1000
0010
,
2003
0010
0001
0010
,
3001
1000
0001
1000
0100
0010
0001
1000
0200
0000
1000
0001
0000
0000
0001
1000
,
0000
1000
0000
0000
1000
0001
0000
0310
0000
1010
0000
0000
1010
0000
0101
0000
,
0001
0000
1000
0100
0000
1000
0020
0100
0000
0031
0010
0000
1000
0010
0100
0000
,
0001
0000
0100
0010
0000
0100
0002
0010
0000
1003
0001
0000
0010
0100
0001
0000
,
0100
0000
1000
0001
0000
1000
0020
0100
0000
0031
0010
0000
1000
0010
0100
0000
,
0001
0000
0100
0010
0000
1000
0200
0010
0000
1300
0100
0000
1000
0001
0100
0000
,
0001
0000
1000
0010
0000
1000
0200
0010
0000
0301
0100
0000
1000
0100
0010
0000
,
0001
0000
0010
0100
0000
0010
0002
0100
0000
1003
0001
0000
0100
0010
0001
0000
,
0010
0100
0001
1000
1100
0000
0100
0010
0001
1000
0010
0100
0101
0000
0001
1000
,
0100
0010
1000
0010
0100
1000
0010
0100
1000
0100
0010
1000
0100
0010
0001
0100
,
0020
0000
0000
0000
1030
0010
0100
0010
1000
0000
0001
1000
0100
1000
0001
0000
,
0200
0000
0000
0000
0310
0100
0001
0100
0010
0000
1000
0001
0010
0001
1000
0000
,
0002
0000
0000
0000
0013
0001
1000
0001
0010
0000
0001
0010
0100
0010
0001
0000
,
2000
0000
0000
0000
3010
1000
0001
1000
0010
0000
1000
0010
0100
0001
1000
0100
,
0020
0000
0000
0000
0031
0010
0100
0010
0001
0000
1000
0001
0100
0001
1000
0000
,
0200
0000
0000
0000
0310
0100
1000
0100
0010
0000
0001
1000
0010
1000
0001
0000
,
2000
0000
0000
0000
3010
1000
0001
1000
0010
0000
1000
0010
0100
0010
1000
0000
,
0002
0000
0000
0000
0013
0001
1000
0001
0010
0000
0100
0010
0002
0000
1003
0000
,
0010
1000
0000
1000
0001
0000
1000
0100
0000
0100
0010
0000
1000
0000
0010
0001
,
0000
0001
0000
1000
0010
0000
0100
0010
0000
0010
1000
0000
0001
0000
0010
0000
,
0100
1000
0000
1000
0001
0000
1000
0010
0000
0010
0100
0000
1000
0000
0100
0001
,
0000
0001
0000
1000
0100
0000
1000
0001
0000
0001
0100
0000
0010
0000
1000
0000
,
0001
0010
0000
0010
0100
0000
0001
0100
0000
0100
1000
0000
0010
0000
0100
0010
,
0000
0010
0000
0001
0010
0000
1000
0010
0000
0010
0100
0000
0001
0000
1000
0100
,
0000
0010
0000
0010
0001
0000
1000
0001
0000
0001
0100
0000
0010
0000
1000
0010
,
0000
0100
0000
0100
0001
0010
0100
1000
0000
0010
0000
0100
0010
1000
0001
0000
,
0200
0010
0000
1300
0100
0000
0100
1000
0000
0010
0100
0000
0001
0000
1000
0001
,
0020
0100
0000
1030
0010
0000
0010
1000
0000
0100
0010
0000
0001
0000
1000
0001
,
0200
0010
0000
1300
0100
0000
0100
1000
0000
0010
0100
0000
0001
0000
1000
0001
,
0020
0100
0000
1030
0010
0001
0100
0000
0010
0100
0001
0000
2001
0000
0000
0000
,
3200
0001
0000
0310
0100
0000
0100
0001
0000
0010
0100
0000
1000
0000
0001
1000
,
0020
0001
0000
0130
0010
0000
0010
0001
0000
0100
0010
0000
1000
0000
0001
1000
,
0200
0001
0000
0310
0100
0000
0100
0001
0000
0010
0100
0000
1000
0000
0001
0100
,
0001
1000
0100
0010
1000
0010
0001
1000
0010
0001
0010
0100
0002
0000
0000
0000
,
1003
0001
0010
0100
0001
0000
0001
0010
0100
1000
0010
0000
0100
0000
0010
1000
,
0001
1000
0100
0010
1000
0000
1000
0100
0010
0001
0100
0000
0010
0000
0100
0001
,
1000
0001
0010
0100
0001
0000
0001
0010
0100
1000
0010
0000
0100
0000
0001
1000
,
0100
0010
0000
0001
1000
0000
0010
1000
0001
1000
0100
0010
0001
0100
0010
0000
,
1000
0001
0100
0010
0001
0000
0001
0100
0010
1000
0001
0000
0010
0000
1000
0010
,
0100
1000
0010
0100
1000
0000
1000
0010
0100
0001
1000
0000
0100
0000
0001
0100
,
0010
0001
0100
0010
0001
0000
0020
0000
0031
0010
1000
0000
0001
0010
1000
0000
,
0000
0010
0000
0010
0001
1000
0010
0100
0000
0010
0000
1000
0001
0010
0100
0000
,
1000
0001
0100
1000
0001
0000
0001
0100
0010
1000
0001
0000
1000
0000
0100
0010
,
0001
1000
0010
0001
1000
0000
1000
0010
0100
0001
1000
0000
0001
0000
0010
0100
,
1000
0001
0100
1000
0001
0000
0001
0100
0010
1000
0001
0000
1000
0000
0100
0010
,
0001
2000
0000
3010
0200
0000
0310
0000
1000
0100
0010
0000
1000
0000
0010
0001
,
1000
0000
0000
0010
0000
0000
0100
0000
0000
0010
0000
0000
1000
0000
0000
0010
0000
0000
0100
0000
0000
0010
0000
0000
1000
0000
0000
0001
0000
0000
0010
0000
0000
0001
0000
0000
1000
0000
0000
0000
0000
0000
0010
0000
0100
0000
0010
0000
,
0100
0000
0000
0001
0000
0000
1000
0000
0000
0001
0000
0000
0100
0000
0000
0001
0000
0000
1000
0000
0000
0100
0000
0000
0010
0000
0000
0100
0000
0000
1000
0000
0000
0000
0000
0000
0001
0000
0100
0000
0001
0000
0100
0000
0001
0000
0100
0000
,
0010
0000
0000
1000
0000
0000
0001
0000
0000
0010
0000
0000
0100
0000
0000
0000
0000
0000
1000
0000
0001
0000
1000
0000
0001
0000
0000
0100
0000
0000
0010
0000
0000
1000
0000
0000
0001
0000
0000
0000
0000
0000
0010
0000
0000
0100
0000
0000
,
0001
0000
0000
1000
0000
0000
0010
0000
0000
0001
0000
0000
1000
0000
0000
0010
0000
0000
0001
0000
0000
0010
0000
0000
0100
0000
0000
0001
0000
0000
1000
0000
0000
0001
0000
0000
0100
0000
0010
0000
0100
0000
0010
0000
0100
0000
0010
0000
,
1000
0000
0000
0000
;

//--------------- dance-double - ----------------
#NOTES:
     dance-double:
     :
     Easy:
     7:
     0,0,0,0,0:
00000000
00000000
00000000
00000000
,
00000000
00000000
00000000
00000000
,
00000000
00000000
00000000
00000000
,
00000000
00000000
00000000
00000000
,
00100000
00000000
00100000
00000000
,
01000000
00000000
01000000
00000000
,
00001000
00000000
00001000
00000000
,
00010000
00000000
00010000
00000000
,
00000200
00000000
00000300
00000000
,
00000010
00000001
00000010
00000000
,
00000100
00000010
00000100
00000000
,
00001000
00000100
00001000
00000000
,
00010000
00001000
00010000
00002000
,
00103000
00010000
00100000
00000000
,
01000000
00100000
01000000
00000000
,
00100000
10000000
00100000
00000000
,
02000000
00000000
03100000
00200000
,
01300000
00100000
10000000
00000000
,
01000000
00100000
00010000
00000000
,
00100000
00001000
00010000
00000000
,
00001000
00010000
00000200
00000310
,
00000001
00001000
00000010
00000000
,
00001000
00000001
00000010
00000000
,
00000001
00000100
00000010
00000000
,
00000100
00000001
00000010
00000100
,
00000010
00000010
00000010
00000110
,
00001000
00001000
00001000
00011000
,
00010000
00010000
00010000
01100000
,
01000000
01000000
01000000
10010000
,
10000000
01000000
10000000
01100000
,
00010000
00100000
00010000
00011000
,
00002000
00000000
00023000
00000000
,
00030020
00000000
00000130
00001001
,
00000001
00000010
00000001
00000010
,
00000100
00000010
00000100
00000000
,
00001000
00000100
00001000
00000100
,
00010000
00001000
00010000
00000000
,
00001000
00100000
00001000
00100000
,
01000000
00100000
01000000
00000000
,
20000000
31000000
00200000
01300000
,
00020000
00230000
00302000
00023000
,
00031000
00000000
00001000
00000000
,
00010000
00000000
00010000
00000000
,
00000100
00000000
00000100
00000000
,
00000010
00000000
00000010
00000000
,
00000002
00000000
00000003
00000000
,
00002000
00000000
00003000
00000000
,
00000200
00000000
00000300
00000000
,
00020000
00000000
00030000
00000000
,
10000000
00100000
01000000
01000000
,
00100000
01000000
00010000
00010000
,
00100000
00001000
00010000
00010000
,
00001000
00000100
00000010
00000010
,
00000100
00000001
00000010
00000010
,
00000100
00001000
00000100
00000100
,
00010000
00001000
00010000
00010000
,
00011000
00000000
00000000
00000000
,
01100000
10000000
00100000
01000000
,
10010000
00100000
00001000
00010000
,
00011000
00001000
00000010
00000100
,
00000110
00000010
00000001
00002000
,
00003001
00000010
00000100
00000110
,
00001000
00000100
00001000
00011000
,
00010000
00100000
01000000
01100000
,
00010000
01000000
00100000
10000000
,
01000000
10000000
01000000
10000000
,
00010000
00100000
00010000
00100000
,
00001000
00010000
00100000
00010000
,
00001000
00000000
00010000
00000000
00001000
00001000
00020000
00000000
,
00031000
00010000
00000100
00000010
,
00000001
00001000
00000010
00000100
,
00000001
00000010
00000100
00001000
,
00002002
00000000
00000000
00003003
,
00000110
00000001
00001001
00000100
,
00000110
00001000
00011000
00010000
,
01100000
01000000
10010000
00100000
,
01100000
00010000
00011000
00001000
,
00010000
00100000
10000000
01000000
,
00100000
00001000
00010000
00000100
,
00001000
00001000
00001000
00000000
00000001
00000001
00000001
00000000
,
00000010
00000100
00010000
00001000
,
00011000
00000000
00000000
00000000
;

//--------------- dance-double - ----------------
#NOTES:
     dance-double:
     :
     Medium:
     10:
     0,0,0,0,0:
00000000
00000000
00000000
00000000
,
00000000
00000000
00000000
00000000
,
00000000
00000000
00000000
00000000
,
00000000
00000000
00000000
00000000
,
00000000
00000000
00000000
00000000
,
02000000
03100000
10000000
01000000
,
00200000
00301000
00010000
00001000
,
00000200
00000310
00001000
00000010
,
00000200
00000000
00000000
00000300
,
00000110
00000000
00000100
00000000
00000010
00001000
00000100
00000000
,
00010100
00000000
00001000
00000000
00000100
00010000
00001000
00000000
,
00011000
00000000
01000000
00000000
00010000
10000000
01000000
00000000
,
01100000
00000000
10000000
00000000
00100000
10000000
00020000
00000000
,
01030000
00000000
00100000
00000000
01000000
00010000
00100000
00000000
,
00101000
00000000
00010000
00000000
00100000
00001000
00010000
00000000
,
00011000
00000000
00000010
00000000
00001000
00000001
00000010
00000000
,
00000001
00001000
00000000
00001000
00000000
00001000
00000000
00001000
00000000
00000000
00000001
00000000
00001000
00000000
00000001
00000000
,
00001000
00000010
00000100
00000000
00000010
00000000
00000011
00000000
,
00000001
00000100
00001000
00000000
00010000
00000000
00011000
00000000
,
00010000
00100000
01000000
00000000
00100000
00000000
10100000
00000000
,
10000000
01000000
00010000
00000000
00001000
00000000
00020000
00000000
,
00031000
00000000
00001010
00000000
00000010
00001000
00000100
00000000
,
00000010
00000000
00000011
00000000
00000100
00000001
00000010
00000000
,
00000100
00000000
00010100
00000000
00001000
00100000
00010000
00000000
,
20000000
00000000
30010000
00100000
00002000
00000000
00013000
00000100
,
00000010
00000000
00000001
00000000
00000100
00000000
00000010
00001000
,
00000010
00000000
00001000
00000000
00000100
00000000
00010000
00001000
,
00010000
00000000
00100000
00000000
10000000
00000000
00010000
00100000
,
01000000
00000000
00100000
00000000
01000000
00000000
10000000
01000000
,
00010000
00000000
00001000
00000000
00010000
00000000
00000100
00000010
,
00000001
00000000
00001000
00000000
00000010
00000000
00000100
00001000
,
00010000
00100000
00020000
00000000
00031000
00010000
00002000
00000000
,
00013000
00000000
00001000
00000000
00100000
00000000
00010000
00000000
00000000
01000000
00000000
00000000
00001000
00000000
00010000
00000000
,
00011000
00000000
00010100
00000000
00001000
00000100
00000001
00000000
,
00000011
00000000
00000101
00000000
00000001
00000100
00001000
00000000
,
00011000
00000000
00110000
00000000
00010000
00100000
01000000
00000000
,
11000000
00000000
10100000
00000000
10000000
00100000
00010000
00000000
,
00011000
00000000
00001010
00000000
00000100
00000100
00000010
00000000
,
00001010
00000000
00000101
00000000
00000010
00000010
00000100
00000000
,
00000001
00000100
00002000
00000000
00013000
01000000
20000000
00000000
,
30010000
01000000
00100000
10000000
00010000
01000000
00100000
10000000
,
00010000
00010000
00100000
01000000
,
00010000
00010000
00001000
00000100
,
00000010
00000010
00000100
00000001
,
00000010
00000010
00000100
00010000
,
00002000
00013000
00020000
00130000
,
00200000
01300000
02000000
03100000
,
00200000
10300000
20000000
31000000
,
02000000
03010000
00020000
00031000
,
00001000
00011000
00000100
00001010
,
00000100
00000011
00000100
00000110
,
00001000
00010100
00001000
00101000
,
00010000
10100000
01000000
01100000
,
01000000
00100000
01000000
00000000
10100000
00000000
10010000
00000000
,
00100000
00001000
00010000
00000000
00101000
00000000
00011000
00000000
,
00001000
00000100
00000010
00000000
00001010
00000000
00000101
00000000
,
00002002
00000000
00000000
00003003
,
00000001
00000100
00000010
00000000
00000100
00000010
00001000
00000000
,
00000100
00010000
00001000
00000000
00010000
00001000
00100000
00000000
,
00010000
01000000
00100000
00000000
10000000
01000000
00100000
00000000
,
00010000
00100000
01000000
00000000
10000000
00000000
00020000
00000000
,
10030000
00100000
01000000
00000000
00100000
01000000
00010000
00000000
,
00100000
00001000
00010000
00000000
00001000
00010000
00000100
00000000
,
00001000
00000010
00000100
00000000
00000001
00000010
00000100
00000000
,
00002000
00003020
00000230
00000302
,
00000013
00000001
00000100
00000000
00000001
00000100
00001000
00000000
,
00010000
00000100
00001000
00000000
00000100
00010000
00001000
00000000
,
00010000
01000000
10000000
00000000
00100000
10000000
01000000
00000000
,
00100000
00010000
10000000
00000000
00110000
00000000
11000000
00000000
,
10000000
01000000
00010000
00000000
00001000
00010000
00100000
00000000
,
00010000
00001000
00000100
00000000
00000001
00000010
00000100
00000000
,
00000010
00000001
00000020
00000000
00001030
00000010
00000100
00000000
,
00000220
00000000
00000000
00000330
,
00000001
00000100
00001000
00000100
00000001
00000000
00000010
00000000
,
00000100
00000010
00000001
00000100
00001000
00000000
00010000
00000000
,
00001000
00010000
00000100
00010000
00001000
00000000
00010000
00000000
,
00001000
00010000
01000000
10000000
00100000
00000000
01000000
00000000
,
00010000
01000000
00100000
10000000
00010000
00000000
10000000
00000000
,
01000000
00010000
00001000
00010000
01000000
00000000
10000000
00000000
,
00010000
00100000
00002000
00000000
00013000
00001000
00000200
00000000
,
00000310
00001000
00000100
00000010
00000001
00000100
00001000
00010000
,
00001000
00000000
00000000
00000000
;

//--------------- dance-double - ----------------
#NOTES:
     dance-double:
     :
     Hard:
     15:
     0,0,0,0,0:
00000000
00000000
00000000
00000000
,
00000000
00000000
00000000
00000000
,
00000000
00000000
00000000
00000000
,
00000000
00000000
00000000
00000000
,
00000000
00000000
00000000
00000000
,
20000000
31000000
00010000
00001000
,
00020000
00031000
00000100
00000001
,
00000020
00000031
00000010
00001000
,
00022000
00000000
00000000
00033000
,
00001000
00010000
00001000
00010000
00100000
00010000
00100000
00010000
,
10000000
01000000
10000000
01000000
00010000
00100000
00010000
00100000
,
00001000
00010000
00001000
00010000
00001000
00000010
00001000
00000010
,
00000001
00000000
00000100
00000000
00000001
00000000
00000100
00000000
00000010
00000000
00001000
00000001
00002000
00000000
00000000
00000000
,
00003001
00000010
00001000
00000010
00000001
00000100
00001000
00010000
,
00001000
00000100
00001000
00010000
00100000
10000000
01000000
00010000
,
01000000
10000000
00100000
00010000
00001000
00010000
00100000
01000000
,
00100000
01000000
00000000
00100000
00000000
01000000
00000000
00100000
01000000
00000000
00010000
10000000
00010000
00000000
00100000
01000000
,
10000000
00000000
00100000
00000000
01000000
00000000
00010000
00000000
00100000
00000000
00001000
00000000
00010000
00000000
00000100
00010000
,
00001000
00000000
00010000
00000000
00000100
00000000
00001000
00000000
00000010
00000000
00000100
00000000
00000001
00000000
00001000
00000010
,
00000100
00000000
00000001
00000000
00000010
00000000
00000100
00000000
00001000
00000000
00000100
00000000
00010000
00000000
00001000
00100000
,
00010000
00000000
01000000
00000000
00100000
00000000
10000000
00000000
00010000
00000000
00100000
00010000
20000000
00000000
00000000
00000000
,
30010000
00000000
01000000
00000000
00100000
00000000
10000000
00100000
01000000
00000000
00010000
00100000
00001000
00000000
00010000
00000000
,
00001000
00000000
00000100
00000000
00000001
00000000
00001000
00000100
00000010
00000000
00000001
00001000
00000100
00000000
00000010
00000000
,
00000001
00000000
00001000
00000000
00000010
00000000
00000100
00000010
00001000
00000000
00000100
00010000
00001000
00000000
00010000
00000000
,
00001000
00010000
00001000
00000000
00100000
00000000
01000000
00000000
00000000
10000000
00000000
00010000
10000000
00000000
00100000
01000000
,
00200000
00000000
00000000
01300000
00000000
00000000
00100000
00000000
00000000
10000000
00000000
00000000
01000000
00000000
00010000
00000000
,
00002000
00000000
00000000
00013000
00000000
00000000
00001000
00000000
00000000
00000100
00000000
00000000
00000001
00000000
00000010
00000000
,
00000200
00000000
00000000
00000301
00000000
00000000
00000100
00000000
00000000
00001000
00000000
00000000
00000010
00000000
00000001
00000000
,
00000020
00000000
00000000
00001030
00000000
00000000
00000100
00000000
00000000
00010000
00000000
00000000
00001000
00000000
00100000
00010000
,
00200000
00000000
00000000
01300000
00000000
00000000
10000000
00000000
00000000
00100000
00000000
00000000
01000000
00000000
01000000
00000000
,
00020000
00000000
00000000
00130000
00000000
00000000
00001000
00000000
00000000
00000100
00000000
00000000
00000001
00000000
00000001
00000000
,
00001000
00000100
00001000
00000100
00001000
00000100
00000010
00000000
00000001
00000100
00000001
00000100
00000001
00000100
00000010
00000000
,
00000100
00000010
00001000
00000100
00010000
00001000
00100000
00010000
00000000
01000000
00000000
00000000
01100000
00000000
01100000
00000000
,
10010000
10000000
00100000
01000000
00010000
00100000
01000000
10000000
,
11000000
01000000
00010000
00001000
00000100
00001000
00010000
00001000
,
00011000
00010000
01000000
00010000
00001000
00000100
00000010
00001000
,
00001001
00000001
00000010
00001000
00000010
00000001
00000100
00000010
,
00000110
00000100
00001000
00010000
00100000
01000000
00010000
00100000
,
01100000
01000000
00010000
00001000
00010000
00001000
00000010
00000001
,
00001000
00000100
00001000
00000100
00000020
00000000
00000031
00000100
00000001
00000100
00000001
00000100
00000020
00000000
00000130
00000010
,
00001000
00000100
00001000
00000100
00010000
00001000
00010000
00001000
00100000
00010000
00100000
00010000
10000000
01000000
10000000
01000000
,
00200000
01300000
10000000
00100000
,
02000000
03010000
00100000
00010000
,
00002000
00003010
00000100
00000001
,
00002000
00003100
00020000
00031000
,
00010000
00000000
00001000
00010000
00000000
00010000
00100000
01000000
,
00010000
00000000
00100000
01000000
00000000
01000000
00010000
00001000
,
00000100
00000000
00000010
00000100
00000000
00000100
00000010
00001000
,
00000001
00000000
00001000
00000010
00000000
00000010
00000100
00000001
,
00000010
00000100
00001000
00000100
00000010
00000001
00000100
00000100
,
00000001
00000100
00001000
00010000
00001000
00000100
00000010
00000010
,
00001000
00000100
00000001
00000100
00010000
00001000
00100000
00100000
,
00001000
00010000
01000000
10000000
00100000
01000000
00100000
00100000
,
10100000
01010000
00011000
00001100
,
00011000
00110000
01010000
00011000
,
00001100
00001010
00000110
00001100
,
00000000
00000001
00000000
00000100
00000000
00000001
00000100
00000010
00000000
00010000
00000000
00001000
00000000
00010000
00001000
00100000
,
00010000
01000000
01010000
00010000
00100000
10000000
00100000
00010000
,
00100000
00001000
00101000
00100000
00001000
00000100
00001000
00000100
,
00000001
00000010
00000011
00000001
00000100
00000010
00001000
00000100
,
00010000
00001000
00011000
00010000
01000000
10000000
00200000
00000000
,
01300000
00000000
00100000
00000000
10000000
00100000
10000000
00000000
01000000
00000000
00010000
00000000
00001000
00010000
00001000
00000000
,
00010000
00000000
00000100
00000000
00001000
00000100
00001000
00000000
00000010
00000000
00000100
00000000
00000001
00000100
00000001
00000000
,
00001000
00000000
00000100
00000000
00010000
00001000
00010000
00000000
00000100
00000000
00000010
00000000
00000100
00000010
00000100
00000000
,
00001000
00000100
00001000
00000000
00000010
00000100
00000010
00000000
00000100
00000001
00000100
00000000
00000001
00001000
00000001
00000000
,
00001000
00000010
00000100
00000000
00000010
00000000
00000001
00000000
00000010
00001000
00000010
00000000
00001000
00000000
00000100
00000000
,
00010000
00000100
00001000
00000000
00000100
00000000
00010000
00000000
00001000
00100000
00010000
00000000
00100000
00000000
01000000
00000000
,
10000000
00100000
01000000
00000000
00010000
00000000
00100000
00000000
00010000
00100000
00001000
00000000
00010000
00000000
00000100
00000000
,
00001000
00000100
00001000
00000000
00000100
00000010
00000100
00000000
00000010
00000001
00001000
00000001
00001000
00000001
00000100
00000000
,
00000100
00000010
00001000
00000000
00000100
00000000
00000010
00000000
00000001
00000010
00000100
00000000
00000010
00000000
00000001
00000000
,
00000100
00000010
00001000
00000000
00000100
00000000
00010000
00000000
00001000
00100000
00010000
00000000
01000000
00000000
00100000
00000000
,
01000000
00100000
10000000
00000000
01000000
00000000
00100000
00000000
00010000
00100000
00001000
00000000
00010000
00000000
00001000
00000000
,
00000000
00010000
00000000
00001000
00000000
00000100
00000010
00001000
00000000
00000001
00000000
00001000
00000000
00000001
00000100
00000010
,
00000100
00000001
00000000
00000100
00000001
00000000
00000101
00000000
00000001
00000010
00000100
00000000
00001000
00000000
00000100
00000000
,
00010000
00001000
00000000
00010000
00001000
00000000
00011000
00000000
00010000
00001000
00100000
00000000
00010000
00000000
01000000
00000000
,
00100000
10000000
00000000
00100000
10000000
00000000
10100000
00000000
00100000
10000000
01000000
00000000
00100000
00000000
00001000
00000000
,
00010000
00001000
00000000
00010000
00001000
00000000
00011000
00000000
00001000
00000100
00000001
00000000
00001000
00000000
00000001
00000000
,
00000010
00000001
00000010
00000001
00000100
00000010
00000200
00000000
00000310
00001000
00000010
00001000
00000100
00010000
00002000
00000000
,
00013000
00001000
00010000
00001000
00100000
00010000
00200000
00000000
00310000
01000000
00010000
01000000
00100000
10000000
00200000
00000000
,
10300000
01000000
10000000
00100000
01000000
00010000
00200000
00000000
00310000
00100000
01000000
00100000
00001000
00010000
00002000
00000000
,
00013000
00001000
00010000
00001000
00000100
00000010
00000100
00000010
00001000
00000010
00000100
00000001
00000010
00000100
00001000
00000100
,
00000010
00000000
00000000
00000000
;
