#TITLE:Gate One;
#SUBTITLE:;
#ARTIST:aran;
#TITLETRANSLIT:;
#SUBTITLETRANSLIT:;
#ARTISTTRANSLIT:;
#GENRE:;
#CREDIT:;
#MUSIC:Gate One.ogg;
#BANNER:Gate One.png;
#BACKGROUND:Gate One-bg.png;
#CDTITLE:;
#SAMPLESTART:22.126;
#SAMPLELENGTH:15.000;
#SELECTABLE:YES;
#OFFSET:-0.126;
#BPMS:0.000=180.000;
#STOPS:;
#ORIGIN:;
#PREVIEWVID:;
#JACKET:;
#CDIMAGE:;
#DISCIMAGE:;
#BGCHANGES:;
#FGCHANGES:;

//--------------- dance-single - Talkion ----------------
#NOTES:
     dance-single:
     Talkion:
     Beginner:
     4:
     0,0,0,0,0:
0000
0000
0000
0000
,
0000
0000
0000
0000
,
0000
0000
0000
0000
,
0000
0000
0000
0000
,
0000
0000
0000
0000
,
2000
0000
0000
0000
0000
0000
0000
3001
,
0000
0000
0000
0000
,
0002
0000
0000
0000
0000
0000
0000
1003
,
0000
0000
0000
0000
,
1001
0000
0000
0000
,
0110
0000
0000
0000
,
1001
0000
0000
0000
,
0110
0000
0000
0000
,
0001
0000
0000
0000
,
0001
0000
0000
0000
,
0100
0000
0100
0000
,
0200
0000
0300
0000
,
1001
0000
0000
0000
,
1000
0000
1000
0000
,
0100
0000
0100
0000
,
0010
0000
0010
0000
,
0001
0000
0001
0000
,
0100
0000
0100
0000
,
0010
0000
0010
0000
,
1000
0000
1000
0000
,
0001
0000
0010
0000
,
0001
0000
0010
0000
,
0100
0000
1000
0000
,
0100
0000
1000
0000
,
1001
0000
0000
0000
,
0110
0000
0000
0000
,
2002
0000
3003
0000
,
0200
0000
0310
0000
,
1000
0000
1001
0000
,
0110
0000
0000
0000
,
0001
0000
1001
0000
,
0110
0000
0000
0000
,
1000
0000
1001
0000
,
0110
0000
0000
0000
,
0001
0000
1001
0000
,
0110
0000
0000
0000
,
2000
0000
0000
0000
,
0000
3000
0200
0300
,
0002
0000
0000
0000
,
0000
0003
0020
0030
,
1001
0000
0000
0000
,
0110
0000
0000
0000
,
1001
0000
0110
0000
,
2002
0000
3003
0000
,
0000
0000
0000
0000
,
0000
0000
0000
0000
,
0000
0000
0000
0000
,
0000
0000
0000
0000
,
0002
0000
0000
0000
,
0103
0000
0000
0000
,
2000
0000
0000
0000
,
3100
0000
0000
0000
,
0001
0000
0001
0000
,
0000
0000
0110
0000
,
1000
0000
1000
0000
,
0000
0000
0110
0000
,
0001
0000
0001
0000
,
0000
0000
0110
0000
,
1000
0000
1000
0000
,
0200
0000
0300
0000
,
0010
0000
0001
0000
,
0010
0000
0001
0000
,
1000
0000
1000
0000
,
2000
0000
3000
0000
,
2002
0000
0000
0000
,
0000
0000
3003
0000
,
0001
0000
0001
0000
,
0010
0000
0100
0000
,
1000
0000
1000
0000
,
0010
0000
0100
0000
,
0001
0000
0001
0000
,
0110
0000
0110
0000
,
1000
0000
1000
0000
,
0100
0000
0001
0000
,
0100
0000
0100
0000
,
1000
0000
0001
0000
,
0200
0000
0000
0000
,
0000
0000
0000
0000
,
0010
0000
0010
0000
,
0020
0000
0330
0000
,
1000
0000
0001
0000
,
2000
0000
0000
0001
,
3001
0000
1000
0000
,
0002
0000
1003
0000
,
0010
0000
0010
0000
,
0100
0000
0100
0000
,
0010
0000
0100
0000
,
1001
0000
1001
0000
,
0001
0000
1000
0000
,
0002
0000
0000
1000
,
1003
0000
0001
0000
,
2000
0000
3001
0000
,
0100
0000
0000
0010
0000
0000
0000
0000
,
0100
0000
0000
0010
0000
0000
0000
0000
,
2002
0000
0000
0000
,
0000
3003
0100
0000
,
0010
0000
0000
0000
;

//--------------- dance-single - ----------------
#NOTES:
     dance-single:
     :
     Easy:
     8:
     0,0,0,0,0:
0000
0000
0000
0000
,
0000
0000
0000
0000
,
0000
0000
0000
0000
,
0000
0000
0000
0000
,
0000
0000
0000
0000
,
0002
0000
0000
0023
0000
0000
0000
0200
,
0000
0000
0000
0330
,
2000
0000
0000
3020
0000
0000
0000
0230
,
0000
0000
0000
0002
0000
0000
0303
0000
,
1000
0000
0000
1200
0000
0000
0310
0000
,
0001
0000
0000
0101
0000
0101
0000
0000
,
0010
0000
0000
2001
0000
0000
3100
0000
,
0010
0000
0000
1002
0000
0000
0103
0000
,
0010
0010
1000
1000
,
0100
0100
0010
0010
,
0001
1000
0001
1000
0001
1000
0001
0000
,
0200
0000
0310
0110
,
1000
0100
0010
0001
,
1000
1000
0010
0100
,
0001
0001
0100
0010
,
1000
0000
0001
1000
0000
1000
0000
0000
,
0001
0010
0100
1000
,
0001
0001
0100
0010
,
1000
1000
0010
0100
,
0001
1000
1001
1001
,
0010
1000
0100
0010
,
0100
0100
1000
0001
,
0100
0100
0001
1000
,
0100
0010
1001
1001
,
0001
0100
0001
0100
,
0001
1000
0001
1000
,
0100
0010
0100
0010
0100
0010
0100
0000
,
2002
0000
0000
3003
,
1000
0000
0000
1000
0010
0000
0000
0000
,
0110
0110
0110
0000
,
0001
0000
0000
0001
0100
0000
0000
0000
,
0110
0110
0110
0000
,
1000
0000
0000
1000
0001
0000
0000
0000
,
1001
1001
1001
0000
,
0100
0000
0000
0100
0010
0000
0000
0000
,
0110
0110
0110
0000
,
0002
0000
0023
0000
,
0230
0000
2300
0000
,
3002
0000
0203
0000
,
0320
0000
2030
0000
,
3001
0000
0000
0011
0000
0000
0001
0000
,
1000
0000
0000
1010
0000
0000
1000
0000
,
0001
0000
0000
0110
0000
0000
1000
0000
,
0001
0200
0020
0330
,
2000
0000
0000
3000
,
0200
0000
0000
0300
,
0002
0000
0000
0003
,
0200
0000
0000
0300
,
2000
0000
3020
0000
,
0230
0000
0000
0000
0000
0000
0301
1000
,
0002
0000
0023
0000
,
0230
0000
0000
0000
0000
0000
1300
0001
,
1000
0000
0110
0000
,
0010
0000
1001
0000
,
0100
0000
0110
0000
,
0010
0000
1001
0000
,
0001
0000
0001
0000
,
0010
0100
1000
0000
,
1000
0000
1000
0000
,
1000
0010
0100
0000
,
0001
1000
0001
1000
,
0010
0100
0010
0100
,
0001
1000
0001
1000
0001
1000
0001
0000
,
0200
0000
0310
0110
,
1000
0100
1000
0100
,
0010
0001
0010
0001
,
1000
0010
0001
0010
,
1000
0000
0001
1000
0001
0000
0200
0000
,
0000
0310
1000
0100
,
0010
0001
0010
0100
,
1000
0001
0100
1000
,
0100
0010
1001
1001
,
0010
1000
0010
0001
,
0010
1000
0010
0100
,
0001
1000
0100
0010
,
0001
0000
1000
0001
1000
0000
0100
0000
,
0020
0000
0000
0000
,
0000
0000
0000
0030
,
0001
1000
0001
1000
0001
1000
0001
0000
,
0110
0110
0110
1001
,
0000
1000
0001
0000
0010
0000
0100
0000
,
1000
0001
0100
0010
,
1000
0100
0010
0001
,
1000
0010
0100
0010
,
1000
0100
0001
0100
,
1000
0100
0010
0001
,
1000
0010
0100
0001
,
2000
0000
3001
1001
,
0010
0001
0100
1000
,
0100
0001
0010
0100
,
1000
0010
0001
0010
,
1000
0100
0010
0001
,
1000
0000
0000
1010
0000
0110
0000
0102
,
0000
0000
0000
1003
0001
0000
0010
0000
,
0100
1000
0100
1000
0001
0100
0001
0100
,
0020
0000
0000
0000
0000
0000
0000
0000
0130
0000
0000
0001
0000
0000
1000
0000
,
0100
0000
0000
0000
;

//--------------- dance-single - Talkion ----------------
#NOTES:
     dance-single:
     Talkion:
     Medium:
     12:
     0,0,0,0,0:
0000
0000
0000
0000
,
0000
0000
0000
0000
,
0000
0000
0000
0000
,
0000
0000
0000
0000
,
0000
0000
0000
0000
,
0100
0000
0001
1000
0200
0000
0310
0100
,
1000
0001
0200
0000
0000
0000
0310
1000
,
0100
0000
0010
0001
1000
0000
0010
0100
,
0001
0100
0020
0000
0000
1030
0100
0010
,
0002
0000
0003
0021
0000
0000
0130
0000
,
2000
0000
3000
1020
0000
0100
0130
0000
,
0002
0000
0003
2001
0000
0000
3010
0000
,
0200
0000
0300
0120
0000
1000
1030
0000
,
0100
0010
0100
0000
0010
0001
0010
0000
,
0001
0100
0001
0000
0100
0010
0100
0000
,
0010
1000
0010
1000
0001
0010
0001
0010
,
0100
1000
0001
0100
0010
0000
0110
0000
,
1001
0000
0001
0002
0000
0010
0013
0000
,
1100
0000
1000
0001
0100
0000
0101
0000
,
0110
0000
0010
1000
0100
0000
1100
0000
,
1001
0000
0001
0011
0000
0010
0100
1000
,
0000
1000
1010
0000
0010
0100
0001
0000
,
0011
0000
0010
0100
1000
0000
1010
0000
,
0110
0000
0100
0001
1000
0000
1001
0000
,
1000
0100
0010
0001
0101
0000
1100
0000
,
1010
0000
0010
0100
0001
0000
0011
0000
,
0101
0000
0100
0010
1000
0000
0100
1000
,
0010
0000
0100
0001
0100
0000
0010
1000
,
0001
0000
0000
0000
0010
0000
0100
0000
0010
0000
0000
0001
0000
0000
1000
0000
,
0010
0010
0001
0001
,
0100
0100
1000
1000
,
0010
0100
0010
0100
0001
0010
0001
0010
,
0100
1000
0001
0100
0010
0000
0110
0000
,
0010
0000
1000
0100
0010
0000
0100
0000
,
1000
0011
1010
0011
,
0010
0000
0100
1000
0001
0000
0100
0000
,
0010
0100
0010
0000
1100
0000
0101
0000
,
0001
0000
0010
0100
1000
0000
0100
0000
,
0010
0101
0011
0101
,
0100
0000
0010
1000
0100
0000
0010
0000
,
0100
1010
1100
1010
,
0100
0101
0001
0011
,
0010
1010
0010
0011
,
0001
0101
0100
1100
,
1000
0000
0000
0000
1010
0000
0000
0000
1001
0000
0000
0001
0000
0000
0010
0000
,
0100
0000
0000
1000
0000
0000
0010
0000
0000
0100
0000
0000
0110
0000
0000
0000
,
0100
0000
0000
0001
0000
0000
0010
0000
0000
0100
0000
0000
0110
0000
0000
0000
,
0100
0000
1000
0000
0100
0000
0000
0010
0000
0000
0001
0000
1000
0000
0010
0000
,
0200
0302
0023
0130
,
2000
0000
3010
0000
,
0002
0010
1003
0000
,
0200
0000
0301
0000
,
0020
1000
0130
0000
,
1000
0000
0100
0010
0002
0000
0103
0010
,
1000
0001
2000
0000
0000
0000
3100
0010
,
0001
0000
0010
0100
1000
0000
0010
0100
,
0001
1000
0002
0000
0000
0013
0100
1000
,
0010
0000
0101
0000
,
0100
0110
1010
0000
,
1000
0000
1100
0100
,
0010
0001
1000
0000
1001
0000
0001
0000
,
0100
0000
1010
0000
,
0010
0110
0101
0000
,
0001
0001
0010
0010
,
0100
1000
0001
0100
0010
1000
0001
0100
,
0010
0000
0100
0001
1000
0000
0100
1000
,
0100
0000
1000
0001
0100
0000
0010
1000
,
0010
0100
0001
0010
0100
1000
0100
0010
,
0001
1000
0010
0100
0010
0000
0110
0000
,
0200
0000
0001
0000
0010
0000
0301
0010
,
0200
0000
1000
0000
0010
0000
1300
0001
,
0100
0000
1010
0000
1001
0000
0001
0010
,
0100
1000
0001
0100
0010
0000
0100
0002
,
0000
1000
1003
0000
1100
0000
0100
0010
,
0001
0000
0101
0000
0110
0000
0010
1000
,
0001
0000
0011
0000
0110
0000
0100
1000
,
0010
0101
1100
1001
,
0101
0000
0110
0000
1100
0000
0100
0010
,
0001
0000
0011
0000
0110
0000
0100
1000
,
0001
0000
0101
0000
1100
0000
1000
0010
,
0100
0000
0001
0000
1000
0000
0100
0000
0010
0000
0000
0001
0000
0000
1000
0000
,
0010
0010
0001
0001
,
0100
0100
1000
1000
,
0010
1000
0010
0100
0001
0010
0001
0100
,
0010
1000
0100
0001
0100
0000
0110
0000
,
0010
0001
1000
0000
1010
0000
0010
0100
,
0001
0000
0011
0000
0010
0100
1000
0001
,
0100
0000
0110
0000
0010
1000
0100
0010
,
0100
0000
1100
0000
1000
0010
0100
0001
,
0010
0100
0010
0002
0000
1003
0010
0100
,
0010
0000
1010
0000
1000
0100
0010
0001
,
0100
0000
0101
0000
0001
0010
0100
1000
,
0010
0100
0011
1010
,
1000
0000
1100
0000
0100
0010
0001
0100
,
0010
0000
0110
0000
0100
0001
0010
1000
,
0010
0000
0011
0000
0001
0100
1000
0100
,
0010
0000
1010
0000
1000
0100
0010
0001
,
1000
0000
1010
0010
0000
0100
0110
0010
,
0000
0100
0101
0001
0010
0000
0100
0000
,
1000
0010
1000
0010
0100
0001
0100
0001
,
0010
0000
1000
0000
0010
0000
0001
0000
1000
0000
0000
0010
0000
0000
0100
0000
,
0001
0000
0000
0000
;

//--------------- dance-single - Talkion ----------------
#NOTES:
     dance-single:
     Talkion:
     Hard:
     15:
     0.755537,0.946068,0.763771,0.338653,0.22697,734,628,106,47,0,0,0,0,0,0.755537,0.946068,0.763771,0.338653,0.22697,734,628,106,47,0,0,0,0,0:
0000
0000
0000
0000
,
0000
0000
0000
0000
,
0000
0000
0000
0000
,
0000
0000
0000
0000
,
0000
0000
0000
0000
,
0010
0000
1000
0100
0020
0000
0031
0100
,
0010
1000
0020
0000
0230
0000
0301
1000
,
0100
0000
0010
0100
2000
0000
3010
0100
,
0001
1000
0002
0000
0013
0100
1000
0100
,
0220
0000
0330
0012
0000
0013
0110
0000
,
2200
0000
3300
1020
0000
0130
0110
0000
,
2020
0000
3030
1200
0000
0310
0110
0000
,
0022
0000
0033
2001
0000
3010
0110
0000
,
0100
0001
0100
0001
1000
0100
1000
0100
,
0010
0001
0010
0001
1000
0010
1000
0010
,
0100
0001
0100
0000
0001
0010
0001
0000
0010
0100
0010
0000
0100
1000
0100
0000
,
1000
0100
0001
0100
1000
0000
1001
0000
,
0201
0000
0010
0320
0000
1000
1030
0000
,
1100
0000
0110
0010
0001
0100
0101
0000
,
0110
0000
1010
1000
0100
0010
0011
0000
,
0110
0100
1000
1010
0000
0110
0100
0002
,
0000
0010
0013
0100
1000
0001
0101
0000
,
0110
0000
1010
1000
0001
0010
0110
0000
,
1100
0000
0110
0010
0001
0100
0101
0000
,
0110
1000
1010
0001
0021
0000
0130
0000
,
1100
0000
1010
0010
0100
0001
0011
0000
,
0110
0000
1100
1000
0001
0100
1000
0100
,
0110
0000
1010
1000
0001
0010
1000
0010
,
0100
0000
1000
0000
0001
0000
0100
0010
0100
0000
0000
0010
0000
0000
1000
0010
,
1000
0000
0100
0010
0001
0000
0100
0010
,
1000
0000
0001
0000
0010
0000
0100
1000
0100
0000
0010
0000
0001
0000
0100
0010
,
0100
0010
0100
0000
0001
0010
0001
0000
0010
0100
0010
0000
0100
1000
0100
0000
,
0020
0032
1003
1001
,
0101
0000
0100
1000
0001
0000
0010
0000
,
0100
0101
1100
0101
,
1010
0000
0000
0100
0000
0000
0001
1000
0001
0000
0000
0000
0010
0000
0000
0000
,
0100
1000
1001
0000
0110
0000
1001
0000
,
0011
0000
0010
1000
0001
0000
0100
0000
,
0010
0011
1010
0011
,
1100
0000
0000
0000
0100
0000
0010
0000
0001
0000
0000
0000
0010
0000
0100
1000
,
0100
0000
1000
0000
0010
0000
0100
0001
0100
0000
0000
0000
0010
0000
1000
0000
,
0100
0000
0010
0100
1000
0000
0010
0100
,
0001
0000
0010
0001
0100
0000
0010
1000
,
0100
0000
0001
0100
1000
0000
0010
0001
,
1000
0000
0000
0000
0100
0000
0001
0000
1000
0000
0000
0100
0000
0000
0010
0001
,
0010
0000
0000
1000
0000
0000
0100
0000
0000
0001
0000
0000
0101
0000
0000
0000
,
0001
0000
0000
0100
0000
0000
1000
0000
0000
0010
0000
0000
0011
0000
0000
0000
,
0100
1000
0100
1000
0001
0000
0100
0010
0000
0100
0010
0000
1000
0100
1000
0100
,
0010
0001
0010
0000
0100
1000
0100
0000
1000
0010
1000
0000
0001
0000
0000
0000
,
0200
0010
0301
0000
,
0020
1000
0031
0000
,
0200
1000
0310
0000
,
2000
0000
0100
0000
3001
0010
0100
1000
,
0001
0000
0100
0010
2000
0000
3100
0010
,
0100
1000
0020
0000
0230
0000
0310
1000
,
0001
0000
0010
0100
0020
0000
0031
0100
,
0010
1000
0020
0000
0130
0010
1000
0100
,
0010
0000
0011
0000
,
0100
1010
1001
0000
,
0001
0000
0101
0100
,
0010
1000
0001
0000
1001
0000
1000
0000
,
0100
0000
1100
0000
,
0010
0101
1001
0000
,
1000
0010
0001
0010
,
1000
0000
0010
0000
0001
0000
0010
0000
1000
0000
0010
0000
0100
0000
0010
0100
,
0010
0000
1000
0100
0010
0000
1000
0010
,
0001
0000
0100
0010
0001
0000
0010
0100
,
0010
1000
0010
0000
1000
0100
1000
0000
0100
0010
0100
0000
0010
0001
0010
0000
,
0001
0010
1000
0010
0001
0000
1001
0000
,
1020
0000
0100
0000
0001
0000
1030
0100
,
0020
0000
0100
0000
0031
0000
1001
0100
,
0101
0000
0110
0010
1000
0100
0010
1000
,
0010
0000
0001
0000
0100
0000
0010
0100
0010
0000
0000
0000
1010
0000
2000
0000
,
0000
3100
0110
0000
0011
0001
0100
0010
,
1010
0000
1100
0100
0010
0001
0100
0010
,
0110
0000
0000
0000
0101
0000
0001
0000
0010
0000
0100
0000
1000
0000
0010
0100
,
0010
1010
0011
1001
,
1100
0000
0110
0010
0001
0100
0010
1000
,
1001
0000
1010
0010
0100
0001
1000
0100
,
1100
0000
0110
0100
1000
0010
0100
1000
,
0100
0000
0001
0000
0010
0000
0100
0010
0100
0000
0000
0010
0000
0000
0001
1000
,
0001
0000
0100
0010
1000
0000
0100
0010
,
0001
0000
0100
0000
0010
0000
1000
0010
1000
0000
0100
0000
0010
0000
0001
0010
,
0001
0010
0100
0000
1000
0100
1000
0000
0010
0100
0010
0000
0100
0001
0100
0000
,
0001
0010
0001
0010
0100
1000
0100
1000
0001
0000
0000
0000
2001
0000
0000
0000
,
3010
0000
0100
0001
0100
0000
0010
0000
1000
0000
0100
0000
0001
0000
0100
0000
,
0120
0000
1030
0010
0001
0100
0010
1000
,
1200
0000
1300
0010
0001
0010
0100
0001
,
0021
0000
0130
1000
0001
0100
1000
0001
,
0010
0100
0001
2000
0000
3100
0010
0001
,
0200
0000
0310
1000
0001
0010
0100
1000
,
1002
0000
0103
1000
0100
0001
1000
0100
,
0120
0000
0031
1000
1010
0000
0101
0000
,
0021
0000
0130
1000
1010
0010
0100
0001
,
0021
0000
0130
0010
0011
0001
0100
0010
,
1020
0000
0130
0001
1001
1000
0100
0010
,
0210
0000
0000
0000
1300
0000
0001
0100
0001
0000
0000
0000
0100
0000
0010
0000
,
1010
1000
0100
0110
0010
0101
0001
1100
,
2000
0000
0010
0000
3010
0000
0100
0001
0100
0000
0010
0000
1000
0000
0100
1000
,
0100
1000
0100
0000
0010
0001
0010
0000
0001
0100
0001
0000
0100
0010
0100
0000
,
0010
1000
0001
0000
1000
0001
1000
0001
0010
0000
0000
0100
0000
0000
1000
0000
,
1001
0000
0000
0000
;

//--------------- dance-double - Talkion ----------------
#NOTES:
     dance-double:
     Talkion:
     Hard:
     15:
     0,0,0,0,0:
00000000
00000000
00000000
00000000
,
00000000
00000000
00000000
00000000
,
00000000
00000000
00000000
00000000
,
00000000
00000000
00000000
00000000
,
00000000
00000000
00000000
00000000
,
10000000
00000000
01000000
00010000
00002000
00000000
00013000
01000000
,
10000000
00100000
00020000
00000000
00000000
00000000
00031000
00000100
,
00000001
00000000
00000100
00001000
00020000
00000000
00031000
00000100
,
00000001
00000010
00002000
00000000
00000000
00013000
01000000
00100000
,
00202000
00000000
00303000
00010200
00000000
00001000
00001300
00000000
,
00002002
00000000
00003003
00000021
00000000
00000100
00000130
00000000
,
00020200
00000000
00030300
00201000
00000000
00010000
00310000
00000000
,
20020000
00000000
30030000
12000000
00000000
00100000
03100000
00000000
,
00010000
00100000
01000000
00010000
00001000
00000100
00000010
00001000
,
00000001
00000010
00000100
00001000
00010000
00100000
01000000
10000000
,
00100000
00010000
00000010
00001000
00100000
00010000
00000010
00001000
,
00100000
00010000
00001000
00010000
00001000
00000000
00011000
00000000
,
00010200
00000000
00001300
00001002
00000000
00000100
00000203
00000000
,
00000310
00001000
00000010
00000001
00001000
00000100
00000010
00001000
,
00010000
00100000
01000000
00010000
10000000
00100000
00010000
10000000
,
00100000
00100000
01000000
01000000
00000000
20010000
00000000
01000000
,
31000000
00100000
00011000
00000000
00010000
01000000
10000000
00100000
,
01000000
00010000
01000000
10000000
00010000
00100000
01000000
00010000
,
00001000
00000100
00000010
00001000
00000001
00000100
00001000
00000001
,
00000100
00000100
00000010
00000010
00001000
00000100
00010100
00000000
,
00011000
00000000
00001000
00000100
00000010
00010000
00001000
00010000
,
00000100
00000010
00001000
00010000
00100000
10000000
00010000
10000000
,
01000000
00010000
00001000
00000100
00000001
00001000
00000001
00000010
,
00000100
00000000
00010000
00000000
00002000
00000000
00010000
00000000
00013000
00000000
00000000
00101000
00000000
00000000
00110000
00000000
,
00110000
00000000
10000000
00010000
00001000
00000000
00001000
00010000
,
10000000
00000000
10000000
00010000
00001000
00010000
00001000
00000000
,
00000001
00000100
00001000
00010000
00001000
00000010
00000001
00001000
,
00000100
00010000
00001000
00100000
00010000
00000000
10010000
00000000
,
10100000
00000000
00100000
00010000
00001000
00000000
00000010
00000000
,
00000011
00001010
00011000
00110000
,
10100000
00000000
00000000
00100000
00000000
00000000
00010000
00000000
00001000
00000000
00000000
00000000
00000010
00000000
00000000
00000000
,
00000001
00000010
00001000
00000000
00011000
00000000
00110000
00000000
,
10100000
00000000
10000000
01000000
00010000
00000000
00001000
00000000
,
00001100
00000101
00000011
00001010
,
00011000
00000000
00010000
01000000
10000000
00000000
00100000
00010000
,
00001000
00000010
00001000
00010000
00100000
00000000
10010000
00000000
,
12000000
03001000
02001000
13000000
,
00012000
00103000
00021000
00030010
,
00000201
00010300
00010200
00000301
,
00021000
00000000
00000000
00000000
00030200
00000000
00000000
00000000
00010300
00000000
00000000
00010000
00000000
00000000
00010000
00000000
,
00001000
00000000
00000000
00010000
00000000
00000000
10000000
00000000
00000000
00010000
00000000
00000000
00011000
00000000
00000000
00000000
,
00010000
00000000
00000000
00001000
00000000
00000000
00000001
00000000
00000000
00001000
00000000
00000000
00011000
00000000
00000000
00000000
,
00001000
00000000
00010000
00000000
01000000
00000000
00000000
01000000
00000000
00000000
01000000
00000000
00010000
00000000
00001000
00000000
,
00000100
00000001
00000010
00001000
00010000
00001000
00010000
00000000
,
02000000
00000000
10000000
00000000
,
03002000
00000000
00000100
00000000
,
02003000
00000000
10000000
00000000
,
03002000
00000000
00000000
00000000
00003100
00000010
00000001
00001000
,
00000001
00000000
00000010
00001000
00010000
00000000
00001000
00000010
,
00000001
00000100
00002000
00000000
00000000
00000000
00013000
00100000
,
10000000
00000000
00100000
00010000
00002000
00000000
00013000
00100000
,
10000000
01000000
00020000
00000000
00000000
00031000
00000010
00000100
,
00001000
00000000
01100000
00000000
,
00011000
00000100
00001001
00000000
,
00010000
00000000
00000110
00010000
,
00001000
00010000
00100000
00000000
10010000
00000000
10000000
00000000
,
01000000
00000000
00011000
00000000
,
00000101
00000010
00011000
00000000
,
01000000
01000000
10000000
10000000
,
00100000
00010000
00001000
00000100
00010000
00001000
00000100
00000010
,
00000001
00000000
00001000
00010000
00100000
00000000
00010000
00001000
,
00000010
00000000
00001000
00010000
01000000
00000000
00100000
10000000
,
01000000
00010000
00000100
00001000
01000000
00010000
00000100
00001000
,
01000000
00010000
00001000
00010000
00001000
00000000
00011000
00000000
,
00010020
00000000
00000230
00000000
00000302
00000000
00000013
00000100
,
00010000
00101000
10010000
01100000
,
10000000
01000000
00010000
00000100
00001000
00000001
00000100
00001000
,
01000000
00010000
10000000
01000000
00100000
00002000
00010000
00013000
,
00000000
00010100
00010100
00000000
00000100
00001000
00000001
00000100
,
00000001
00000010
00001000
00100000
00010000
10000000
00100000
00010000
,
00000010
00001000
00000001
00000010
00000100
00010000
00000010
00000100
,
00010000
01000000
01100000
10010000
,
10000000
01000000
00100000
00001000
00010000
00000010
00001000
00100000
,
00010000
00001000
00100000
00010000
00001000
00000100
00000020
00000001
,
00000031
00000010
00000100
00010000
00001000
01000000
00010000
00000100
,
00001000
00000000
00010000
00000000
02000000
00000000
00100000
00000000
03100000
00000000
00000000
11000000
00000000
00000000
10010000
00000000
,
10010000
00000000
00010000
00001000
00000001
00000000
00000001
00001000
,
00010000
00000000
00010000
00001000
00000100
00000010
00000001
00001000
,
00000001
00000100
00001000
00100000
00010000
00000100
00001000
00010000
,
00001000
00010000
00001000
00010000
00001000
00000000
00100000
00000000
00010000
00000000
00000000
00000000
10010000
00000000
00000000
00000000
,
10000000
01000000
10000000
01000000
00010000
00000100
00001000
00010000
,
00001000
00000100
00000010
00000001
00000100
00001000
00000001
00000010
,
00000100
00000001
00000010
00000100
00010000
01000000
00010000
00000100
,
00000010
00000001
00000100
00001000
00010000
00100000
20000000
00000000
,
30010000
00100000
00001000
00020000
00000000
00030100
00000010
00000001
,
00000020
00000000
00000130
00010000
00001000
00100000
00010000
01000000
,
20000000
00000000
31000000
00010000
00001000
00000100
00000010
00000001
,
00001000
00000100
00011000
01100000
,
10000000
00100000
10000000
00100000
00010000
00000010
00001000
00010000
,
00001000
00000010
00000100
00000001
00000010
00001000
00000001
00000100
,
00000010
00000001
00000100
00000010
00010000
00100000
00010000
00000010
,
00000100
00000001
00000010
00001000
00010000
01000000
20000000
00000000
,
30020000
00000000
00031000
00002020
00003030
00000202
00000303
00022000
,
00000000
00033000
00010000
01000000
00100000
00010000
10000000
00000000
,
00100000
00010000
00000100
00001000
00100000
00010000
00000100
00001000
,
00100000
00000000
00010000
00000000
00001000
00010000
00001000
00010000
00001000
00000000
00000000
00000100
00000000
00000000
00000001
00000000
,
00001001
00000000
00000000
00000000
;
