#TITLE:Carry Me Away;
#SUBTITLE:;
#ARTIST:lapix;
#TITLETRANSLIT:;
#SUBTITLETRANSLIT:;
#ARTISTTRANSLIT:;
#GENRE:;
#CREDIT:;
#MUSIC:Carry Me Away.ogg;
#BANNER:;
#BACKGROUND:Carry Me Away-bg.png;
#CDTITLE:;
#SAMPLESTART:87.427;
#SAMPLELENGTH:15.000;
#SELECTABLE:YES;
#OFFSET:0.344;
#BPMS:0.000=175.000
,96.000=87.500
,98.000=175.000
,142.500=87.500
,144.000=175.000
;
#STOPS:137.000=0.171;
#DISPLAYBPM:175.000;
#BGCHANGES:;
#FGCHANGES:;

//--------------- dance-single - Talkion ----------------
#NOTES:
     dance-single:
     Talkion:
     Medium:
     14:
     0,0,0,0,0:
0000
0000
0000
0000
,
1100
0000
1002
0000
0100
0103
0000
0110
,
0000
1010
0000
2001
0000
0100
3100
0000
,
0110
0000
0001
0010
0100
1000
0001
0000
,
0210
0000
1000
1000
0000
0001
0301
0000
,
0011
0000
2001
0000
0010
3010
0000
0110
,
0000
0101
0000
1002
0000
0010
0013
0000
,
0210
0000
1000
1000
0000
0001
0301
0000
,
0200
0000
0010
0310
0001
1000
1001
0000
,
0101
0000
0000
0000
0101
0000
0000
0000
0100
0000
0000
0010
0000
0000
0110
0000
,
0000
0110
1000
0100
0010
0001
1000
0000
,
1010
0000
0000
0000
1010
0000
0000
0000
0010
0000
0000
0100
0000
0000
0110
0000
,
0000
0110
0001
0010
0100
1000
0001
0000
,
0001
0100
0010
1000
0100
0010
0001
1000
,
0001
0100
0100
0010
1000
0100
0100
0010
,
0002
2003
3020
0230
,
0301
1100
0101
1001
,
1200
0000
0000
0000
0310
0000
0001
1000
0001
0000
0100
0000
0010
0000
0110
0000
,
0000
1010
0000
0000
1010
0000
1000
0000
0200
0000
0000
0000
0320
0000
0032
0000
,
1003
0000
0000
0000
0001
1000
0001
1000
0002
0000
0000
0000
0103
0000
0010
0000
,
1000
0100
0010
0001
1001
0000
1001
0000
,
0101
0000
0000
0000
0100
0010
0100
0010
0100
0000
0010
0000
2000
0000
0000
0000
,
3001
0020
2030
3002
0203
2300
3002
2003
,
3020
0032
2003
3200
0301
1000
0001
0010
,
0200
0000
0000
0000
0000
0000
0310
0000
1001
0000
0000
0000
1000
0001
1000
0000
,
0010
0000
0000
0010
0000
0000
0010
0000
0100
0000
0001
1000
0000
1000
0100
0000
,
0010
0001
1001
0000
1000
0010
0100
0010
,
1000
0100
0000
0010
0000
0100
1000
0000
0001
0000
0100
0010
0000
0010
0100
0000
,
0020
0000
0000
0000
0030
0000
0000
0000
1001
0000
0000
0000
0001
1000
0001
0000
,
0010
0000
0000
0010
0000
0000
0010
0000
0100
0000
1000
0001
0000
0001
0100
0000
,
0010
1000
1001
0000
0001
0010
1000
0100
,
0001
1000
0001
0000
0200
0000
0000
0000
,
0000
0000
0310
0000
2000
3100
0002
0103
,
2000
3010
0002
0013
2000
3100
0020
0031
,
2000
3001
0100
0002
0013
2000
3010
0002
,
0103
2000
3100
0002
1003
0200
0000
0000
,
0310
0110
0110
0110
,
0001
0010
0100
1000
0010
0100
0001
1000
,
0001
0010
0010
0100
1000
0010
0010
0100
,
0002
0000
0000
1003
,
1001
0000
0000
0000
0021
0000
0000
0100
0000
0000
0130
0000
0000
0000
1100
0000
,
0000
1000
2000
0000
3010
0100
0001
0000
,
1001
0000
0000
0000
0210
0000
0000
0001
0000
0000
1000
0000
1300
0000
0000
0000
,
0001
0010
0020
0000
0130
1000
0001
0000
,
2002
0000
3003
0000
1000
0010
0001
0010
,
1000
0010
0001
0010
0200
0010
0310
0000
,
1001
0000
0001
0010
0100
1000
0002
0000
,
0000
0100
0103
0000
0010
0100
0110
0000
,
2000
0000
0001
0000
3001
0000
0000
0011
0000
0000
0110
0000
0000
0000
0100
0000
,
1000
0000
0001
0000
0100
0000
0010
0000
1000
0001
0000
0001
1000
0000
0000
0000
,
0002
0000
1000
0000
1003
0000
0000
1010
0000
0000
0110
0000
0000
0000
0100
0000
,
0001
0000
1000
0000
0100
0000
0010
0000
0001
0000
0000
1001
0000
0000
2002
0000
,
3003
0000
0000
0000
1000
0001
1000
0001
1000
0000
0000
0110
0000
0000
0110
0000
,
0000
0000
0001
0000
0010
0000
0100
1000
0100
0000
1000
0000
0002
0000
0000
0000
,
0103
0000
0001
0010
1000
0100
0002
0000
,
0000
0000
0000
0000
,
0003
0000
0000
0000
,
0000
0000
0000
0000
,
0000
0000
0000
0000
,
0000
0000
0000
0000
,
1000
1000
0001
0001
,
0100
0010
0100
0010
1000
0100
0010
0001
,
1000
0001
1000
0001
1000
0001
1000
0001
1000
0001
1000
0001
1000
0001
2000
0002
,
0000
0000
0000
0000
0000
3003
1001
0000
,
0001
0000
0100
0000
0010
0000
0100
0010
0100
0000
0010
0000
1000
0000
1000
0000
,
0100
0000
0010
0000
0001
0000
1000
0001
1000
0000
0010
0000
0100
0000
0100
0000
,
1000
0000
0100
0000
0001
0000
1000
0001
1000
0000
0100
0000
0010
0000
0010
0000
,
1000
0000
0010
0000
0001
0000
1000
0001
1000
0000
0010
0000
0100
0000
0100
0000
,
0010
0000
1000
0000
0100
0000
0010
0001
0010
0000
0001
0000
1000
0000
1000
0000
,
0100
0000
1000
0000
0010
0000
0100
0001
0100
0000
0001
0000
1000
0000
1000
0000
,
0100
0000
0001
0000
0100
0000
0010
0100
0010
0000
0100
0000
1000
0000
1000
0000
,
0010
0000
0001
0000
0010
0000
0100
0010
0100
0000
0000
0000
0010
0000
0010
0000
,
0020
0000
0000
0000
1030
0000
0001
1000
0001
0000
0010
0000
0100
0000
1000
0000
,
0001
0000
0100
0000
0010
0000
0100
0010
0100
0000
0002
0000
2003
0000
3200
0000
,
0320
0000
0000
0000
0031
0000
1000
0010
1000
0000
0010
0000
0001
0000
0010
0000
,
1000
0000
0010
0000
0001
0000
0010
0100
0010
0000
0200
0000
0302
0000
2003
0000
,
3100
0000
0110
0010
0001
1000
1001
0001
,
1001
0000
0110
0010
1000
0001
1001
1000
,
1001
0000
0002
0023
2030
3020
0032
2003
,
3010
0110
1100
0101
,
1001
0000
0000
0000
0001
1000
0001
0000
0100
0000
0000
0100
0000
0000
0100
0000
,
0010
1000
0000
0001
1000
0001
1000
0000
0100
0000
0010
0000
0110
0000
0000
0000
,
0001
1000
0001
1000
0001
1000
0010
0000
0100
0010
0000
1000
0000
0010
0100
0000
,
0001
0000
1000
0001
1000
0001
1000
0001
0010
0000
0100
0000
0220
0000
0000
0000
,
0000
0000
0000
0000
,
0000
0000
0000
0000
,
0330
0000
0000
0000
;

//--------------- dance-single - Talkion ----------------
#NOTES:
     dance-single:
     Talkion:
     Hard:
     17:
     0,0,0,0,0:
0000
0000
0000
0000
,
1010
0000
0000
0000
0010
0100
0010
0100
0001
0000
1000
0000
0100
0000
1100
0000
,
0000
0110
0000
0012
0000
1000
1003
0000
,
1010
0000
0000
0000
0110
0000
0001
1000
0001
0000
0010
0000
0100
0000
0000
0000
,
1200
0000
0310
0012
0000
1003
1001
0000
,
0101
0000
0000
0000
0100
0010
0100
0010
1000
0000
0001
0000
0010
0000
0011
0000
,
0000
0110
0000
2100
0000
0001
3001
0000
,
0201
0000
0000
0000
0010
0000
0310
0000
1000
0000
0100
0010
0100
0010
0100
0010
,
0001
0000
0000
0000
1000
0001
1000
0000
0010
0000
0100
0000
0110
0000
0000
0000
,
1001
0000
0000
0000
1001
0000
0000
0000
1001
0000
0000
0001
0100
0000
0010
0000
,
1000
0000
0100
0000
0010
0000
0002
0000
0000
0000
0003
1000
0001
0000
0100
0000
,
0110
0000
0000
0000
0110
0000
0000
0000
0110
0000
0000
0010
1000
0000
0100
0000
,
0010
0000
0001
0000
1000
0000
0010
0000
0000
0000
0110
0000
0000
0000
0100
0001
,
0100
0010
1000
0100
0010
0001
1000
0001
,
0100
0010
0100
0010
1000
0001
1000
0100
0010
0100
0010
0001
1000
0001
0100
0010
,
0200
0302
2003
3200
,
0310
0000
0000
0000
1001
0000
0000
0000
0001
1000
0001
0000
0110
0000
0000
0000
,
1200
0000
0000
0000
0310
0000
0001
1000
0001
1000
0010
0100
0001
1000
0100
0000
,
0000
0110
0000
0000
0011
0000
0001
1000
0020
0000
0000
0000
0230
0000
0302
0000
,
1003
0000
0000
0000
1000
0001
1000
0001
1000
0000
0100
0010
0100
0000
0011
0000
,
1000
0001
1000
0000
0110
0000
0001
0000
1001
0000
0000
0000
1001
0000
0000
0000
,
0021
0000
0000
0000
0130
1000
0100
1000
0001
0100
0010
0000
1001
0000
2000
0000
,
3200
0302
2003
3020
0032
2003
3020
0230
,
0301
0010
0110
1000
0010
0110
0001
1000
,
2002
0000
0000
0000
3003
0000
0110
0000
2001
0000
0000
0000
3100
0010
0100
0010
,
0001
0000
2000
0002
3003
0000
1000
0010
0100
0001
0000
1000
0001
1000
0100
0000
,
0010
0001
0010
0001
1000
0001
0100
0000
0010
0100
0010
0100
0001
1000
0100
0010
,
0001
1000
0000
0110
0000
0220
0330
0000
0001
0010
0100
1000
0000
0001
1000
0001
,
0200
0000
0000
0000
0310
0000
0000
0000
1002
0000
0000
0000
0013
0100
0010
0100
,
1000
0001
0000
1000
0001
1000
0010
0000
0100
0001
0100
0001
0000
1000
0100
0010
,
0001
1000
0001
0100
0010
0100
0010
0000
2000
0000
3100
0010
0001
0010
0100
0000
,
2000
0000
3010
0100
0001
0100
0010
0000
0200
0000
0000
0000
0000
0000
0000
0000
,
0000
0000
0000
0000
0310
0000
0000
0000
1000
0100
1000
0000
0100
0001
0100
0000
,
1000
0100
1000
0000
0100
0001
0100
0000
1000
0100
1000
0000
0001
0100
0001
0000
,
0100
0010
0100
0000
0010
0000
1000
0010
1000
0000
0010
0001
0010
0000
1000
0010
,
1000
0000
0010
0001
0010
0000
1000
0001
1000
0000
0200
0000
0000
0000
0000
0000
,
0310
1001
1001
1001
,
1000
0100
0010
0001
0100
0010
1000
0001
,
1000
0100
1000
0100
0010
0001
0010
0001
1000
0001
0100
0010
1000
0001
1000
0100
,
0020
0000
0000
0130
,
1001
0000
0000
0000
0101
0000
1000
0100
1000
0000
0100
0000
0010
0000
0110
0000
,
0000
0000
0100
0000
1000
0001
1000
0001
0100
0000
0010
0000
0110
0000
0000
0000
,
1001
0000
0000
0000
0001
0010
0100
1000
0001
0000
0100
0000
0120
0000
0000
0000
,
0000
0000
0000
1030
0000
0000
0010
0000
0001
0000
0010
0000
0100
0000
0000
0001
0000
0000
1001
0000
0000
0000
0000
0000
,
1200
0000
0000
0000
0010
0000
0000
0000
0301
0000
0100
0000
1000
0001
1000
0001
,
0100
0010
1000
0001
0010
0100
1000
0001
1000
0000
0010
0000
0110
0000
0000
0000
,
1001
0000
0000
0000
1000
0100
0010
0001
1000
0000
0010
0000
0210
0000
0000
0000
,
0000
0000
0000
0301
0000
0000
0100
0000
1000
0000
0100
0000
0010
0000
0000
1000
0000
0000
1001
0000
0000
0000
0000
0000
,
0110
0000
0110
0000
0001
1000
0010
1000
0001
0000
0100
0000
0010
0100
1000
0100
,
0010
0000
1000
0000
0001
0010
0100
0010
0001
0100
0000
0010
1000
0010
1000
0000
,
0100
0001
0100
0000
1000
0001
0100
0010
0000
0000
0100
0000
0001
1000
0001
0000
,
0010
1000
0010
0000
0001
1000
0001
0100
0010
0000
0000
0110
0000
0000
0110
0000
,
2000
0000
3002
0000
1003
0100
1000
0100
0010
0001
0000
0010
0001
1000
0001
0000
,
0100
0010
0001
0010
0100
0000
0010
1000
0100
0000
0010
0001
0100
0000
0010
0000
,
2001
0000
0000
0000
3100
0010
0001
1000
0001
0000
0100
0000
0220
0000
0000
0000
,
0000
0000
0000
0000
,
0330
0000
0000
0000
,
0000
0000
0000
0000
,
0000
0000
0000
0000
,
0000
0000
0000
0000
,
1100
1100
0101
0101
,
1000
0100
0001
1000
0010
0001
1000
0001
,
0100
0010
0100
0010
1000
0001
0010
0100
1000
0010
0100
0001
1000
0001
1000
0100
,
0020
0000
0000
0130
,
1000
0000
0010
0100
0010
0000
0001
0010
0001
0000
0010
1000
0100
0000
0010
0000
,
0001
0000
0010
1000
0010
0000
0100
1000
0100
0000
0010
0001
0100
0000
0010
0000
,
1000
0000
0001
0010
0001
0000
0010
1000
0010
0000
0001
0100
1000
0000
0100
0000
,
0010
0000
1000
0001
1000
0000
0100
0001
0100
0000
1000
0010
0100
0000
0010
0000
,
0001
0000
0010
1000
0010
0000
0001
0010
0001
0000
0010
1000
0001
0000
0010
0000
,
1000
0000
0010
0001
0010
0000
1000
0010
1000
0000
0010
0001
1000
0000
0010
0000
,
0100
0000
1000
0100
1000
0000
0100
0001
0100
0000
0010
1000
0100
0000
0001
0000
,
0100
0000
1000
0001
1000
0000
0010
0001
0010
0000
1000
0100
0010
0000
0001
0000
,
2001
0000
0000
0000
3010
0000
0100
0001
0100
0001
1000
0100
0010
0000
1000
0000
,
0010
0000
0001
1000
0001
0000
0100
0010
1000
0001
1000
0001
0010
0000
0100
0000
,
1000
0000
0100
0001
0100
0000
1000
0010
0100
1000
0100
0010
1000
0000
0001
0000
,
1000
0000
0010
0001
0010
0000
1000
0100
0010
1000
0010
0100
1000
0000
0001
0000
,
0100
0000
0010
1000
0100
0000
0010
0001
0100
0010
0100
0010
1000
0000
0001
0000
,
1001
0000
0000
0000
0000
0000
0000
0000
0000
0000
0000
0000
1100
0000
0000
0000
0000
0000
0010
0000
0000
0001
0000
0000
0100
0000
0000
0000
0000
0000
0010
0000
0000
1000
0000
0000
0100
0000
0000
0000
0000
0000
1000
0000
0001
0000
1000
0000
,
0001
0000
0000
0000
0000
0000
0100
0000
0000
0010
0100
0010
0100
0000
0000
0001
1000
0001
1000
0000
0000
0001
0000
0000
,
1001
0000
0000
0000
0001
0010
0100
1000
0010
0100
0001
0010
0100
1000
0001
1000
,
0002
0000
0000
0000
0103
0010
0100
0010
1000
0000
0002
2000
3003
0000
0001
0010
,
0100
1000
0000
0001
1000
0001
1000
0010
0100
0000
0000
0010
0100
0001
1000
0100
,
0010
0001
1000
0010
0001
0010
0100
0001
1000
0001
0000
0110
0000
0220
0330
0000
,
0001
0010
0100
1000
0001
0100
1000
0100
0010
1000
0001
1000
0200
0000
0000
0000
,
0000
0000
0000
0000
,
0000
0000
0000
0000
,
0300
0000
0000
0000
;

//--------------- dance-double - Talkion ----------------
#NOTES:
     dance-double:
     Talkion:
     Hard:
     17:
     0,0,0,0,0:
00000000
00000000
00000000
00000000
,
00000011
00000000
00000000
00000000
00000010
00000100
00000010
00000100
00001000
00000000
00000010
00000000
00010000
00000000
00011000
00000000
,
00000000
00101000
00000000
00120000
00000000
10000000
10030000
00000000
,
10100000
00000000
00000000
00000000
01100000
00000000
00010000
10000000
00010000
00000000
00100000
00000000
01000000
00000000
00000000
00000000
,
00102000
00000000
00013000
00010200
00000000
00001300
00001001
00000000
,
00000101
00000000
00000000
00000000
00000100
00000010
00000100
00000010
00001000
00000000
00000100
00000000
00010000
00000000
00011000
00000000
,
00000000
01100000
00000000
10020000
00000000
01000000
01030000
00000000
,
20100000
00000000
00000000
00000000
01000000
00000000
31000000
00000000
00100000
00000000
00001000
00010000
00001000
00010000
00001000
00010000
,
00000100
00000000
00000000
00000000
00000010
00000100
00000010
00000000
00000001
00000000
00001000
00000000
00001001
00000000
00000000
00000000
,
00000101
00000000
00000000
00000000
00000101
00000000
00000000
00000000
00000101
00000000
00000000
00000100
00001000
00000000
00010000
00000000
,
00001000
00000000
00000010
00000000
00001000
00000000
00020000
00000000
00000000
00000000
00030000
01000000
10000000
00000000
00100000
00000000
,
10100000
00000000
00000000
00000000
10100000
00000000
00000000
00000000
10100000
00000000
00000000
00100000
00010000
00000000
00001000
00000000
,
00010000
00000000
01000000
00000000
00010000
00000000
00001000
00000000
00000000
00000000
00011000
00000000
00000000
00000000
00000100
00001000
,
00000100
00000000
00000100
00000010
00000001
00001000
00000001
00000100
,
00000010
00001000
00000010
00001000
00000100
00010000
00001000
00100000
00010000
01000000
00100000
01000000
00100000
10000000
00010000
10000000
,
02000000
03020000
00032000
00003200
,
00000301
00000000
00000000
00000000
00001001
00000000
00000000
00000000
00001000
00000001
00001000
00000000
00000110
00000000
00000000
00000000
,
00000201
00000000
00000000
00000000
00000310
00000000
00010000
00001000
00010000
00001000
00100000
00010000
10000000
00010000
01000000
00000000
,
00000000
01100000
00000000
00000000
10100000
00000000
10000000
00010000
00200000
00000000
00000000
00000000
00302000
00000000
00023000
00000000
,
00031000
00000000
00000000
00000000
00010000
00000100
00010000
00000100
00001000
00000000
00000010
00000100
00000010
00000000
00000101
00000000
,
00001000
00000100
00001000
00000000
00010100
00000000
00001000
00000000
00011000
00000000
00000000
00000000
00011000
00000000
00000000
00000000
,
00201000
00000000
00000000
00000000
00310000
10000000
00010000
10000000
00100000
01000000
00100000
00000000
10010000
00000000
00000000
00000000
,
20000000
00000000
30200000
00000000
00320000
00000000
00032000
00000000
00003020
00000000
00000032
00000000
00001003
00000000
00000100
00010000
,
00000100
00010000
00011000
00100000
01000000
01100000
10000000
00010000
,
20020000
00000000
00000000
00000000
30030000
00000000
01100000
00000000
20010000
00000000
00000000
00000000
30100000
00010000
00100000
00010000
,
00001000
00000000
00020000
00002000
00033000
00000000
00000100
00000010
00000100
00000010
00000000
00001000
00000001
00001000
00000100
00000000
,
00000010
00000001
00000010
00000001
00000000
00000100
00000010
00000000
00010000
00001000
00010000
00001000
00100000
00010000
00100000
00010000
,
01000000
00100000
00000000
10010000
00000000
20020000
30030000
00000000
00010000
00100000
00001000
00010000
00000000
00000100
00001000
00000100
,
00002000
00000000
00000000
00000000
00003001
00000000
00000000
00000000
00001002
00000000
00000000
00000000
00000103
00001000
00000100
00001000
,
00010000
00000000
00001000
00010000
00000000
01000000
00100000
00000000
00010000
10000000
00010000
10000000
00000000
00100000
01000000
00010000
,
00100000
00010000
00100000
00001000
00010000
00001000
00010000
00000000
00000200
00000000
00001300
00000001
00000100
00000001
00001000
00000000
,
00000200
00000000
00010300
00001000
00100000
00001000
00010000
00000000
02000000
00000000
00000000
00000000
00000000
00000000
00000000
00000000
,
00000000
00000000
00000000
00000000
03100000
00000000
00000000
00000000
00010000
10000000
00010000
00000000
01000000
00100000
00010000
00000000
,
00100000
00010000
00001000
00000000
00010000
00001000
00000100
00000000
00001000
00000100
00000010
00000000
00001000
00000001
00001000
00000000
,
00000010
00000000
00000100
00000000
00000110
00000000
00001000
00000001
00001000
00000000
00000100
00000010
00001000
00000000
00010000
00001000
,
00010000
00000000
01000000
00100000
00010000
00000000
10000000
00010000
10000000
00000000
00200000
00000000
00000000
00000000
00000000
00000000
,
01300000
10010000
10010000
10010000
,
00010000
01000000
00100000
00010000
00001000
00000100
00000010
00001000
,
00000001
00000100
00000001
00000100
00000010
00001000
00000010
00001000
00000100
00010000
00001000
00100000
00010000
10000000
00100000
10000000
,
00200000
00000000
00000000
01300000
,
10010000
00000000
00000000
00000000
11000000
00000000
00100000
00010000
00100000
00000000
01000000
00000000
00010000
00000000
00011000
00000000
,
00000000
00000000
00001000
00000000
00000100
00000010
00000100
00000010
00001000
00000000
00000100
00000000
00000110
00000000
00000000
00000000
,
00001001
00000000
00000000
00000000
00000001
00000010
00000100
00000010
00000001
00000000
00000100
00000000
00002100
00000000
00000000
00000000
,
00000000
00000000
00000000
00013000
00000000
00000000
01000000
00000000
10000000
00000000
01000000
00000000
10000000
00000000
00000000
00100000
00000000
00000000
01100000
00000000
00000000
00000000
00000000
00000000
,
10010000
00000000
00000000
00000000
00210000
00000000
00000000
00000000
00301000
00000000
00010000
00000000
00000100
00001000
00000100
00001000
,
00000001
00000000
00000100
00000010
00001000
00000000
00000100
00010000
00001000
00000000
00100000
00000000
00110000
00000000
00000000
00000000
,
10010000
00000000
00000000
00000000
10000000
01000000
00100000
01000000
10000000
00000000
00100000
00000000
00120000
00000000
00000000
00000000
,
00000000
00000000
00000000
00031000
00000000
00000000
00000010
00000000
00000001
00000000
00000010
00000000
00000001
00000000
00000000
00000100
00000000
00000000
00000110
00000000
00000000
00000000
00000000
00000000
,
00001001
00000000
00001001
00000000
00000010
00000001
00000010
00000001
00000100
00000000
00000010
00000000
00001000
00000100
00001000
00000100
,
00010000
00000000
00001000
00000000
00100000
00010000
00100000
00010000
01000000
00100000
00000000
01000000
00010000
10000000
01000000
00000000
,
00100000
00010000
00100000
00000000
00001000
00010000
00100000
00010000
00000000
00000000
00010000
00000000
00001000
00010000
00001000
00000000
,
00000010
00001000
00000010
00000000
00000001
00001000
00000001
00001000
00000010
00000000
00000000
00000110
00000000
00000000
00000220
00000000
,
00000330
00000000
00000001
00001000
00000001
00001000
00000001
00001000
00000100
00010000
00000000
00001000
00100000
00001000
00100000
00000000
,
00010000
01000000
00100000
01000000
00010000
00000000
10000000
01000000
00100000
00000000
00010000
01000000
00100000
00000000
00010000
00000000
,
00021000
00000000
00000000
00000000
00030100
00001000
00000100
00001000
00000001
00000000
00000100
00000000
00000220
00000000
00000000
00000000
,
00000000
00000000
00000000
00000000
,
00000330
00000000
00000000
00000000
,
00000000
00000000
00000000
00000000
,
00000000
00000000
00000000
00000000
,
00000000
00000000
00000000
00000000
,
00011000
00011000
00011000
00011000
,
00010000
01000000
00100000
00010000
00001000
00000100
00000010
00000001
,
00001000
00000010
00001000
00000010
00010000
00001000
00010000
00001000
00100000
00010000
00100000
00010000
10000000
00100000
00010000
00100000
,
20000000
00000000
00000000
30010000
,
01000000
00000000
00100000
10000000
00100000
00000000
10000000
01000000
00010000
00000000
01000000
00010000
00001000
00000000
00010000
00000000
,
00001000
00000000
00000100
00000010
00000100
00000000
00000010
00001000
00000100
00000000
00001000
00000100
00000001
00000000
00000100
00000000
,
00000010
00000000
00000001
00000100
00000001
00000000
00000100
00001000
00010000
00000000
00001000
00010000
01000000
00000000
00100000
00000000
,
00010000
00000000
10000000
01000000
10000000
01000000
00010000
00000000
01000000
00000000
00100000
00000000
01100000
00000000
00000000
00000000
,
00100000
00000000
01000000
10000000
01000000
00000000
10000000
00100000
00010000
00000000
00100000
00010000
00001000
00000000
00010000
00000000
,
00001000
00000000
00000010
00000100
00000010
00000000
00000100
00001000
00000010
00000000
00001000
00000010
00000001
00000000
00000010
00000000
,
00000100
00000000
00000001
00000010
00000001
00000000
00000010
00001000
00010000
00000000
00001000
00010000
00100000
00000000
01000000
00000000
,
00010000
00000000
10000000
00100000
10000000
00100000
00010000
00000000
00001000
00000000
00010000
00000000
00011000
00000000
00000000
00000000
,
00000100
00000000
00001000
00000001
00001000
00000000
00000010
00000100
00001000
00000000
00010000
00001000
00010000
00000000
01000000
00000000
,
00100000
00000000
00010000
10000000
00010000
00000000
10000000
00100000
00010000
00000000
00001000
00010000
00001000
00000000
00010000
00000000
,
01000000
00000000
00100000
00010000
00100000
00000000
00001000
00010000
00100000
00000000
01000000
00100000
01000000
00000000
00010000
00000000
,
10000000
00000000
01000000
00010000
01000000
00000000
00010000
00001000
00000100
00000000
00000010
00000100
00000010
00000000
00001000
00000000
,
00001001
00000000
00000000
00000000
00000011
00000000
00000100
00001000
00000100
00000000
00010000
00001000
00010000
00000000
01000000
00000000
,
01100000
00000000
00000000
00000000
10010000
00000000
00100000
00010000
00100000
00000000
00001000
00010000
00001000
00000000
00000010
00000000
,
00000110
00000000
00000000
00000000
00000000
00000000
00000001
00000000
00000000
00000100
00000010
00000100
00000010
00000000
00000000
00001000
00000100
00001000
00000100
00000000
00000000
00010000
00000000
00000000
,
00011000
00000000
00000000
00000000
00010000
01000000
00100000
01000000
00100000
00000000
00010000
00000000
01010000
00000000
00000000
00000000
,
20010000
00000000
00000000
00000000
31000000
00010000
01000000
00010000
00001000
00000000
00020000
00002000
00033000
00000000
00000010
00000100
,
00000010
00000100
00000000
00001000
00000001
00001000
00000001
00000100
00000010
00000000
00000000
00000100
00000010
00001000
00000100
00010000
,
00001000
00100000
00010000
00001000
00010000
01000000
00100000
10000000
00010000
10000000
00000000
01100000
00000000
02200000
03300000
00000000
,
00010000
00100000
00001000
00010000
00000100
00001000
00010000
00001000
00000010
00000100
00000001
00002000
00000002
00000000
00000000
00000000
,
00000000
00000000
00000000
00000000
,
00000000
00000000
00000000
00000000
,
00003003
00000000
00000000
00000000
;
