#VERSION:0.83;
#TITLE:COSMIC☆WONDER☆REVOLUTION;
#SUBTITLE:;
#ARTIST:猫叉Master+;
#TITLETRANSLIT:;
#SUBTITLETRANSLIT:;
#ARTISTTRANSLIT:;
#GENRE:;
#CREDIT:;
#MUSIC:COSMIC WONDER REVOLUTION.ogg;
#BANNER:COSMIC WONDER REVOLUTION.png;
#BACKGROUND:COSMIC WONDER REVOLUTION-bg.png;
#CDTITLE:;
#SAMPLESTART:12.628;
#SAMPLELENGTH:15.000;
#SELECTABLE:YES;
#OFFSET:1.583;
#BPMS:0.000=152.000;
#STOPS:;
#BGCHANGES:;
#FGCHANGES:;

//--------------- dance-single - Talkion BR FS XB XO ----------------
#NOTEDATA:;
#STEPSTYPE:dance-single;
#DESCRIPTION:Talkion BR FS XB XO;
#DIFFICULTY:Challenge;
#METER:10;
#RADARVALUES:0,0,0,0,0;
#NOTES:
0000
0000
0000
0000
,
0000
0000
0000
0000
,
0000
0000
0000
0000
,
0000
0000
0000
0000
,
0000
0000
0000
0000
,
0101
0M0M
1100
MM00
,
0101
0M0M
1100
MM00
,
0011
00MM
1010
M0M0
,
0001
0000
1000
0100
1000
0000
0001
0100
0010
0000
00M1
0000
1010
0000
0001
0000
,
0100
0000
0010
0000
1000
0000
0001
0010
0100
0000
0001
0000
0000
0000
0100
0000
,
0000
0000
1000
0000
0000
0000
0001
0010
0001
0000
1000
0000
0010
0000
0100
0000
,
0000
0000
0010
0000
1000
0000
0001
0010
0100
0000
0001
0000
0000
0000
0100
0000
,
0000
1000
0000
0001
0010
0100
1000
0001
,
0100
0000
0010
0000
0001
0000
0010
0100
0001
0000
1000
0000
0000
0000
0100
0000
,
0000
0001
0000
0100
0010
0001
1000
0010
,
1000
M100
0001
1000
0100
0020
0101
0000
,
1030
0000
0010
0100
1000
0000
0001
0000
1000
0000
0011
0000
1100
0000
0001
0000
,
0010
0000
0100
0000
1000
0000
0001
0100
0010
0000
0001
0000
0000
0000
0010
0000
,
0000
0000
1000
0000
0000
0000
0001
0100
0001
0000
1000
0000
0100
0000
0010
0000
,
0000
0000
0100
0000
1000
0000
0001
0100
0010
0000
0001
0000
0000
0000
0010
0000
,
0000
1000
0000
0001
0010
0101
0010
0101
,
2010
0000
0000
0000
0000
0000
3001
1000
0010
0000
1000
0010
0100
0001
1000
0000
,
0011
0100
0000
0001
0100
0010
1000
0001
,
1010
0M10
1000
0101
01M0
0002
1010
0000
,
1003
0000
0001
0010
0001
0000
1000
0010
1100
0000
0001
0000
1100
0000
0001
0010
,
0100
0000
01M0
0000
0001
0000
1000
0000
0010
0000
0000
0000
1000
0010
0200
0000
,
0300
01M0
1000
0001
0010
0001
1000
0020
,
0030
M010
0001
0100
0010
0000
1000
0020
,
0030
M010
0001
0100
0010
1000
0001
2010
,
3000
0000
0M10
0000
1000
0000
0001
0000
0010
0000
0001
0000
1000
0010
0200
0000
,
0300
01M0
1000
0001
0100
0001
1000
0200
,
0000
0000
0000
1300
0100
1000
0100
0000
0000
0020
0000
0000
0000
0000
0000
0031
0010
0001
0010
0000
0000
0200
0000
0000
,
0000
0000
1300
0100
0010
0000
0001
0000
1000
0000
0011
0000
1100
0000
0012
0000
,
0003
0000
0M10
0000
0001
0000
1000
0000
0010
0000
0000
0000
1000
0010
0200
0000
,
0300
01M0
1000
0001
0100
0001
1000
0200
,
0300
M100
0001
0010
0100
0000
1000
0200
,
0300
M100
0001
0010
0100
1000
0001
2100
,
3000
0000
01M0
0000
1000
0000
0001
0000
0100
0000
0001
0000
1000
0100
0020
0000
,
0030
0M10
1000
0001
0010
0100
2000
0011
,
0000
0000
0100
0000
0001
0000
3100
1000
,
0020
0000
0100
0000
1030
M100
0002
1010
,
0000
0000
0100
0000
1000
0000
0103
0001
,
0020
0000
0100
0000
0031
010M
2000
0011
,
0000
0000
0100
0000
3001
1000
0010
0200
,
1000
0000
0010
0000
0301
0100
0010
2000
,
0001
0000
0000
0000
3100
0000
1000
0100
1000
0000
0001
0000
1000
0010
0100
0001
,
1100
01M0
1100
01M0
1100
0001
0020
1000
,
0000
0000
1030
0000
0010
0000
0001
0010
0100
0000
0010
0100
2000
0000
0010
0000
,
0000
3001
0020
1000
0000
0031
0200
0010
,
0000
0301
0001
1000
0100
1000
0001
0200
,
0000
0310
0010
1000
0001
0010
0200
1010
,
0000
0000
0310
0000
0100
0000
1000
0100
0010
0000
0100
0010
0002
0000
0100
0000
,
0000
1003
0200
0001
0000
1300
0020
0001
,
0000
1030
0010
1000
0001
010M
1000
M010
,
0000
0000
0001
0010
0001
0000
1000
0010
0100
0000
0011
0000
1200
0000
0011
0000
,
0000
0000
0310
0000
0100
0000
0001
0100
0010
0000
0100
0010
2000
0000
0100
0000
,
0000
3001
0200
1000
0000
0301
0020
0100
,
0000
0031
0001
1000
0010
1000
0001
0020
,
0000
0130
0100
1000
0001
0100
0020
1100
,
0000
0000
0130
0000
0010
0000
1000
0010
0100
0000
0010
0100
0002
0000
0010
0000
,
0000
1003
0020
0001
0000
1030
0200
0011
,
0000
0310
0100
1000
0001
1000
0020
0101
,
0000
0130
0010
1000
0001
1000
0200
0011
,
0000
0310
0100
1000
0001
1000
0020
0101
,
0000
0000
0130
0000
0010
0000
1000
0010
0100
0000
0001
0000
1000
0000
2002
0000
,
0000
0000
0000
0000
,
0000
0000
0000
0000
,
3003
0000
0000
0000
;

//--------------- dance-double - ----------------
#NOTEDATA:;
#STEPSTYPE:dance-double;
#DESCRIPTION:;
#DIFFICULTY:Challenge;
#METER:10;
#RADARVALUES:0,0,0,0,0;
#NOTES:
00000000
00000000
00000000
00000000
,
00000000
00000000
00000000
00000000
,
00000000
00000000
00000000
00000000
,
00000000
00000000
00000000
00000000
,
00000000
00000000
00000000
00000000
,
11000000
MM000000
00101000
00M0M000
,
00010100
000M0M00
00000011
000000MM
,
00001001
0000M00M
00000110
00000MM0
;
