#TITLE:Alive in my Soul;
#SUBTITLE:;
#ARTIST:aran;
#TITLETRANSLIT:;
#SUBTITLETRANSLIT:;
#ARTISTTRANSLIT:;
#GENRE:French House;
#CREDIT:;
#MUSIC:Alive in my Soul.ogg;
#BANNER:Alive in my Soul.png;
#BACKGROUND:Alive in my Soul-bg.png;
#CDTITLE:cdtitle.png;
#SAMPLESTART:16.040;
#SAMPLELENGTH:14.202;
#SELECTABLE:YES;
#OFFSET:-0.040;
#BPMS:0.000=135.000;
#STOPS:;
#ORIGIN:;
#PREVIEWVID:;
#JACKET:Alive in my Soul-jacket.png;
#CDIMAGE:;
#DISCIMAGE:;
#BGCHANGES:;
#FGCHANGES:;

//--------------- dance-single - ----------------
#NOTES:
     dance-single:
     :
     Beginner:
     2:
     0.121397,0.187694,0.00825,0.082503,0,103,102,1,10,0,0,0,0,0,0.121397,0.187694,0.00825,0.082503,0,103,102,1,10,0,0,0,0,0:
0000
0000
0000
0000
,
0000
0000
0000
0000
,
0000
0000
0000
0000
,
0000
0000
0000
0000
,
0000
0000
0000
0000
,
0001
0000
0000
0000
,
1000
0000
0000
0000
,
0001
0000
1000
0000
,
0002
0000
0003
0000
,
1000
0000
1000
0000
,
1000
0000
0010
0000
,
0100
0000
0100
0000
,
0100
0000
0001
0000
,
0010
0000
0010
0000
,
0010
0000
0100
0000
,
1000
0000
0001
0000
,
2000
0000
3000
0000
,
0001
0000
1000
0000
,
0001
0000
1000
0000
,
0100
0000
0010
0000
,
0100
0000
0010
0000
,
0001
0000
1000
0000
,
0001
0000
1000
0000
,
0010
0000
0100
0000
,
0020
0000
0030
0000
,
0100
0000
0100
0000
,
0010
0000
0010
0000
,
0100
0000
0100
0000
,
0001
0000
1000
0000
,
0200
0000
0300
0000
,
0020
0000
0030
0000
,
2002
0000
0000
0000
,
3003
0000
0000
0000
,
0001
0000
0000
0000
,
1000
0000
0000
0000
,
1000
0000
0000
0000
,
0001
0000
0000
0000
,
0010
0000
0000
0000
,
0100
0000
0000
0000
,
0100
0000
0000
0000
,
0010
0000
0000
0000
,
0001
0000
0001
0000
,
0100
0000
0100
0000
,
1000
0000
1000
0000
,
0010
0000
0010
0000
,
0001
0000
1000
0000
,
0001
0000
1000
0000
,
0001
0001
0001
0000
,
1000
1000
1000
0000
,
0001
0000
0001
0000
,
0001
0000
0010
0000
,
0100
0000
0100
0000
,
0100
0000
1000
0000
,
0010
0000
0010
0000
,
0010
0000
0100
0000
,
0001
0000
1000
0000
,
0002
0000
0003
0000
,
1000
0000
0100
0000
,
1000
0000
0100
0000
,
0010
0000
0001
0000
,
0010
0000
0001
0000
,
0200
0000
0300
0000
,
0020
0000
0030
0000
,
1000
0000
0001
0000
,
1000
0000
0001
0000
,
0010
0000
0000
0000
;

//--------------- dance-single - ----------------
#NOTES:
     dance-single:
     :
     Easy:
     4:
     0.176792,0.241321,0.024751,0.354762,0,150,147,3,43,0,0,0,0,0,0.176792,0.241321,0.024751,0.354762,0,150,147,3,43,0,0,0,0,0:
0000
0000
0000
0000
,
0000
0000
0000
0000
,
0000
0000
0000
0000
,
0000
0000
0000
0000
,
0000
0000
0000
0000
,
0001
0000
0020
0030
,
0001
0000
2000
3000
,
0001
0001
0100
0100
,
0002
0000
0000
0003
,
1000
0000
0100
0000
,
0010
0000
0100
0010
,
0001
0000
0100
0000
,
0010
0000
0100
0010
,
1000
0000
0100
0000
,
0010
0000
0001
0100
,
0010
0000
1000
0001
,
0020
0000
0000
0030
,
0001
0010
0001
0000
,
0010
1000
0010
0000
,
1000
0100
1000
0000
,
0100
0001
0100
0000
,
0002
0003
1001
0000
,
0001
0010
0001
0000
,
1000
0010
1000
0000
,
0200
0000
0000
0300
,
1000
1000
0100
0000
,
0001
0001
0100
0000
,
1000
1000
0100
0000
,
0020
0032
2003
3020
,
0230
0000
0000
0310
,
2002
0000
3003
0100
,
2002
0000
0000
0000
,
0000
3003
1000
0001
,
0020
0000
0000
0000
,
0230
0000
0000
0000
,
2300
0000
0000
0000
,
3002
0000
0000
0000
,
0203
0000
0001
0000
,
0320
0000
1000
0000
,
2030
0000
0100
0000
,
3002
0000
0010
0000
,
1003
1000
1000
0000
,
0010
0010
0010
0000
,
0001
0001
0001
0000
,
0010
0010
0010
0000
,
2000
3000
0002
0003
,
2000
3000
0002
0003
,
2000
3002
2003
3002
,
0023
0230
2300
3001
,
0001
0000
0100
0000
,
0010
0000
0100
0010
,
1000
0000
0100
0000
,
0010
0000
0100
0010
,
0001
0000
0100
0000
,
0010
0000
1000
0100
,
0010
0000
0001
1000
,
0020
0000
0000
0030
,
1000
0000
0010
0000
,
0001
0000
0010
1000
,
0001
0000
0010
0000
,
1000
0000
0010
0001
,
0200
0000
0010
0000
,
0320
0000
0100
0000
,
0230
0302
2003
3200
,
0320
0230
0310
0010
,
0100
0000
0000
0000
;

//--------------- dance-single - ----------------
#NOTES:
     dance-single:
     :
     Medium:
     7:
     0.292296,0.375388,0.264009,0.437265,0,248,216,32,53,0,0,0,0,0,0.292296,0.375388,0.264009,0.437265,0,248,216,32,53,0,0,0,0,0:
0000
0000
0000
0000
,
0000
0000
0000
0000
,
0000
0000
0000
0000
,
0000
0000
0000
0000
,
0000
0000
0000
0000
,
1000
0010
0200
0300
,
0001
0010
0200
0300
,
1000
0010
0001
0100
,
2000
0000
0000
0000
0000
0000
3001
1000
,
0010
1010
0100
1100
,
0010
1010
2000
3002
,
0013
0011
0100
0101
,
0010
0000
0011
0000
1000
0001
0100
0000
,
0010
0101
0010
1100
,
0010
0101
0002
2003
,
3100
0000
0011
0000
0100
1000
0010
0000
,
0200
0000
0000
0310
,
1000
0010
1000
0000
0100
1000
0100
0000
,
1000
0010
1000
0000
0010
0000
0100
0000
,
0001
0010
0001
0000
0100
0001
0100
0000
,
0001
0010
0001
0000
0010
0000
0100
0000
,
0010
0000
1001
0000
0001
0100
0001
0000
,
1000
0100
1000
0000
0001
0000
1000
0000
,
0010
0100
0001
0000
0010
0100
1000
0000
,
0002
0000
0000
0003
,
1000
0010
1000
0100
,
0001
0010
0001
0100
,
1000
0010
1000
0100
,
0020
0032
0203
0320
,
1030
0000
0000
2020
0000
0000
3030
0000
,
0001
0000
0000
0022
0000
0000
0033
0000
,
2002
0000
0000
0000
,
0000
3003
0001
1000
,
0020
0000
0000
0000
,
0230
0000
0000
0000
,
0302
0000
0000
0000
,
2003
0000
0000
0000
,
3200
0000
1000
0000
,
0320
0000
0001
0000
,
0032
0000
0100
0000
,
2003
0000
0010
0000
,
3001
0010
0001
0010
,
0001
0100
0001
0100
,
1000
0010
1000
0010
,
1000
0100
1000
0100
,
0002
1003
2000
3001
,
0002
1003
2000
3001
,
0002
0023
2030
3200
,
0302
0000
0023
0000
0230
0000
1300
0001
,
0010
0011
0100
0101
,
0010
0011
0002
2003
,
3010
1010
0100
1100
,
0010
0000
1010
0000
0001
1000
0100
0000
,
0010
1100
0010
0101
,
0010
1100
2000
3002
,
0103
0000
1010
0000
0100
0001
0010
0000
,
0200
0000
0000
0310
,
0001
0011
0010
1010
,
1000
0000
1100
0000
1000
0100
0001
0000
,
1000
1010
0010
0011
,
0001
0000
0101
0000
0001
0100
1000
0000
,
0001
0000
0000
0022
0000
0000
0033
0000
,
1000
0000
0000
2020
0000
0000
3030
0000
,
2000
3020
0032
0203
,
2300
0000
3020
0000
0130
0001
0010
0000
,
0100
0000
0000
0000
;

//--------------- dance-single - ----------------
#NOTES:
     dance-single:
     :
     Hard:
     11:
     0.400728,0.455828,0.132004,0.420764,0.28876,340,324,16,51,0,0,0,0,0,0.400728,0.455828,0.132004,0.420764,0.28876,340,324,16,51,0,0,0,0,0:
0000
0000
0000
0000
,
0000
0000
0000
0000
,
0000
0000
0000
0000
,
0000
0000
0000
0000
,
0000
0000
0000
0000
,
1000
0010
1000
0001
,
0010
0001
0100
0010
,
1000
0100
0001
0000
0001
0100
1000
0000
,
0002
0000
0000
0000
0000
0000
0103
0002
,
1003
0000
0000
0100
0000
0000
0010
0000
0001
0000
0000
0100
0000
0000
0010
0000
,
1000
0000
0000
0100
0000
0000
0010
0000
2000
0000
0000
0000
3020
0000
0000
0000
,
0031
0000
0000
0100
0000
0000
0010
0000
1000
0000
0000
0100
0000
0000
0010
0000
,
0001
0000
0000
0100
0000
0000
0010
0000
0001
0000
0010
0000
1000
0000
0000
0000
,
0001
0000
0000
0010
0000
0000
0100
0000
0001
0000
0000
0100
0000
0000
1000
0000
,
0010
0000
0000
0100
0000
0000
1000
0000
0200
0000
0000
0000
0302
0000
0000
0000
,
1003
0000
0000
0001
0000
0000
0010
0000
0100
0000
0100
0000
0010
0000
0000
0000
,
0220
0000
0000
0000
0330
0000
1000
0001
,
0010
0000
0000
0001
0000
0000
0100
0000
0100
0000
0000
0001
0000
0000
0010
0000
,
0010
0000
0000
0001
0000
0000
0100
0000
1000
0000
0100
0000
0001
0000
1000
0000
,
0010
0000
0000
1000
0000
0000
0100
0000
0100
0000
0000
1000
0000
0000
0010
0000
,
0010
0000
0000
1000
0000
0000
0100
0000
0001
0000
0100
0000
0010
0000
0001
0000
,
1000
0000
0000
0000
0100
0000
0100
0000
0100
0000
0000
0010
0000
0000
0001
0000
,
0001
0000
0000
0100
0000
0000
1000
0000
0100
0000
0001
0000
1000
0000
0100
0000
,
0001
0000
0000
0100
0000
0000
1000
0000
1000
0000
0000
0010
0000
0000
0100
0000
,
0002
0000
0023
0000
0130
1000
1001
0000
,
0001
0100
0010
0100
0001
0100
0010
0000
,
1000
0010
0100
0001
0010
0100
1000
0000
,
0001
0010
0100
0010
0001
0010
0100
1000
,
0010
0000
0000
0010
0100
0000
0000
0100
0001
0000
0000
0001
1000
0000
0000
0000
,
2001
0000
3100
0210
0000
0000
0310
0100
,
1002
0000
0103
0210
0000
0000
0310
0000
,
2002
0000
0000
0000
,
0000
3003
1000
0100
,
0010
0000
0000
0001
0000
0000
2000
0000
0000
0000
0000
0000
3000
0000
0000
0000
,
1000
0000
0000
0001
0000
0000
0200
0000
0000
0000
0000
0000
0300
0000
0000
0000
,
0100
0000
0000
0001
0000
0000
0020
0000
0000
0000
0000
0000
0030
0000
0000
0000
,
0010
0000
0000
0001
0000
0000
0200
0000
0000
0000
0000
0000
0300
0000
0000
0000
,
0010
0000
0000
1000
0000
0000
0002
0000
0000
0000
1000
0000
0003
0000
1000
0000
,
0001
0000
0000
1000
0000
0000
0200
0000
0000
0000
1000
0000
0300
0000
1000
0000
,
0100
0000
0000
1000
0000
0000
0020
0000
0000
0000
1000
0000
0030
0000
1000
0000
,
0010
0000
0000
1000
0000
0000
0200
0000
0000
0000
0310
0000
0001
0000
1000
0000
,
0010
0000
0000
1000
0000
0000
0001
0000
0000
1000
0000
0000
0100
0000
0000
0100
,
0010
0000
0000
0001
0000
0000
1000
0000
0000
0001
0000
0000
0100
0000
0000
0100
,
0010
0000
0000
0001
0000
0000
0010
0000
0000
1000
0000
0000
0100
0000
0000
0100
,
0010
0000
0000
1000
0000
0000
0010
0000
0000
0001
0000
0000
0100
0000
0010
0000
,
1000
0000
0000
1010
0000
0000
0010
0000
0010
0000
0000
0011
0000
0000
0001
0000
,
0001
0000
0000
0101
0000
0000
0100
0000
0100
0000
0000
1100
0000
0000
1000
0000
,
0002
0000
0000
0203
0000
0000
2300
0000
0000
3200
0000
0000
0302
0000
0000
0023
,
0000
0000
2030
0000
0000
3020
0000
0000
0032
0000
1003
0000
0100
0000
0020
0000
,
0031
0000
0000
0100
0000
0000
0010
0000
1000
0000
0000
0100
0000
0000
0010
0000
,
0001
0000
0000
0100
0000
0000
0010
0000
0002
0000
0000
0000
0023
0000
0000
0000
,
1030
0000
0000
0100
0000
0000
0010
0000
0001
0000
0000
0100
0000
0000
0010
0000
,
1000
0000
0000
0100
0000
0000
0010
0000
1000
0000
0010
0000
0001
0000
0000
0000
,
1000
0000
0000
0010
0000
0000
0100
0000
1000
0000
0000
0100
0000
0000
0001
0000
,
0010
0000
0000
0100
0000
0000
0001
0000
0200
0000
0000
0000
2300
0000
0000
0000
,
3001
0000
0000
1000
0000
0000
0010
0000
0100
0000
0100
0000
0010
0000
0000
0000
,
0220
0000
0000
0000
0330
0000
0010
1000
,
0100
0000
0000
0001
0000
0000
0100
0000
1000
0000
0000
0010
0000
0000
0001
0000
,
0010
0000
0000
1000
0000
0000
0100
0000
0001
0000
0100
0000
0010
0000
0001
0000
,
0100
0000
0000
1000
0000
0000
0100
0000
0001
0000
0000
0010
0000
0000
1000
0000
,
0010
0000
0000
0001
0000
0000
1000
0000
0100
0000
0010
0000
0001
0000
0100
0000
,
0120
0000
1030
2001
0000
0000
3100
0010
,
0000
0100
0100
0120
0000
0031
1001
0000
,
2000
0000
0000
3020
0000
0000
0032
0000
0000
0023
0000
0000
2030
0000
0000
3200
,
0000
0000
0302
0000
0000
0203
0000
0000
1300
0000
0001
0000
0100
0000
0010
0000
,
0100
0000
0000
0000
;

//--------------- dance-single - ----------------
#NOTES:
     dance-single:
     :
     Challenge:
     15:
     0.6447,0.804402,0.123754,0.264009,0.701274,547,532,15,32,0,0,0,0,0,0.6447,0.804402,0.123754,0.264009,0.701274,547,532,15,32,0,0,0,0,0:
0000
0000
0000
0000
,
0000
0000
0000
0000
,
0000
0000
0000
0000
,
0000
0000
0000
0000
,
0000
0000
0000
0000
,
0001
0000
0000
0001
0010
0000
0002
0000
0100
0000
0000
0000
0013
0000
0001
0000
,
1000
0000
0000
1000
0010
0000
2000
0000
0100
0000
0000
0000
3010
0000
1000
0000
,
0001
0000
0010
0100
0000
0000
0100
0000
1000
0000
0010
0100
0010
0000
0100
0000
,
0002
0000
0000
0000
0000
0000
0103
0002
,
0013
0000
0100
0010
1000
0000
0010
0000
1000
0000
0010
0100
1000
0000
0001
0000
,
1000
0000
0010
0100
1000
0000
0100
0000
1000
0100
0010
0000
2000
0000
0000
0000
,
3010
0000
0100
0010
0001
0000
0010
0000
0001
0000
0010
0100
0001
0000
1000
0000
,
0001
0000
0010
0100
0001
0000
0100
0000
0001
0000
0100
0000
0010
0001
0100
0010
,
0100
0000
1000
0100
0010
0000
1000
0000
0001
0000
0010
0100
0001
0000
0100
0000
,
0001
0000
0100
0010
0001
0000
1000
0000
0010
0100
1000
0000
0200
0000
0000
0000
,
0310
0000
1000
0001
1000
0000
0100
0000
0100
0000
0100
0000
0010
0000
0001
0000
,
0200
0000
0000
0000
0010
0000
0000
0000
0000
0000
0310
0000
0110
0000
0010
1000
,
0001
0000
0010
0100
0000
0100
0010
0000
0100
0000
0001
0100
0000
0100
0010
0001
,
0010
0000
0001
0100
0000
0100
0010
0000
0100
0000
0010
0001
0000
0010
0100
0010
,
1000
0000
0100
0010
0000
0010
0100
0000
0010
0000
1000
0010
0000
0010
0100
1000
,
0100
0000
1000
0010
0000
0010
0100
0000
1000
0000
0100
0010
0100
0000
0001
1000
,
0001
0000
0000
0000
1001
0000
0001
0000
0010
0000
0100
0001
0000
0100
1000
0000
,
0010
0000
0100
1000
0000
0100
0001
0000
1000
0000
0100
0010
0000
0010
0001
0100
,
0010
0000
1000
0100
0000
1000
0100
0000
0010
0000
0001
0100
0000
0001
0100
0010
,
1000
0000
0100
0010
0100
0010
0001
1000
0100
0000
0010
0000
0110
0000
0010
0001
,
1000
0010
1000
0010
0100
0000
0010
1000
0001
0100
0010
0000
1000
0010
0100
0010
,
1000
0010
1000
0010
0100
0000
0100
0010
1000
0001
0010
0100
1000
0000
0100
0010
,
0001
0010
0001
0010
0100
0000
0010
0001
1000
0100
0010
0000
0100
0010
0100
0010
,
0001
0000
0010
0001
1000
0000
1000
0001
0100
0000
0100
0001
0020
0000
0000
0000
,
0130
0000
1000
0010
0100
0000
0210
0000
0000
0000
0001
0000
0301
0000
0100
0001
,
0010
0000
0001
0010
0100
0000
0210
0000
0000
0000
1000
0000
1300
0000
0001
0000
,
2002
0000
0000
0000
,
0000
0000
0000
3003
0000
0000
1000
0100
0010
0001
0100
0010
,
1000
0000
0000
0010
0000
0000
0200
0000
0000
0000
0000
0000
0000
0000
0000
0000
,
0310
0000
0000
1000
0000
0000
0200
0000
0000
0000
0000
0000
0000
0000
0000
0000
,
0310
0000
0000
0001
0000
0000
0200
0000
0000
0000
0000
0000
0000
0000
0000
0000
,
0310
0000
0000
0100
0000
0000
0002
0000
0000
0000
0000
0000
0000
0000
0000
0000
,
1003
0000
0000
0100
0000
0000
0020
0000
0000
0000
0100
0000
0000
0000
0100
0000
,
0130
0000
0000
1000
0000
0000
0020
0000
0000
0000
0100
0000
0000
0000
0100
0000
,
0130
0000
0000
0001
0000
0000
0020
0000
0000
0000
0100
0000
0000
0000
0100
0000
,
0130
0000
0000
0010
0000
0000
0002
0000
0000
0000
1003
0000
0001
1000
0001
1000
,
0001
0100
0000
0100
0010
0000
0010
1000
0000
1000
0001
0000
0001
0100
0000
0010
,
1000
0100
0000
0100
0010
0000
0010
0001
0000
0001
1000
0000
1000
0100
0000
0010
,
0001
0100
0000
0010
1000
0000
0010
0100
0000
0010
0001
0000
0010
0100
0000
0010
,
1000
0000
0000
0100
0000
0000
0000
0000
0000
0001
0000
0000
0100
0000
0000
0000
0000
0000
0010
0000
0000
0100
0000
0000
1000
0000
0000
0000
0010
0000
0000
0000
0100
0000
0000
0000
0001
0000
0000
0000
0010
0000
0000
0000
0100
0000
0000
0000
,
2000
0000
0000
3010
0000
0000
0011
0000
0002
0000
0000
0013
0000
0000
1010
0000
,
2000
0000
0000
3100
0000
0000
0101
0000
0002
0000
0000
0103
0000
0000
1100
0000
,
1000
0000
0001
0010
0000
0010
1000
0000
1000
0100
0000
0100
0001
0000
0001
0010
,
0100
1000
0100
1000
0001
0100
0001
0100
0010
1000
0100
0010
0001
0000
2000
0000
,
3010
0000
0100
0010
0001
0000
0010
0000
0001
0000
0010
0100
0001
0000
1000
0000
,
0001
0000
0010
0100
0001
0000
0100
0000
0001
0100
0010
0000
0002
0000
0000
0000
,
0013
0000
0100
0010
1000
0000
0010
0000
1000
0000
0010
0100
1000
0000
0001
0000
,
1000
0000
0010
0100
1000
0000
0100
0000
1000
0000
0100
0000
0010
1000
0100
0010
,
0100
0000
0001
0100
0010
0000
0001
0000
1000
0000
0010
0100
1000
0000
0100
0000
,
1000
0000
0100
0010
1000
0000
0001
0000
0010
0100
0001
0000
0200
0000
0000
0000
,
0310
0000
0001
1000
0001
0000
0100
0000
0100
0000
0100
0000
0010
0000
1000
0000
,
0200
0000
0000
0000
0000
0000
0010
0000
0000
0000
0310
0000
0100
0000
0010
0000
0001
0000
0100
0000
0000
0020
0000
0000
,
1030
0000
0010
0001
0010
0000
1000
0000
1000
0000
0100
0001
0100
0000
1000
0000
,
1000
0000
0010
0001
0010
0000
1000
0000
0100
0010
0001
0000
0001
0100
0010
1000
,
0001
0000
0010
1000
0010
0000
0001
0000
0001
0000
0100
1000
0100
0000
0001
0000
,
0001
0000
0010
1000
0010
0000
0001
0000
0100
0010
0100
0010
1000
0000
0001
0000
,
0012
0000
1003
2010
0000
0000
3010
1000
,
0000
1000
0100
2100
0000
3001
0101
0001
,
1000
0000
0001
0010
0000
0010
1000
0000
1000
0100
0000
0100
0001
0000
0001
0010
,
0000
0010
1000
0000
1000
0100
0000
0100
0001
1000
0100
0010
0100
0000
0010
0000
,
0110
0000
0000
0000
;

//--------------- dance-double - ----------------
#NOTES:
     dance-double:
     :
     Challenge:
     15:
     0,0,0,0,0:
00000000
00000000
00000000
00000000
,
00000000
00000000
00000000
00000000
,
00000000
00000000
00000000
00000000
,
00000000
00000000
00000000
00000000
,
00000000
00000000
00000000
00000000
,
00010000
00000000
00000000
00010000
00001000
00000000
00000200
00000000
00000010
00000000
00000000
00000000
00000310
00000000
00000000
00000000
,
00001000
00000000
00000000
00001000
00000001
00000000
00000020
00000000
00000100
00000000
00000000
00000000
00000130
00000000
00000000
00000000
,
00010000
00000000
00001000
01000000
00000000
00000000
00100000
00000000
00010000
00000000
00010000
00000000
00002000
00000000
00000000
00000000
,
00003000
00000000
00000000
00000000
00000000
00000000
00010000
00002000
,
00003010
00000000
00000100
00000010
00001000
00000000
00010000
00000000
00001000
00000000
00000100
00000010
00001000
00000000
00000001
00000000
,
00000010
00000000
00000100
00000010
00001000
00000000
00010000
00000000
00001000
00000100
00000010
00000000
00020000
00000000
00000000
00000000
,
00031000
00000000
00100000
01000000
00010000
00000000
00001000
00000000
00010000
00000000
00100000
01000000
00010000
00000000
10000000
00000000
,
01000000
00000000
00100000
01000000
00010000
00000000
00001000
00000000
00100000
00000000
00100000
00000000
00001000
00010000
00001000
00000000
,
00000100
00000000
00000010
00000100
00001000
00000000
00010000
00000000
00001000
00000000
00000010
00000100
00001000
00000000
00000001
00000000
,
00000100
00000000
00000010
00000100
00001000
00000000
00010000
00000000
00001000
00000010
00000100
00000000
00020000
00000000
00000000
00000000
,
00031000
00000000
01000000
00100000
00010000
00000000
00001000
00000000
00010000
00000000
00010000
00000000
02000000
00000000
00000000
00000000
,
23000000
00000000
00010000
00000000
00000000
31000000
01010000
00010000
,
00002000
00000000
00000000
00000010
00000000
00000000
00013000
00000000
00001000
00000000
00001000
00000100
00000000
00000100
00000001
00000000
,
00000200
00000000
00000000
00000010
00000000
00000000
00001300
00000000
00010000
00000000
00010000
00100000
00000000
00100000
01000000
00001000
,
00020000
00000000
00000000
00100000
00000000
00000000
00031000
00000000
00010000
00000000
00010000
01000000
00000000
01000000
10000000
00000000
,
02000000
00000000
00000000
00100000
00000000
00000000
03010000
00000000
00001000
00000000
00010000
00000100
00001000
00000000
00000100
00001000
,
00000001
00000000
00000000
00000000
00000101
00000000
00000100
00000000
00001000
00000000
00001000
00000100
00000000
00000100
00000001
00000000
,
00000020
00000000
00000000
00000100
00000000
00000000
00001030
00000000
00010000
00000000
00010000
01000000
00000000
01000000
00100000
00001000
,
00020000
00000000
00000000
01000000
00000000
00000000
00031000
00000000
00010000
00000000
00010000
00100000
00000000
00100000
10000000
00000000
,
00010000
10000000
00010000
00000000
00100000
00001000
00100000
00000000
00001000
00010000
00001000
00000000
00010100
00000000
00000100
00000000
,
00001000
00000001
00001000
00000100
00001000
00000000
00000001
00001000
00000010
00001000
00000001
00000000
00000100
00000010
00000100
00000000
,
00001000
00010000
00001000
01000000
00001000
00000000
00010000
01000000
00100000
01000000
10000000
00000000
00010000
00000000
01000000
00000000
,
00010000
10000000
00010000
00100000
00010000
00000000
10000000
00010000
01000000
00100000
00010000
00000000
00001000
00010000
00000010
00000100
,
00000001
00000000
00000000
00000001
00001000
00000000
00000000
00001000
00000100
00000000
00000000
00000100
00000020
00000000
00000000
00000000
,
00001030
00000000
00000010
00001000
00010000
00000000
00021000
00000000
00000000
00000000
01030000
00000000
01000000
00000000
10000000
00100000
,
01000000
00000000
00100000
00010000
00001000
00000000
00012000
00000000
00000000
00000000
00003100
00000000
00000100
00000000
00000001
00000000
,
00002002
00000000
00000000
00000000
,
00000000
00000000
00000000
00003003
00000000
00000000
00001000
00000100
00000010
00001000
00010000
00000100
,
00002000
00000000
00000000
00000100
00000000
00000000
00000010
00000000
00000000
00000000
00000000
00000000
00000000
00000000
00000000
00000000
,
00023000
00000000
00000000
00100000
00000000
00000000
01000000
00000000
00000000
00000000
00000000
00000000
00000000
00000000
00000000
00000000
,
00032000
00000000
00000000
00000010
00000000
00000000
00000100
00000000
00000000
00000000
00000000
00000000
00000000
00000000
00000000
00000000
,
00023000
00000000
00000000
01000000
00000000
00000000
00100000
00000000
00000000
00000000
00000000
00000000
00000000
00000000
00000000
00000000
,
00032000
00000000
00000000
00000100
00000000
00000000
00000010
00000000
00000000
00000000
00000010
00000000
00000000
00000000
00010000
00000000
,
00023000
00000000
00000000
00100000
00000000
00000000
01000000
00000000
00000000
00000000
01000000
00000000
00000000
00000000
00001000
00000000
,
00032000
00000000
00000000
00000010
00000000
00000000
00000100
00000000
00000000
00000000
00000100
00000000
00000000
00000000
00010000
00000000
,
00023000
00000000
00000000
01000000
00000000
00000000
00100000
00000000
00000000
00000000
00130000
00000000
00010000
00100000
00010000
00100000
,
00001000
00010000
00000000
00010000
00000100
00000000
00000100
00000010
00000000
00000010
00000001
00000000
00000001
00000100
00000000
00000010
,
00010000
00001000
00000000
00001000
01000000
00000000
01000000
00100000
00000000
00100000
10000000
00000000
10000000
01000000
00000000
00100000
,
00001000
00010000
00000000
00010000
00000100
00000000
00000100
00000010
00000000
00000010
00001000
00000000
00001000
00000010
00000000
00000100
,
00000010
00000000
00000000
00000001
00000000
00000000
00000000
00000000
00000000
00000001
00000000
00000000
00001000
00000000
00000000
00000000
00000000
00000000
00000010
00000000
00000000
00000100
00000000
00000000
00000010
00000000
00000000
00000000
00010000
00000000
00000000
00000000
00001000
00000000
00000000
00000000
01000000
00000000
00000000
00000000
00100000
00000000
00000000
00000000
10000000
00000000
00000000
00000000
,
00020000
00000000
00000000
00130000
00000000
00000000
00011000
00000000
00020000
00000000
00000000
00030010
00000000
00000000
00011000
00000000
,
00002000
00000000
00000000
01003000
00000000
00000000
00011000
00000000
00020000
00000000
00000000
00030100
00000000
00000000
00011000
00000000
,
00010000
00000000
00010000
01000000
00000000
01000000
10000000
00000000
10000000
00100000
00000000
00100000
00010000
00000000
00001000
00000010
,
00000100
00000010
00000001
00001000
00000001
00000100
00000010
00000100
00001000
00010000
00000100
00010000
00001000
00000000
00020000
00000000
,
01030000
00000000
00100000
01000000
00010000
00000000
00001000
00000000
00010000
00000000
00100000
01000000
00010000
00000000
10000000
00000000
,
01000000
00000000
00100000
01000000
00010000
00000000
00001000
00000000
00010000
00100000
01000000
00000000
00002000
00000000
00000000
00000000
,
00013000
00000000
00000100
00000010
00001000
00000000
00010000
00000000
00001000
00000000
00000100
00000010
00001000
00000000
00000001
00000000
,
00000010
00000000
00000100
00000010
00001000
00000000
00010000
00000000
00000100
00000000
00000100
00000000
00010000
00001000
00010000
00000000
,
00100000
00000000
01000000
00100000
00010000
00000000
00001000
00000000
00010000
00000000
01000000
00100000
00010000
00000000
10000000
00000000
,
00100000
00000000
01000000
00100000
00010000
00000000
00001000
00000000
00010000
01000000
00100000
00000000
00002000
00000000
00000000
00000000
,
00013000
00000000
00000010
00000100
00001000
00000000
00010000
00000000
00001000
00000000
00001000
00000000
00000020
00000000
00000000
00000000
,
00000032
00000000
00000000
00000000
00000010
00000000
00000000
00001000
00000000
00001000
00000000
00000000
00000103
00000000
00002000
00000000
,
00013000
00000000
01000000
10000000
01000000
00000000
00010000
00000000
00001000
00000000
00010000
00100000
00010000
00000000
00001000
00000000
,
00010000
00000000
01000000
10000000
01000000
00000000
00010000
00000000
00001000
01000000
00001000
00000000
00010000
00000010
00010000
00000000
,
00001000
00000000
00000100
00000001
00000100
00000000
00001000
00000000
00010000
00000000
00001000
00000010
00001000
00000000
00010000
00000000
,
00001000
00000000
00000100
00000001
00000100
00000000
00001000
00000000
00010000
00001000
01000000
00001000
00010000
00000000
01000000
00000000
,
20000000
00000000
30100000
00020000
00000000
00000000
00031000
00000100
,
00000000
00000100
00000001
00001002
00000000
00000013
00001000
00010000
,
00001000
00000000
00001000
00000100
00000000
00000100
00000001
00000000
00000001
00000010
00000000
00000010
00001000
00000000
00010000
00100000
,
00000000
00100000
10000000
00000000
10000000
01000000
00000000
01000000
00010000
00001000
00000010
00000100
00000010
00000000
00000001
00000000
,
00001001
00000000
00000000
00000000
;
