#TITLE:Jealous;
#SUBTITLE:(I Ain't With It);
#ARTIST:Unknown artist;
#TITLETRANSLIT:;
#SUBTITLETRANSLIT:;
#ARTISTTRANSLIT:;
#GENRE:;
#CREDIT:;
#BANNER:;
#BACKGROUND:;
#LYRICSPATH:;
#CDTITLE:;
#MUSIC:01 Jealous (I Ain't With It).mp3;
#OFFSET:0.250000;
#SAMPLESTART:100.250000;
#SAMPLELENGTH:12.000000;
#SELECTABLE:YES;
#BPMS:0.000000=128.000000
;
#STOPS:0.000000=0.000000
;
#BGCHANGES:;
#KEYSOUNDS:;
#ATTACKS:;

//---------------dance-single - ----------------
#NOTES:
     dance-single:
     :
     Beginner:
     2:
     0.139255,0.201224,0.055702,0.000000,0.000000,140.000000,132.000000,8.000000,0.000000,0.000000,0.000000,0.139255,0.201224,0.055702,0.000000,0.000000,140.000000,132.000000,8.000000,0.000000,0.000000,0.000000:
0000
0000
0000
0000
,
0000
0000
0000
0000
,
0000
0000
0000
1000
,
0000
0000
0000
0001
,
0000
0000
0000
0100
,
0000
0000
0000
0100
,
0000
0000
0000
0100
,
0000
0000
0000
0100
,
0000
0000
0000
0010
,
0000
0000
0000
1000
,
0000
0000
0000
0010
,
0000
0000
0000
0001
,
0000
0000
0000
0010
,
0000
0000
0000
1000
,
0000
0000
0000
0010
,
0000
0000
0000
0010
,
0000
0000
0000
0100
,
0100
0100
0000
0000
,
0000
0000
0000
0010
,
0010
0010
0000
1000
,
1000
1000
0000
0001
,
0001
0001
0000
0000
,
0000
0000
0000
0010
,
0010
0010
0000
0100
,
0100
0100
0000
1001
,
0000
0010
0000
1000
,
0000
0010
0000
1001
,
0000
0010
0000
0001
,
0000
0100
0000
1001
,
0000
0100
0000
1000
,
0000
0100
0000
1001
,
0000
0100
0000
0001
,
0000
0010
0010
0010
,
0000
0100
0100
0000
,
1000
1000
0000
0001
,
0000
0010
0010
0000
,
0100
0100
0000
1000
,
0000
0001
0001
0000
,
0010
0010
0000
0100
,
0000
1000
1000
0000
,
0001
0001
0000
0000
,
1000
0000
0000
0000
,
0100
0000
0000
0000
,
0010
0000
0000
0000
,
0001
0000
0000
0000
,
0010
0000
0000
0000
,
0100
0000
0000
0000
,
1000
0000
0000
0000
,
0010
0000
0000
0100
,
0100
0100
0000
0000
,
0000
0000
0000
1000
,
1000
1000
0000
0001
,
0001
0001
0000
0010
,
0010
0010
0000
0000
,
0000
0000
0000
1000
,
1000
1000
0000
0100
,
0100
0100
0000
1001
,
0000
0010
0000
0100
,
0000
0010
0000
1001
,
0000
0100
0000
0010
,
0000
0100
0000
1001
,
0000
0100
0000
1000
,
0000
0100
0000
1001
,
0000
0010
0000
0001
,
0000
0010
0010
0010
,
0000
0100
0100
0000
,
1000
1000
0000
0001
,
0000
0010
0010
0000
,
0100
0100
0000
1000
,
0000
0001
0001
0000
,
0010
0010
0000
0100
,
0000
1000
1000
0000
,
0010
0010
0000
0000
;

//---------------dance-single - ----------------
#NOTES:
     dance-single:
     :
     Easy:
     4:
     0.243697,0.278598,0.104442,0.083553,0.017407,245.000000,230.000000,15.000000,12.000000,0.000000,0.000000,0.243697,0.278598,0.104442,0.083553,0.017407,245.000000,230.000000,15.000000,12.000000,0.000000,0.000000:
0000
0000
0000
0000
,
0000
0000
0000
0000
,
0000
0000
0000
0001
,
0010
0001
0000
1000
,
0100
1000
0000
0010
,
0010
1000
0001
0100
,
0100
0001
1001
0010
,
0010
1000
0001
0100
,
0010
0100
0000
0010
,
0000
1000
0000
0100
,
0001
0010
0000
0001
,
0100
1000
0010
0001
,
0000
1001
0000
0100
,
0000
1000
0000
0010
,
0001
0100
0000
0001
,
0010
1000
0100
0001
,
0000
0110
0000
1000
,
1000
2000
0000
0100
,
0100
0000
0000
0000
0200
3000
0000
0000
0000
0000
0000
0000
0010
0000
0000
0000
,
0010
0000
0000
0000
0320
0000
0000
0000
0000
0000
0000
0030
0001
0000
0000
0001
,
0000
0001
0000
0000
0000
0000
0100
0000
,
0100
0200
0000
0010
,
0010
0320
0000
1000
,
1000
0000
0000
0000
2030
0000
0000
0000
0000
0000
0000
3000
0001
0000
0000
0001
,
0000
0001
0000
0000
0000
0000
0100
0000
,
1001
0010
1000
0001
,
0100
0010
1000
0100
,
1001
0010
1000
0100
,
0010
0001
0100
0010
,
1001
0010
1000
0100
,
0010
0001
0100
0010
,
1001
0010
1000
0100
,
0010
0001
0100
1000
,
0000
0010
0001
0000
,
0100
1000
0010
0001
,
0000
0100
1000
0000
,
0010
0001
0010
1000
,
0000
0100
0001
0000
,
0010
1000
0100
0001
,
0000
0010
1000
0000
,
0100
0001
0000
1000
,
0010
0100
0110
0001
,
0100
0010
0000
0001
,
0100
0110
1000
0100
,
0000
0000
0000
0001
,
0010
1000
0010
0001
,
0100
1000
0000
0100
,
0100
0001
1000
0010
,
0110
0100
1000
0010
,
0010
0020
0000
1000
,
1000
2030
0000
0001
,
0001
0000
0000
0000
3002
0000
0000
0000
0000
0000
0000
0000
0103
0000
0000
0100
,
0000
0100
0000
0000
0000
0000
0010
0000
,
0010
0020
0000
1000
,
1000
2030
0000
0001
,
0001
0000
0000
0000
0002
3000
0000
0000
0000
0000
0000
0000
0013
0000
0000
0010
,
0000
0010
0000
0000
0000
0000
0010
0000
,
0110
1000
0001
0100
,
1000
0001
0010
1000
,
0110
1000
0100
0001
,
1000
0010
0001
1000
,
0110
0001
0010
1000
,
0001
0100
1000
0010
,
1001
0100
0001
0010
,
1000
0100
0001
0010
,
0000
1000
0100
0000
,
0001
0010
1000
0100
,
0000
0001
0010
0000
,
1000
0100
1000
0010
,
0000
0001
0100
0000
,
1000
0010
0001
0100
,
0000
0000
1000
0000
0010
0000
0000
0100
,
0000
0100
0000
0000
0100
0000
0000
0000
0000
0000
0000
0000
1001
0000
0000
0000
;

//---------------dance-single - ----------------
#NOTES:
     dance-single:
     :
     Medium:
     6:
     0.306362,0.353361,0.194958,0.167106,0.017407,308.000000,280.000000,28.000000,24.000000,0.000000,0.000000,0.306362,0.353361,0.194958,0.167106,0.017407,308.000000,280.000000,28.000000,24.000000,0.000000,0.000000:
0000
0000
0000
0000
,
0000
0000
0000
0000
,
0000
0000
0000
0000
,
0000
0000
0000
0000
,
0000
0000
0000
0001
,
0100
0010
1000
0001
,
0010
0100
1000
0010
,
0100
0001
1000
0100
,
0010
0001
0110
1000
,
0100
0000
0001
0000
0010
0000
0100
0100
,
0100
0010
0000
0001
,
1000
0000
0010
0000
0100
0100
0000
0000
,
0001
1000
1001
0010
,
0100
0000
0001
0000
1000
0000
0010
0010
,
0010
1000
0101
0010
,
1000
0000
0001
0000
0100
1000
0000
0000
,
0010
0000
0100
0000
0001
0000
0010
0001
,
0010
0200
0000
2300
,
0000
3002
0000
0000
0000
0000
0103
0010
,
0200
0000
0000
0000
0320
0000
0000
0000
0000
0000
0000
0000
1030
0000
0000
0001
,
0000
1001
0000
0000
0100
0010
0100
0001
,
0020
0230
0000
2300
,
0000
3002
0000
0000
0000
0000
0103
0010
,
2000
0000
0000
0000
3020
0000
0000
0000
0000
0000
0000
0030
0100
0000
0000
0001
,
0000
1000
0010
0000
0110
0000
0001
0000
,
1100
0000
1000
0000
0011
0000
0100
0010
,
1000
0010
0100
0001
,
1001
0000
0100
0000
0110
0000
1000
0010
,
0100
0001
0100
0001
,
1010
0000
0100
0000
1001
0000
0001
0100
,
0010
1000
0100
1000
,
0101
0000
0010
0000
1001
0000
1000
0100
,
0010
0000
0001
0000
0001
0100
0010
0000
,
0000
1000
0100
0000
0010
0000
0000
0001
,
0100
0000
0010
1000
0100
0000
0010
0000
,
0000
0001
0100
0000
0010
0000
0000
1000
,
0100
0000
0010
0001
0100
0000
0010
0000
,
0000
1000
0100
0000
0010
0000
0000
0001
,
0100
0000
0010
0000
1000
0100
0010
0000
,
0000
0001
0100
0000
0010
0000
0000
1000
,
0100
0010
0000
0010
,
1000
0000
0001
0100
0010
0000
1000
0000
,
0100
1001
0000
0010
,
1000
0000
0001
0010
0100
1000
0001
0000
,
0100
0000
1000
0000
0100
0000
0000
1000
,
0010
0000
0001
0010
0000
0100
0010
0000
,
0100
1001
0010
0100
,
0001
0000
0010
0000
0100
0100
0000
0000
,
0000
0000
0000
0000
0100
1000
0100
0000
,
0020
0230
0000
0302
,
0000
0000
2003
0000
0000
0000
0000
0000
0010
3000
0100
0000
0002
0000
0000
0000
,
0000
0000
0023
0000
0000
0000
0000
0000
0000
0000
0000
0000
0100
0000
0000
0100
,
0000
0130
0000
0000
2000
0000
3001
0100
,
0020
2030
0000
3002
,
0000
0000
0023
0000
0000
0000
0000
0000
0000
0000
0000
0030
0200
0000
0000
0000
,
0000
0300
2000
0000
0000
0000
0000
0000
3010
0000
0000
0000
0001
0000
0000
1000
,
0000
1001
0000
0000
0000
0000
0010
0000
,
0110
0000
1000
0000
1010
0000
0001
0100
,
0010
1000
0100
0001
,
0011
0000
1000
0000
1001
0000
0001
0100
,
0010
1000
0100
1000
,
1001
0000
0010
0000
0110
0000
0001
1000
,
0001
0010
0100
0001
,
0011
0000
1000
0000
1100
0000
0010
1000
,
0010
0001
0100
0001
,
0000
0010
0100
0000
1000
0000
0000
0010
,
0100
0000
0001
0010
0100
0000
1000
0000
,
0000
0010
0100
0000
0001
0000
0000
0010
,
0100
0000
1000
0010
0100
0000
0001
0000
,
0000
0010
0100
0000
1000
0000
0000
0010
,
0100
0000
0001
0000
0010
0100
1000
0000
,
0000
0010
0100
0000
0001
0000
0000
1001
,
0000
1001
0000
0000
1001
0000
0000
0000
0110
0000
0000
0000
0000
0000
0000
0000
;

//---------------dance-single - ----------------
#NOTES:
     dance-single:
     :
     Hard:
     1:
     0.452580,0.455887,0.181032,0.090516,0.017407,455.000000,429.000000,26.000000,13.000000,0.000000,0.000000,0.452580,0.455887,0.181032,0.090516,0.017407,455.000000,429.000000,26.000000,13.000000,0.000000,0.000000:
// measure 0
0000
0000
0000
0000
,  // measure 1
0000
0000
0000
0000
,  // measure 2
0000
0000
0000
0000
0000
0000
0001
0010
,  // measure 3
0000
1000
0001
1000
0000
0000
1000
0100
,  // measure 4
0000
0001
1000
0001
0000
0000
2010
0000
,  // measure 5
0001
0100
3001
0012
,  // measure 6
1000
0000
0100
0000
1003
0000
2010
0010
,  // measure 7
0000
0001
0001
0001
3000
0000
0102
0100
,  // measure 8
0000
1000
1000
1003
0010
0100
0001
0000
,  // measure 9
0010
0100
0010
1000
0010
0000
0100
0001
,  // measure 10
0010
0001
1000
0000
0110
0000
1000
0010
,  // measure 11
1000
0001
0100
0001
0010
0100
0000
0001
,  // measure 12
0001
1000
0010
0000
0110
1000
0001
0000
,  // measure 13
0100
0010
1000
0000
0101
0000
0010
0001
,  // measure 14
1000
0001
1000
0000
1010
0000
0100
0010
,  // measure 15
1000
0001
0010
0100
0010
0001
0000
1000
,  // measure 16
0001
0000
0100
0000
0010
0100
0010
1000
,  // measure 17
0010
0100
0010
0100
,  // measure 18
0001
0010
0100
0000
0010
0100
1000
0010
,  // measure 19
0100
0000
0010
0000
0100
0000
0001
0000
0010
0000
0100
0000
0010
0000
0000
0100
,  // measure 20
0000
1001
0000
0100
0001
0010
0100
1000
,  // measure 21
0010
0210
0320
0100
,  // measure 22
0130
0010
0100
0000
0001
0010
0100
1000
,  // measure 23
0100
0000
0010
0000
0001
0000
1000
0000
0100
0000
0010
0000
0001
0000
0000
0010
,  // measure 24
0000
0100
1000
0001
0100
0010
1000
0000
,  // measure 25
0110
0000
0001
0100
0010
1000
0100
0010
,  // measure 26
0001
0100
0010
1000
0010
0100
0000
0000
,  // measure 27
1001
0000
0001
0100
0010
1000
0100
0010
,  // measure 28
0001
1000
0100
0010
0001
0100
0000
0000
,  // measure 29
0110
0000
0001
0100
0010
1000
0010
0100
,  // measure 30
0001
1000
0100
0010
0001
0010
0100
0000
,  // measure 31
0110
0000
0001
0100
0010
1000
0010
0100
,  // measure 32
0001
1000
0010
0100
0001
0010
1000
0000
,  // measure 33
0000
0010
0001
0100
1000
0000
0000
0100
,  // measure 34
0001
0010
1000
0010
0001
0100
1000
0000
,  // measure 35
0000
0001
0010
1000
0100
0000
0000
1000
,  // measure 36
0010
0001
0100
0001
0010
1000
0100
0000
,  // measure 37
0000
1000
0010
0100
0001
0000
0000
0001
,  // measure 38
0100
0010
1000
0010
0001
0010
1000
0000
,  // measure 39
0000
0001
0100
1000
0100
0000
0000
0010
,  // measure 40
0100
0010
0100
0000
1001
0000
0001
0000
,  // measure 41
0100
0010
1000
0000
1100
0000
1000
1000
,  // measure 42
0010
0100
0001
0000
0011
0000
0001
0100
,  // measure 43
0010
1000
1000
0010
0100
0001
2000
0000
,  // measure 44
0010
0000
3002
0000
0103
0000
0000
0010
,  // measure 45
1000
0000
0001
0010
0000
0001
0100
0010
,  // measure 46
1000
0100
0010
0000
0110
0000
0100
1000
,  // measure 47
0010
0001
0010
0000
1000
0001
0000
0000
,  // measure 48
0100
0010
0000
1000
0100
0010
0001
0010
,  // measure 49
0002
0100
1000
0010
,  // measure 50
1000
0000
0103
0010
1000
0001
1000
0010
,  // measure 51
0100
0000
0001
0000
0010
0000
0100
0000
0010
0000
0100
0000
1000
0000
0000
1000
,  // measure 52
0000
2000
0000
3010
0100
0001
0010
0100
,  // measure 53
2000
3002
0100
2003
,  // measure 54
0010
0000
0000
3000
0001
0000
0100
0000
0010
0000
1000
0000
0100
0000
1000
0000
,  // measure 55
0010
0000
0100
0000
0001
0000
0010
0000
0100
0000
0010
0000
0100
0010
0100
0000
,  // measure 56
0010
0001
1000
0001
0010
1000
0001
0000
,  // measure 57
1001
0000
0001
0100
1000
0100
0001
0010
,  // measure 58
1000
0010
0001
0100
1000
0100
0000
0000
,  // measure 59
0110
0000
0010
0001
0010
1000
0100
1000
,  // measure 60
0010
0001
0010
1000
0100
1000
0000
0000
,  // measure 61
0101
0000
0010
1000
0100
1000
0010
0001
,  // measure 62
0100
0001
0010
1000
0100
1000
0000
0000
,  // measure 63
0110
0000
0001
0010
1000
0001
0100
1000
,  // measure 64
0010
0001
1000
0100
0001
0010
1000
0000
,  // measure 65
0000
0010
1000
0100
1000
0000
0000
0010
,  // measure 66
0001
0100
0001
0010
1000
0100
1000
0000
,  // measure 67
0000
0010
0001
0100
0001
0000
0000
0010
,  // measure 68
1000
0100
1000
0100
0001
0010
0001
0000
,  // measure 69
0000
0100
1000
0010
1000
0000
0000
0100
,  // measure 70
0001
0010
0001
0010
1000
0100
1000
0000
,  // measure 71
0000
0010
0001
0100
0001
0000
0000
0110
,  // measure 72
0000
0110
0000
0000
1001
0000
0000
0000
0010
0000
0000
0000
0110
0000
0000
0000
;
