#TITLE:The Rotter Tarmination;
#SUBTITLE:;
#ARTIST:SAMPLING MASTERS MEGA;
#TITLETRANSLIT:;
#SUBTITLETRANSLIT:;
#ARTISTTRANSLIT:;
#GENRE:;
#CREDIT:;
#BANNER:;
#BACKGROUND:tarmination-bg.png;
#LYRICSPATH:;
#CDTITLE:;
#MUSIC:tarmination.ogg;
#OFFSET:0.000;
#SAMPLESTART:12.600;
#SAMPLELENGTH:12.000;
#SELECTABLE:YES;
#BPMS:0.000=200.000;
#STOPS:;
#BGCHANGES:;
#KEYSOUNDS:;

//---------------dance-single - ayaze----------------
#NOTES:
     dance-single:
     ayaze:
     Edit:
     15:
     -1.000,-1.000,-1.000,-1.000,-1.000:
0001
0000
0010
0000
0100
0000
1000
0000
1000
0000
0000
0010
0000
0000
0001
0000
,
1000
0000
0000
0100
0000
0000
0001
0000
1000
0000
0000
0010
0000
0000
0001
0000
,
1000
0000
0100
0000
0010
0000
0001
0000
0001
0000
0000
0100
0000
0000
1000
0000
,
0001
0000
0000
0010
0000
0000
1000
0000
0001
0000
0000
0100
0000
0000
1000
0000
,
0001
0000
0010
0000
0100
0000
1000
0000
1000
0000
0000
0010
0000
0000
0001
0000
,
1000
0000
0000
0100
0000
0000
0001
0000
1000
0000
0000
0010
0000
0000
0001
0000
,
1000
0000
0100
0000
0010
0000
0001
0000
0001
0000
0000
0100
0000
0000
1000
0000
,
0001
0000
0000
0010
0000
0000
1000
0000
0011
0000
0000
0000
0000
0000
0101
0000
,
0000
0000
0000
0000
1001
0000
0000
0000
1010
0000
0100
0010
0100
0000
0100
0010
,
0100
0000
0010
0100
0010
0000
0010
0100
0010
0000
1000
0001
1000
0000
0001
1000
,
0001
0000
1000
0001
1000
0000
0000
0000
1000
0000
0100
0000
1000
0000
0100
0000
,
1000
0100
1000
0100
1000
0010
1000
0001
,
1000
0010
1000
0010
0200
0300
0002
0003
,
0200
0300
0002
0003
1010
0000
1000
1001
,
0000
0001
1001
0000
0001
0010
0001
0010
,
0001
0010
0001
0010
0001
0100
0001
1000
,
0001
0100
0001
0100
0020
0030
2000
3000
,
0020
0030
2000
3000
0101
0000
0001
1001
,
0000
0000
1000
0000
1001
0000
0000
0000
2000
0000
0000
0000
0110
0000
0000
3000
,
2000
0000
0000
0000
0110
0000
0000
3000
2000
0000
0000
0000
0110
0000
0000
3000
,
2000
0000
3110
0000
0000
0001
1011
0000
,
0000
1000
1011
0000
0000
0001
1011
0000
,
0000
0000
1000
0000
1011
0000
0000
0000
2000
0000
0000
0000
0110
0000
0000
3000
,
2000
0000
0000
0000
0110
0000
0000
3000
2000
0000
0000
0000
0110
0000
0000
3000
,
2000
0000
3110
0000
0000
0001
1011
0000
,
0000
1000
1011
0000
0000
0001
1011
0000
,
0000
1000
1011
0000
1000
0100
1000
0100
,
1000
0100
1000
0100
1000
0010
1000
0001
,
1000
0010
1000
0010
0200
0300
0002
0003
,
0200
0300
0002
0003
1010
0000
1000
1001
,
0000
0001
1001
0000
0001
0010
0001
0010
,
0001
0010
0001
0010
0001
0100
0001
1000
,
0001
0100
0001
0100
0020
0030
2000
3000
,
0020
0030
2000
3000
0101
0000
0001
1001
,
0000
0000
1000
0000
1001
0000
0000
0000
2000
0000
0000
0000
0110
0000
0000
3000
,
2000
0000
0000
0000
0110
0000
0000
3000
2000
0000
0000
0000
0110
0000
0000
3000
,
2000
0000
3110
0000
0000
0001
1011
0000
,
0000
1000
1011
0000
0000
0001
1011
0000
,
0000
0000
1000
0000
1011
0000
0000
0000
2000
0000
0000
0000
0110
0000
0000
3000
,
2000
0000
0000
0000
0110
0000
0000
3000
2000
0000
0000
0000
0110
0000
0000
3000
,
2000
0000
3110
0000
0000
0001
1011
0000
,
0000
0000
1000
0000
1011
0000
0000
0000
1000
0001
1000
0001
1000
0001
1000
0001
,
1000
0001
1000
0001
1000
0001
0000
0000
1000
0000
0100
0000
0001
0000
0100
0000
,
1000
0100
0001
0100
1000
0100
0001
0100
,
1000
0100
0001
0100
0001
0100
1000
0100
,
0001
0100
1000
0100
0001
0100
1000
0100
,
0001
0100
1000
0100
0001
0010
1000
0010
,
0001
0010
1000
0010
0001
0010
1000
0010
,
0001
0010
1000
0010
0001
0010
0001
0100
,
0001
0010
0001
0100
2002
0000
0000
0000
,
3003
0000
0000
0000
1000
1000
0000
1000
,
0000
1000
0000
1000
0000
1000
0000
1000
,
1000
0100
0010
0001
0001
0001
0000
0001
,
0000
0001
0000
0001
0000
0001
0000
0001
,
0001
0010
0100
1000
1000
1000
0000
1000
,
0000
1000
0000
1000
0000
1000
0000
1000
,
1000
0100
0010
0001
0001
0001
0000
0001
,
0000
0001
0000
0001
0000
0001
0000
0001
,
0001
0010
0100
1000
0001
0010
0101
0000
,
0001
0010
0101
0000
0001
0010
0101
0000
,
0001
0010
0101
0000
1000
0010
0101
0000
,
1000
0010
0101
0000
1000
0010
0101
0000
,
1000
0100
0010
0001
0001
0010
0101
0000
,
0001
0010
0101
0000
0001
0010
0101
0000
,
0001
0010
0101
0000
1000
0100
0010
0001
,
1000
0100
0010
0001
1000
0100
0010
0001
,
1000
0100
0010
0001
0000
0000
0000
0000
,
0000
0000
0000
0000
,
0000
0000
0000
0000
1000
0100
0010
0001
,
0000
0000
0001
0010
0100
1000
0000
0000
,
1000
0100
0010
1000
0100
0010
1000
0100
,
0010
0001
0000
0000
0001
0010
0100
1000
,
0000
0000
0001
0010
0100
1000
0000
0000
,
0001
0010
0100
0001
0010
0100
0001
0010
,
0100
1000
1000
1000
0100
0010
0100
0010
,
0000
0000
0010
0100
0010
0100
0000
0000
,
0100
0010
0100
0010
0100
0010
0100
0010
,
0100
0010
0000
0000
1000
0001
1000
0001
,
0000
0000
0001
1000
0001
1000
0000
0000
,
0001
0010
0100
1000
0100
0010
0001
0010
,
0100
1000
0000
0000
1001
0000
0110
0000
,
1001
0000
0110
0000
1000
0100
0010
0001
,
1000
0010
0001
0010
1000
0100
0010
0001
,
1000
0100
0010
0001
2000
3200
0320
0032
,
2003
0000
3200
0000
0320
0000
0032
0000
1003
0100
0010
0001
1000
0100
0010
0001
,
1000
0100
0010
0001
1000
0100
0010
0001
0001
0010
0100
1000
0001
0010
0100
1000
,
0001
0010
0100
1000
0001
0010
0100
1000
0001
1000
0001
1000
0001
1000
0001
1000
,
0010
0100
0010
0100
0010
0100
0010
0100
1000
0001
1000
0001
1000
0001
1000
0001
,
1000
0000
0001
0000
1000
0000
0001
0000
1000
0000
0001
0000
1000
0000
0001
0000
1000
0001
1000
0001
1000
0001
1000
0001
1000
0001
1000
0001
1000
0001
1000
0001
,
1000
0001
1000
0001
1000
0001
1000
0001
1000
0001
1000
0001
1000
0001
1000
0001
M11M
0000
0000
0000
0000
0000
0000
0000
0000
0000
0000
0000
0000
0000
0000
0000
;

//---------------dance-single - Taka----------------
#NOTES:
     dance-single:
     Taka:
     Challenge:
     13:
     1.000,1.000,0.492,0.082,0.865:
0000
0000
0000
0000
0000
0000
0000
0000
1000
0000
0000
0010
0000
0000
0100
0000
,
0010
0000
0000
0100
0000
0000
0001
0000
1000
0000
0000
0010
0000
0000
0100
0000
,
0001
0000
0010
0000
0100
0010
0001
0000
1000
0000
0000
0010
0000
0000
0100
0000
,
0001
0000
0000
1000
0000
0000
0100
0000
0010
0000
0000
0001
0000
0000
1000
0000
,
0010
0000
1000
0100
0010
0001
0100
0000
0010
0000
0000
1000
0000
0000
0100
0000
,
0001
0000
0000
0100
0000
0000
1000
0000
0010
0000
0000
0100
0000
0000
0001
0100
,
0001
0100
0001
0010
0100
0000
1000
0000
0010
0000
0000
0100
0000
0000
0001
0000
,
1000
0000
0000
0100
0000
0000
0010
0000
0011
0000
0010
0000
0010
0000
0110
0000
,
0100
0000
0100
0000
1100
0000
1000
0000
0001
0010
0100
1000
0001
0010
0100
1000
,
0001
0010
0100
1000
0001
0010
0100
1000
0100
0010
0001
1000
0100
0010
0001
1000
,
0100
0010
0001
1000
0100
0010
0001
0000
1000
0100
0000
0000
1000
0010
0000
0000
,
1000
0100
0000
0000
1000
0010
0000
0000
0100
0001
0000
0000
0100
0010
0000
0000
,
0100
0001
0000
0000
0100
0010
0000
0000
1000
0001
0000
0000
1000
0000
0010
0000
,
0100
0000
0001
0000
0001
0000
1000
0100
1000
0000
0010
0000
1000
0010
0100
0000
,
0001
0000
0100
0010
1000
0100
0010
0001
1000
0100
0000
0000
1000
0010
0000
0000
,
1000
0100
0000
0000
1000
0010
0000
0000
0100
0001
0000
0000
0100
0010
0000
0000
,
0100
0001
0000
0000
0100
0010
0000
0000
1000
0001
0000
0000
1000
0000
1000
0000
,
0001
0100
0010
0100
0011
0011
0110
0110
,
1100
1100
1001
1001
0001
0100
0001
0100
,
0010
1000
0010
0100
0001
0010
0100
1000
,
0001
0100
0010
1000
0001
0100
0101
0000
,
0001
0100
0101
0000
0001
0100
0101
0000
,
0001
0100
0101
0000
1000
0010
1000
0010
,
0100
0001
0100
0010
1000
0100
0010
0001
,
1000
0010
0100
0001
1000
0010
1010
0000
,
1000
0010
1010
0000
1000
0010
1010
0000
,
1000
0000
0010
0000
1010
0000
0000
0000
1000
0010
0000
0000
0100
0001
0000
0000
,
1000
0010
0000
0000
0100
0001
0000
0000
0010
1000
0000
0000
0010
0100
0000
0000
,
0010
1000
0000
0000
0010
0001
0000
0000
1000
0000
0010
0000
0100
0000
0001
0000
,
0100
0010
1000
0001
0010
0001
0100
0010
1000
0000
0010
0000
0100
0000
0001
0000
,
0100
0000
0010
0000
0100
0000
0001
0000
1000
0010
0000
0000
0100
0001
0000
0000
,
1000
0010
0000
0000
0100
0001
0000
0000
0010
1000
0000
0000
0010
0100
0000
0000
,
0010
1000
0000
0000
0010
0001
0000
0000
1000
0000
0010
0000
0100
0000
0001
0000
,
0100
0010
1000
0001
0010
0001
0100
0010
1000
0000
0010
0000
0100
0000
0001
0000
,
0100
0010
0100
0001
1000
0010
0100
0001
,
1000
0010
0100
0001
1000
0100
0010
0001
,
1000
0000
0000
0000
0100
0000
0000
0000
0010
0000
0000
0000
0001
0000
0000
0000
1000
0000
0000
0000
0100
0000
0000
0000
1000
0100
1000
0000
0000
0000
0000
0000
,
0100
0000
0000
0000
1000
0000
0000
0000
0100
1000
0100
0000
0000
0000
0000
0000
1000
0000
0000
0000
0100
0000
0000
0000
1000
0100
1000
0000
0000
0000
0000
0000
,
0100
0000
0000
0000
1000
0000
0000
0000
0100
1000
0100
0000
0000
0000
0000
0000
1000
0000
0000
0000
0010
0000
0000
0000
0100
0000
0000
0000
0001
0000
0000
0000
,
1000
0010
0100
0001
1000
0100
0010
0001
,
1000
0000
0000
0000
0100
0000
0000
0000
0010
0000
0000
0000
0001
0000
0000
0000
0001
0000
0000
0000
0010
0000
0000
0000
0001
0010
0001
0000
0000
0000
0000
0000
,
0010
0000
0000
0000
0001
0000
0000
0000
0010
0001
0010
0000
0000
0000
0000
0000
0011
0000
0000
0000
0001
0000
0010
0000
0100
0000
1000
0000
0001
0000
0100
0000
,
0010
1000
0001
0100
0010
0100
0001
0000
1000
0000
1000
0000
0010
0000
0100
0000
,
0100
0001
0010
0010
0010
0010
0010
1000
,
0010
0001
0100
0001
0010
0010
0100
0100
,
1000
0001
0100
0100
0110
0110
1001
1001
,
0110
0000
0110
0000
1001
0000
1001
0000
0001
1000
0001
0000
0100
0000
0010
0000
,
0010
0000
1000
0000
0100
1000
0100
0000
0100
1000
0100
0000
0100
0000
0001
0000
,
0100
1000
0010
1000
0100
0100
0010
0010
,
0001
0000
1000
0000
0010
0000
0010
0000
0100
0001
0010
0100
0010
0001
1000
0100
,
0010
0001
1000
0100
0010
0100
1000
0001
1000
0000
0001
0000
0100
0000
0010
0000
,
1000
0001
0100
0100
0110
0100
0110
0010
,
1010
1000
1010
1001
0001
1000
0010
0100
,
0001
1000
0010
0010
0110
0010
0110
0100
,
0101
0100
0101
1001
0001
1000
0010
0100
,
0001
1000
0010
0010
0110
0010
0110
0100
,
0101
0100
0101
1001
1000
0001
0100
0010
,
1000
0001
0100
0100
0110
0100
0110
0010
,
1010
0000
0000
0000
0010
0000
0000
0000
1010
0000
0000
0000
1001
0000
0000
0000
1000
0000
0000
0000
0001
0000
0000
0000
0010
0100
1000
0000
0000
0000
0000
0000
,
0001
0000
0000
0000
1000
0000
0000
0000
0100
0010
0001
0000
0000
0000
0000
0000
0001
0000
0000
0000
0100
0000
0000
0000
0010
0100
0001
0000
0000
0000
0000
0000
,
1000
0000
0000
0000
0010
0000
0000
0000
0100
0001
0010
0000
0000
0000
0000
0000
0100
0000
0000
0000
1000
0000
0000
0000
0010
0100
0001
0000
1000
0000
0000
0000
,
0001
0000
0000
0000
1000
0000
0000
0000
0100
0010
0001
0000
0000
0000
0000
0000
1000
0000
0000
0000
0001
0000
0000
0000
0010
0100
1000
0000
0000
0000
0000
0000
,
0001
0011
0101
0000
0100
0010
1000
0001
,
1000
0100
1000
0010
0100
0001
1000
0010
,
0100
0001
1000
0001
0100
0010
0100
0001
,
1000
0010
0100
0001
0100
0010
1000
0001
,
1000
0000
0001
0000
1000
0000
0001
0000
0100
0000
0010
0000
0100
0010
0100
0010
,
0100
0000
0100
0000
0001
1000
0001
1000
0001
0000
0000
0101
0000
0000
0101
0000
,
0000
1001
0000
0000
MMMM
0000
0000
1000
0001
0010
0001
0000
0100
0000
0020
0000
,
0000
0000
0030
0000
1000
0100
1000
0000
0010
0000
0200
0000
0000
0000
0300
0000
,
0001
0010
0100
0000
0010
0000
0100
1000
0010
0000
1000
0000
0010
0100
0001
0000
,
0010
0000
0100
0000
1000
0000
0001
0000
1000
0001
0010
0000
0100
0000
2000
0000
,
0000
0000
3000
0000
0010
0100
0001
0000
0010
0000
0200
0000
0000
0000
0300
0000
,
1000
0001
0100
0000
0010
0000
1000
0001
0100
0000
0001
0000
0010
0100
1000
0000
,
0001
0000
0100
0000
0010
0000
0100
0000
0001
1000
0010
0000
0100
0000
0002
0000
,
0000
0000
0003
0000
1000
0100
0010
0000
0100
0000
0020
0000
0000
0000
0030
0000
,
0001
0100
0001
0000
0010
0000
0100
1000
0100
0000
1000
0000
0010
0100
0010
0000
,
0100
0000
0002
0000
0000
0000
0003
0000
1000
0001
0100
0000
0010
0000
2000
0000
,
0000
0000
3000
0000
0001
0100
0010
0000
1000
0000
0200
0000
0300
0000
1000
M000
,
M00M
M001
M00M
M000
M00M
1000
000M
M000
0001
M00M
000M
100M
M000
M00M
M00M
M004
,
MMM3
0010
0100
1000
1000
0100
0010
0001
,
1000
0001
0010
0100
0010
0001
1000
0010
,
0100
0001
1000
0010
0100
0001
0100
0010
,
1000
0000
0001
0000
0100
0000
0010
0000
1000
0001
1000
0000
1000
0000
0001
0000
,
0001
0000
0010
0000
0001
0000
1000
0010
0100
0001
1000
0010
0100
0001
0010
0100
,
1000
0001
0100
0010
1000
0001
1000
0001
0100
0010
1000
0001
1000
0001
0010
0001
,
1000
0100
0010
0001
0010
0100
1000
0001
0010
0001
1000
0100
0010
0001
1000
0001
,
1000
0001
1000
0001
1000
0001
1000
0001
1000
0001
1000
0001
1000
0001
1000
0001
,
1000
0001
1000
0001
1000
0001
1000
0001
4000
0004
0000
0000
0000
0000
0000
0000
,
0000
0000
3113
0000
,
0000
0000
0000
0000
,
0000
0000
0000
0000
,
MMMM
0000
0000
0000
;
