#TITLE:Tepris;
#SUBTITLE:;
#ARTIST:Doin;
#TITLETRANSLIT:;
#SUBTITLETRANSLIT:;
#ARTISTTRANSLIT:;
#GENRE:Techno;
#CREDIT:;
#BANNER:Tepris-banner.png;
#BACKGROUND:Tepris-bg.png;
#LYRICSPATH:;
#CDTITLE:;
#MUSIC:Tepris.ogg;
#OFFSET:-0.060;
#SAMPLESTART:43.100;
#SAMPLELENGTH:18.000;
#SELECTABLE:YES;
#BPMS:0.000=144.900,16.000=72.450,32.000=144.900,96.000=72.450,112.000=144.900,208.000=72.450;
#STOPS:;
#BGCHANGES:;
#KEYSOUNDS:;

//---------------dance-single - Taka----------------
#NOTES:
     dance-single:
     Taka:
     Challenge:
     11:
     0.740,0.795,0.000,0.311,0.852:
0000
0000
0000
0000
,
0000
0000
0000
0000
,
0000
0000
0000
0000
,
0000
0000
0000
0000
,
2000
0000
3001
0100
0020
0030
1000
0001
0020
0030
0100
0010
0002
0003
1000
0010
,
0200
0300
0001
0010
0002
0000
2003
0000
3020
0000
0230
0000
0320
0000
0000
0000
,
0000
1030
0000
0010
0200
0000
0301
0010
0002
0000
0003
0010
0200
0000
1300
0010
,
0200
0000
0301
0010
0001
0000
0010
0000
0100
0000
1000
0000
0200
0000
0000
0000
,
0320
0000
0000
0000
0031
0100
0001
0010
,
0200
0000
0300
0010
0001
0000
1000
0000
,
0001
0100
0001
1000
,
0010
0000
0000
0000
0000
0000
0000
0000
0100
0010
0100
0010
0100
0001
0100
0001
,
2000
0000
0000
3010
0100
0010
1000
0100
,
0002
0000
0003
0100
1000
0000
0010
0100
,
0001
0000
0000
1000
0010
0100
0001
1000
,
0010
0100
0001
0100
0010
1000
0010
1000
0001
0100
0001
0100
0010
1000
0100
0010
,
0001
1000
0100
1000
0001
1000
0010
1000
0100
0010
0001
0100
0001
0010
0001
1000
,
0001
0100
0010
1000
0001
0100
0010
0100
,
0001
1000
0010
0100
0001
0010
0001
0100
0001
1000
0100
0010
0100
0010
0001
0010
,
0001
1000
0100
0010
0100
1000
0001
0001
,
1000
0010
0100
0010
1000
0100
0010
0001
1000
0010
0100
0001
0010
0001
1000
0010
,
0100
0001
1000
0010
0100
0010
0100
0001
,
1000
0010
0100
0010
0100
0001
0010
0001
1000
0010
1000
0001
0010
0100
1000
0010
,
0100
0001
0010
0001
0100
0010
1000
0010
1000
0100
1000
0100
0010
0100
0010
0001
,
1000
0000
0100
0001
0010
0000
1000
0100
0001
0000
0010
1000
0100
0000
0001
0010
,
1000
0000
0100
0001
0010
0000
1000
0000
0100
0000
0001
0000
0010
0000
0000
0000
,
0100
0000
0001
0010
1000
0000
0100
0001
0010
0000
1000
0100
0001
0000
0010
1000
,
0100
0000
0001
0010
1000
0000
0100
0000
0001
0000
0010
0000
1000
0000
0000
0000
,
0002
0203
2300
3200
,
0302
2003
3020
0230
,
0301
0000
0100
0000
0001
0000
1000
0000
0010
0000
0100
0001
0010
0000
0001
0000
,
2000
0000
0000
0000
3020
0000
0000
0000
0130
0001
0100
0001
1000
0010
1000
0010
,
0200
0000
0000
0000
0000
0310
1000
0100
,
0020
0000
0000
0000
0000
0000
0000
0000
0030
0000
0001
1000
0010
0000
0100
0000
,
0002
0000
2003
0000
,
3010
0100
0001
1000
0001
0010
0100
1000
0002
0000
0000
0000
0000
0000
0000
0000
,
1003
0010
1000
0010
1000
0100
0010
0001
1000
0010
0100
0001
1000
0010
0100
0001
,
0100
0001
0100
0001
0010
0001
0010
0001
1000
0010
0100
0001
0010
0001
0100
0001
,
1000
0010
1000
0010
0100
0010
0100
0010
0100
0001
1000
0010
0100
0001
1000
0010
,
1000
0100
1000
0100
1000
0100
0010
0001
1000
0010
0100
0001
1000
0010
0100
0001
,
0010
0001
0010
0001
0010
0100
1000
0010
0100
0001
0010
0001
0100
0001
1000
0010
,
1000
0001
0100
0010
1000
0001
0010
0100
,
1000
0001
0010
0100
0010
0001
1000
0010
1000
0010
0100
0001
0100
0001
0100
0010
,
1000
0010
0100
0001
1000
0010
0100
0001
1000
0010
1000
0010
0100
0001
0100
0001
,
1000
0001
0010
0001
1000
0001
0100
0001
0010
0100
1000
0010
1000
0100
1000
0001
,
1000
0010
0100
0001
1000
0010
0100
0010
,
1000
0001
0100
0010
1000
0100
1000
0010
1000
0001
0010
0100
0010
0100
1000
0100
,
1000
0001
0010
0100
0010
0001
1000
1000
,
0001
0100
0010
0100
0001
0010
0100
1000
0001
0100
0010
1000
0100
1000
0001
0100
,
0010
1000
0001
0100
0010
0100
0010
1000
,
0001
0100
0010
0100
0010
1000
0100
1000
0001
0100
0001
1000
0100
0010
0001
0100
,
0010
1000
0100
1000
0010
0100
0001
0100
0001
0010
0001
0010
0100
0010
0100
1000
,
0001
0000
0010
1000
0100
0000
0001
0010
1000
0000
0100
0001
0010
0000
1000
0100
,
0001
0000
0010
1000
0100
0000
0001
0000
0010
0000
1000
0000
0100
0000
0000
0000
,
0001
0000
1000
0000
0000
0000
1000
0000
0001
0000
0000
0000
0100
0000
0010
0000
1000
0000
0000
0000
0000
0000
0001
0000
0010
0000
0100
0010
0100
0000
0010
0000
,
0001
0000
1000
0010
0100
0000
0001
0000
1000
0000
0010
0000
0200
0000
0000
0000
,
0300
0000
0000
0000
;

//---------------dance-single - Taka----------------
#NOTES:
     dance-single:
     Taka:
     Medium:
     7:
     0.403,0.396,0.204,0.142,0.000:
1000
0010
1000
0100
,
1000
0001
1000
0001
,
0100
0001
0010
0100
,
1000
0100
0010
0001
,
2000
3002
0203
0320
,
2030
0000
3010
0100
0001
1000
0001
0000
,
1000
0000
0010
0000
0100
0010
0100
0000
,
0001
0000
1000
0010
0100
0001
0010
0100
,
2000
0000
0000
0000
3001
0010
0001
0000
,
0200
0000
0000
0000
0310
1000
0100
0000
,
0020
0000
0032
0000
,
2003
0000
0000
0000
3001
0010
0100
1000
,
0002
0000
0003
1000
,
0020
0000
0030
0100
,
0002
0000
0003
1000
,
0100
0010
0100
0010
0100
1000
0100
1000
,
0010
0100
0010
0100
0010
0100
0010
0100
,
0001
0001
0100
0100
,
0010
1000
0010
1000
0010
0100
0010
0100
,
0010
0010
0100
0100
,
0001
0100
0001
0100
0001
0100
0001
0010
,
0100
1000
0001
1000
0001
0100
0010
1000
,
0000
0001
1000
0001
,
0100
0010
1000
0100
0010
0001
1000
0000
,
1001
1010
1001
0101
,
1001
0110
1001
0110
,
0011
0101
1010
0011
,
0101
1100
1010
0110
,
1000
0000
0001
0000
,
0100
0000
0010
0000
,
1000
0100
1000
0000
0001
0010
0001
0000
,
1001
0000
0110
0000
,
2000
0000
0000
0000
0000
3010
0100
0010
,
2000
0000
0000
0000
0000
3010
0100
0001
,
1000
0001
0100
0010
1000
0000
0000
0000
,
0002
0000
0000
0000
,
0103
0010
0100
0010
0100
0010
0100
0010
,
1000
1000
0010
0010
,
0100
0001
0100
0001
0100
0010
0100
0010
,
0100
0100
0010
0010
,
1000
0010
1000
0010
1000
0010
1000
0100
,
0010
0001
1000
0001
1000
0010
0100
0001
,
0000
1000
0001
1000
,
0010
0100
0001
0010
0100
1000
0001
0000
,
0010
0100
0010
0100
0010
0100
0010
0100
,
1000
1000
0010
0010
,
0100
0001
0100
0001
0100
0010
0100
0010
,
0100
0100
0010
0010
,
1000
0010
1000
0010
1000
0010
1000
0100
,
0010
0001
1000
0001
1000
0010
0100
0001
,
0000
1000
0001
1000
,
0010
0100
0001
0010
0100
1000
0001
0000
,
1001
1100
0011
1001
,
0110
0000
0001
0010
0100
0010
0001
0000
,
1000
0000
0010
0000
0100
0001
0100
0000
,
0010
0000
1000
0000
0100
0010
0001
0000
;

//---------------dance-single - Taka----------------
#NOTES:
     dance-single:
     Taka:
     Hard:
     9:
     0.548,0.618,0.018,0.204,0.355:
0000
0000
0000
0000
,
0000
0000
0000
0000
,
0000
0000
0000
0000
,
0000
0000
0000
0000
,
1000
0000
0010
0100
0001
0000
0100
0010
1000
0000
0001
1000
0100
0000
0010
0100
,
1000
0000
0010
0100
0001
0000
1000
0000
0010
0000
0100
0000
0001
0000
0000
0000
,
1000
0100
1000
0000
0001
0010
0001
0000
1000
0010
0100
0000
0001
0100
0010
0000
,
1000
0010
0100
0001
1000
0001
0100
0001
0010
0100
1000
0000
0001
0000
1000
0000
,
0020
0000
0000
0000
1030
0100
1000
0000
,
0002
0000
2003
0000
,
3020
0000
0230
0000
,
0302
0000
0000
0000
1003
0100
1000
0010
,
0200
0000
0302
0000
,
0023
0000
0230
0000
,
2300
0000
0000
0000
3010
0100
0001
1000
,
0010
1000
0010
0100
0001
0100
0001
0100
,
0001
0010
0001
0010
0001
0010
0001
0010
0001
0000
0000
0000
0001
0000
0000
0000
,
1000
0100
1000
0100
1000
0100
1000
0100
1000
0000
0000
0000
1000
0000
0000
0000
,
0001
0100
0001
0100
0001
0000
0001
0000
,
1000
0100
1000
0010
1000
0100
1000
0000
,
0001
0010
0001
0010
0001
0010
0001
0010
0100
1000
0100
1000
0100
1000
0100
1000
,
0001
0100
0001
0010
0001
1000
0010
0100
,
0001
1000
0001
0100
0010
1000
0100
0010
,
0001
1000
0010
1000
0010
0100
0001
0100
,
0001
1000
0010
1000
,
0100
0000
0001
0100
1000
0010
0100
0000
,
1100
0000
0100
0010
0001
0000
0100
0010
1000
0000
0001
0010
0100
0000
1000
0100
,
0010
0000
0001
0100
0010
0000
1000
0000
0100
0000
0010
0000
0001
0000
0000
0000
,
2000
0000
3020
0000
,
0230
0000
0302
0000
,
0103
0000
0010
0000
1000
0000
0001
0000
0100
0000
0010
1000
0010
0000
0100
0000
,
0002
0000
2003
0000
,
3020
0000
0000
0000
0130
0001
1000
0010
,
0200
0000
0000
0000
0000
0000
0000
0000
0310
0000
1000
0001
0010
0000
0100
0000
,
2000
0000
3020
0000
,
0230
0000
0302
0000
,
1003
0010
1000
0010
0100
0001
0100
0001
1000
0010
0100
0001
1000
0100
0010
0001
,
1000
0010
0100
0001
1000
0100
0010
0001
,
1000
0010
0100
0001
0010
0100
1000
0001
0100
0010
1000
0001
0100
0010
1000
0001
,
0100
0001
0100
1000
0100
0001
1000
0010
,
0100
0010
0100
0010
0100
0001
0100
0001
1000
0010
1000
0010
0100
0010
0100
0010
,
1000
0001
0100
0010
1000
0010
0100
0001
,
1000
0100
1000
0010
0100
0001
1000
0010
,
0100
0001
0100
0001
0100
0001
0100
0001
1000
0010
1000
0010
1000
0010
1000
0010
,
0100
0001
1000
0010
0100
0001
1000
0010
,
0100
0001
0010
0001
0010
0100
1000
0100
,
1000
0001
0100
0001
0100
0010
1000
0100
,
0010
0001
1000
0010
0100
0001
1000
0010
,
0100
0001
0100
0001
1000
0010
1000
0100
,
0010
0100
1000
0001
1000
0100
1000
0010
,
1000
0001
0100
0010
1000
0001
0010
0001
,
1000
0010
1000
0010
0100
0001
0100
0001
,
1000
0000
0001
0010
0001
0000
1000
0100
1000
0000
0010
0100
0010
0000
1000
0010
,
1000
0000
0001
0100
0010
0000
1000
0000
0010
0000
0100
0000
0001
0000
0000
0000
,
1000
0100
0000
0100
0010
0000
0001
0100
1000
0000
0000
0100
0001
0000
1000
0010
,
0100
0000
0010
0100
0001
0000
1000
0000
0010
0000
0100
0000
1001
0000
0000
0000
;
