#TITLE:THE FALLEN;
#SUBTITLE:;
#ARTIST:L.E.D.-G;
#TITLETRANSLIT:;
#SUBTITLETRANSLIT:;
#ARTISTTRANSLIT:;
#GENRE:;
#CREDIT:Taka;
#BANNER:thefallen-bn.png;
#BACKGROUND:thefallen-bg.png;
#LYRICSPATH:;
#CDTITLE:;
#MUSIC:fallen.mp3;
#OFFSET:-1.820;
#SAMPLESTART:0.000;
#SAMPLELENGTH:12.000;
#SELECTABLE:YES;
#DISPLAYBPM:167;
#BPMS:0.000=167.000,32.000=83.500,36.000=167.000,129.000=334.000,129.667=83.500,130.000=334.000,130.667=83.500,131.000=167.000;
#STOPS:114.000=0.340
,194.667=0.340
;
#BGCHANGES:;
#KEYSOUNDS:;

//---------------dance-single - Taka----------------
#NOTES:
     dance-single:
     Taka:
     Challenge:
     12:
     0.000,0.000,0.000,0.000,0.000:
2000
0000
0000
0000
,
3020
0000
0000
0000
,
0230
0000
0000
0000
,
0302
0000
0000
0000
,
1003
0010
0100
0010
,
1000
0001
0010
0001
,
1000
0000
0010
0100
0000
0010
1000
0000
0001
0010
0000
0100
,
1000
0010
0100
0001
1000
0010
0100
0001
0100
0010
1000
0100
,
0020
0000
0000
0000
,
0031
0100
0010
1000
0010
0100
0001
1000
0010
0100
0001
1000
,
0100
1000
0100
0010
0100
0010
0001
0010
0001
1000
0010
0100
,
0001
0100
0001
1000
0010
1000
0001
0100
0010
1000
0000
0010
,
1000
0000
0010
0100
0000
0001
1000
0100
0010
0001
0000
1000
,
0010
1000
0010
0100
0001
0100
0001
0000
1000
0001
0000
1000
,
0001
0010
0100
0010
0100
1000
0001
0000
1000
0001
0000
1000
,
0001
0010
0001
0100
0000
0010
1000
0100
0010
0100
0000
1000
,
0000
0001
0100
0010
1000
0010
0100
0001
1000
0010
0100
0001
,
1000
0010
0100
0001
0100
0010
1000
0001
0100
0010
1000
0001
,
0010
0001
0010
0100
0010
0100
1000
0100
1000
0001
0100
0010
,
1000
0010
1000
0001
0100
0001
1000
0010
0100
0001
0000
0100
,
0001
0000
0100
0010
0000
1000
0001
0010
0100
1000
0000
0001
,
0100
0001
0100
0010
1000
0010
1000
0000
0001
1000
0000
0001
,
1000
0100
0010
0100
0010
0001
1000
0000
0001
1000
0000
0001
,
1000
0100
1000
0010
0000
0100
0001
0010
0100
0010
0000
0001
,
0000
1000
0010
0100
0001
0100
0010
1000
0001
0100
0010
1000
,
0001
0100
0001
0010
,
0001
1000
0010
1000
,
0001
0000
0000
0100
0000
0000
0010
0000
0000
1000
0000
0010
,
0100
0000
0000
0000
0000
0000
0100
0000
0000
0000
0000
0000
0020
0030
0000
0000
0100
0000
0010
0000
0000
0000
0000
0000
,
0010
0000
0000
1000
0100
0010
0001
0010
0100
1000
0000
0000
,
1000
0000
0000
0001
0010
0100
1000
0100
0010
0001
0000
0000
,
0001
0000
0000
1000
0000
0010
0100
0000
0010
1000
0000
0000
,
0001
0000
0000
0000
0000
0000
0010
0000
0000
0000
0000
0001
0000
0100
0000
0000
0000
0001
1000
0000
0000
0000
0010
0000
,
0100
0000
0001
1000
0000
0010
1000
0000
0001
0010
0000
0000
,
0100
1000
0010
1010
,
1000
1100
1000
0010
,
0100
0001
0100
0020
0000
0000
0030
0000
0000
1000
0000
0000
,
0100
0000
0000
0010
0100
1000
0001
0100
0010
1000
0000
0000
,
1000
0000
0000
0010
0100
0001
1000
0010
0100
0002
0000
0100
,
0013
0000
0100
0001
1000
0010
0100
0000
0010
0100
0001
1000
,
0010
0100
0001
1000
0010
0100
0001
0010
0001
2000
0000
0100
,
0000
0000
0010
0000
0000
0001
0000
0000
0010
0000
0000
0100
,
3000
0000
1000
0000
0000
0010
0000
0000
0100
0000
0000
0001
,
0100
0000
0001
1000
0000
0010
0100
0000
0010
1000
0000
0001
,
1000
0001
0100
0010
0000
0100
0010
0000
1000
1100
0000
0000
,
0110
0000
0000
1100
0000
0000
0101
0000
0010
1010
0000
0000
,
0110
0000
0000
0101
0000
0000
0001
0000
0100
0010
1000
0001
,
0100
0010
0100
0001
1000
0100
0010
0100
1000
0001
0010
0001
,
0100
0000
0001
1000
0010
0100
0001
0100
0020
0130
0000
0000
,
0001
0100
0010
1000
,
0100
1000
0001
0100
,
0001
0010
1000
0010
,
0001
0100
1000
0001
,
1000
0100
0001
0101
,
1000
0000
0000
0001
0000
0100
0010
0000
1000
0010
0000
0100
,
0010
0000
1000
0000
0001
0000
0100
0000
0010
0000
0100
0000
0010
0100
0010
0100
0010
0100
0010
0100
0010
0100
0010
0100
,
0010
0100
0010
0100
0010
0100
0010
0100
0010
0100
0010
0100
0020
0000
0000
0000
0000
0000
0100
0000
0000
0000
0000
0000
,
1000
0000
0000
0001
0000
0000
0100
0000
0000
1030
0000
0010
,
1000
0000
0000
0001
0000
0000
0100
0000
0001
0100
0000
0000
,
0010
0010
0110
0110
,
0110
0000
0000
1100
0000
0000
1010
0000
0000
1100
0000
0010
,
0001
0000
0000
0011
0000
0000
0101
0000
0001
0100
0000
0010
,
1000
0000
0001
0100
0010
1000
0001
0000
0000
0101
0000
0000
,
0011
0000
0010
0100
0000
0000
1100
0000
0000
2000
3000
1000
,
0100
0000
0000
0100
0000
0000
0100
0010
0001
0200
0000
0300
,
0010
0000
0000
0010
0000
0010
0100
0000
0001
0100
0000
0001
,
0100
0010
1000
0100
0000
1000
0100
0000
1000
0100
0010
0001
,
0100
0000
0100
0010
0000
0100
0001
0000
0010
0001
0000
0010
,
0100
0000
0010
0100
1000
0001
0200
0000
0000
0000
0000
0000
,
0000
0000
0000
0000
,
0000
0000
0000
0000
,
0300
0000
0000
0000
;
