#TITLE:Squid VS Pantyhose;
#SUBTITLE:;
#ARTIST:m1dy vs M-PROJECT;
#TITLETRANSLIT:;
#SUBTITLETRANSLIT:;
#ARTISTTRANSLIT:;
#GENRE:;
#CREDIT:Taka;
#BANNER:squid.png;
#BACKGROUND:squid-bg.png;
#LYRICSPATH:;
#CDTITLE:;
#MUSIC:squid.ogg;
#OFFSET:0.000;
#SAMPLESTART:21.333;
#SAMPLELENGTH:12.000;
#SELECTABLE:YES;
#BPMS:0.000=180.000,60.000=90.000,61.000=180.000;
#STOPS:60.000=0.650
,184.500=1.000
;
#BGCHANGES:;
#KEYSOUNDS:;

//---------------dance-single - Taka----------------
#NOTES:
     dance-single:
     Taka:
     Challenge:
     12:
     0.841,1.000,0.186,0.084,0.680:
0000
0000
0000
0000
,
0000
0000
0000
0000
,
0000
0000
0000
0000
,
0000
0000
0000
0000
,
0000
0000
0000
0000
,
0000
0000
0000
0000
,
0000
0000
0000
0000
,
0000
0000
0000
0000
,
1100
0100
1000
0001
0010
0100
0010
1000
,
0010
0001
0010
0100
1000
1100
0100
1000
,
0110
0100
1000
0001
0010
0100
0010
0001
,
1000
0010
0100
0001
0010
0001
0110
0010
,
0101
0001
0010
0100
0010
1000
0010
0001
,
1000
0010
0100
0010
1000
0010
0100
0001
,
2002
0000
0000
0000
0000
0000
0000
3003
,
1001
0000
1000
0100
1000
0100
1000
0100
,
1000
0000
0100
0000
1000
0100
0010
0001
1000
0010
0100
0001
1000
0100
1000
0100
,
0010
0001
0010
0001
1000
0000
0010
0000
1000
0000
0100
0000
1000
0000
0100
0000
,
0010
0000
0001
0000
0010
0100
1000
0010
1000
0100
0010
0001
1000
0100
1000
0100
,
0010
0001
0010
0001
1000
0000
0010
0000
0100
0000
0010
0000
1000
0000
0100
0000
,
0010
0000
0001
0000
1000
0001
1000
0001
0100
0001
0100
0001
0010
0001
0010
0001
,
1000
0001
1000
0001
1000
0000
0010
0000
0100
0000
0010
0000
1000
0000
0010
0000
,
0100
0000
0001
0000
1000
0100
1000
0010
1000
0001
1000
0100
0010
0100
0010
0100
,
0010
0001
0010
0001
1000
0000
0100
0000
1000
0000
0100
0000
1000
0000
0100
0000
,
1000
0000
0100
0000
1000
0100
0010
0001
1000
0010
0100
0001
1000
0100
1000
0100
,
0010
0001
0010
0001
1000
0000
0010
0000
1000
0000
0100
0000
1000
0000
0100
0000
,
0010
0000
0001
0000
0010
0100
1000
0010
1000
0100
0010
0001
1000
0100
1000
0100
,
0010
0001
0010
0001
1000
0000
0010
0000
0100
0000
0010
0000
1000
0000
0100
0000
,
0010
0000
0001
0000
1000
0001
1000
0001
0100
0001
0100
0001
0010
0001
0010
0001
,
1000
0001
1000
0001
1000
0000
0010
0000
0100
0000
0010
0000
1000
0000
0010
0000
,
0100
0000
0001
0000
1000
0100
1000
0010
1000
0001
1000
0100
0010
0100
0010
0100
,
0010
0001
0010
0001
0010
0000
0001
0000
1000
0000
0001
0000
0100
0000
0010
0000
,
1000
0000
0100
0010
0001
0000
0010
0000
0100
0000
1000
0000
0010
0000
0100
0000
,
0001
0000
1000
0010
0100
0000
0010
0000
1000
0000
0001
0000
0100
0000
0001
0000
,
0010
0001
0100
0010
1000
0000
0010
0000
0100
0000
0001
0000
0100
0000
0010
0000
,
1000
0001
0100
0001
0010
0000
0001
0000
1000
0000
0010
0000
0100
0000
0001
0000
,
0100
0000
0010
1000
0100
0000
0010
0000
0001
0000
1000
0000
0010
0000
0100
0000
,
0001
0000
1000
0001
0010
0000
0001
0000
1000
0000
0010
0000
0100
0000
0010
0000
,
1000
0000
0001
0000
1000
0001
0000
1000
0001
0000
1000
0000
0001
1000
0001
1000
,
MMM1
1MMM
MMM1
1MMM
MMM1
M1MM
MMMM
MMMM
,
MMMM
MMMM
MMM1
1MMM
MM1M
M1MM
MMMM
MMMM
,
MMMM
MMMM
MM1M
1MMM
MM1M
M1MM
MMMM
MMMM
,
MMMM
MMMM
MMM1
M1MM
MM1M
1MMM
MMMM
MMMM
,
MMMM
MMMM
1MM1
MMMM
MMMM
MMMM
MMMM
MMMM
,
MMMM
MMMM
11MM
MMM0
0MMM
0MM0
MM00
0MM0
,
00M0
0M00
M011
0M00
00M0
0M00
M101
0M00
,
00M0
0000
M00M
0000
1001
0000
0000
0000
1000
0010
1000
0010
0100
0000
0010
0000
,
1000
0000
0001
0000
0010
0000
0001
0000
0010
0100
0010
0100
0010
0000
0100
1000
,
0100
1000
0100
0000
0010
0001
0010
0001
0010
0100
0010
0100
0010
0000
0001
0000
,
1000
0000
0010
0100
0001
1000
0010
0000
1000
0100
1000
0001
0100
0000
0020
0000
,
0030
1000
0100
1000
0001
0100
0010
1000
0010
0100
0001
0100
0001
0010
0100
0010
,
0100
1000
0001
0000
0100
0000
0001
0000
1000
0000
0010
0100
0010
0100
0010
0100
,
0020
0000
2030
0000
3001
0000
0100
0010
1000
0100
1000
0010
1000
0001
1000
0010
,
0100
0001
0010
0001
2000
0000
0000
0000
3001
1000
0010
0100
0001
1000
0100
0010
,
0001
0010
0100
1000
0002
0000
0000
0000
1003
0000
1000
0000
0010
0000
0010
0000
,
0100
0001
1000
0010
0100
0100
0001
0001
,
1000
0010
0100
0001
0010
0010
0100
0100
,
1000
0010
1000
0001
0100
0010
1000
0100
,
0010
0100
0001
0100
1000
0001
0010
0100
,
0010
1000
0010
0100
0010
0001
1000
0001
,
0100
0000
0010
0000
1000
0000
0010
0000
0100
0001
0100
0000
0010
0000
1000
0000
,
0100
0000
0010
0001
0010
0000
0001
0000
1000
0100
0010
0001
1000
0100
0010
0001
,
0100
0000
0010
0000
1000
0010
0000
0000
1000
0000
0001
0000
1000
0000
0001
0000
,
1000
0010
1000
0010
0100
0001
0100
0001
,
0100
0010
1000
0001
0100
0010
1000
0010
,
0100
0010
0100
0001
1000
0001
0010
0100
,
0010
0000
0001
0000
1000
0000
0010
0000
0100
0000
0001
0000
1000
0001
1000
0001
,
1000
0001
1000
0001
1000
0010
0100
0001
1000
0100
0010
0001
1000
0100
1000
0100
,
1000
0100
0010
0001
0010
0001
0010
0001
1000
0010
1000
0010
1000
0010
0100
0001
,
0100
0001
0100
0001
1000
0100
0010
0001
1000
0010
0100
0004
4000
0000
0000
0000
,
0000
0000
0000
3003
1001
0000
0000
0000
,
0000
0000
0000
0000
,
0000
1100
0000
0000
0110
0000
0000
0000
,
0000
0000
0000
0000
,
0000
0110
0011
0000
,
0000
0000
0101
0000
,
0000
0000
1001
0000
,
0110
0000
1000
0001
,
0200
0020
0000
0000
,
0330
0000
0000
0000
;

//---------------dance-single - Mecha Kaori----------------
#NOTES:
     dance-single:
     Mecha Kaori:
     Edit:
     13:
     -1.000,-1.000,-1.000,-1.000,-1.000:
0000
0000
0000
0000
,
0000
0000
0000
0000
,
0000
0000
0000
0000
,
0000
0000
0000
0000
,
0000
0000
0000
0000
,
0000
0000
0000
0000
,
0000
0000
0000
0000
,
0000
0000
0000
0000
,
1000
0000
0001
0100
0001
0000
0100
0010
0100
0000
0001
1000
0001
0000
0100
0000
,
0001
0000
1000
0010
1000
0000
0010
0100
0010
0000
1000
0001
1000
0000
0010
0000
,
1000
0000
0100
0010
0001
0000
0010
0100
1000
0000
0010
0100
0001
0000
1000
0000
,
0001
0000
0100
0010
0100
0000
0010
1000
0100
0000
0010
0001
1000
0000
0001
0000
,
1000
0000
0100
0001
0100
0000
1000
0010
1000
0000
0001
0100
0001
0000
1000
0000
,
0001
0000
0100
1000
0100
0000
0001
0010
0001
0000
1000
0100
1000
0000
0010
0000
,
2000
0000
0000
0000
,
3001
0000
1000
0100
0010
0001
0100
0010
,
1000
0000
0100
0000
0010
0000
0001
0000
0100
0001
0100
0000
0001
0000
0010
0000
,
0100
1000
0100
0010
0100
1000
0010
0100
,
0010
0000
1000
0001
1000
0000
0010
0000
0100
0000
0001
0000
1000
0100
0010
0001
,
0000
0001
0010
0100
1000
0000
0010
0000
0100
0000
0001
0000
0010
0000
0001
0000
,
0100
0000
0010
0000
1000
0000
0010
0000
1000
0001
0100
0000
0010
0000
1000
0000
,
0001
0000
1000
0000
0010
0000
0100
0000
1000
0000
0100
0000
0010
0000
1000
0010
,
0100
0001
0100
0010
0100
0000
0100
0001
0000
0001
1000
0000
0001
0010
0100
1000
,
0000
1000
0100
0010
0001
0000
0100
0000
0010
0000
1000
0000
0100
0000
1000
0000
,
0010
0000
0100
0000
0001
0000
0100
0000
0010
1000
0100
0000
1000
0000
0010
0000
,
0100
0001
0100
0001
0100
0000
0010
1000
0010
0000
1000
0000
0001
0000
0100
0000
,
1000
0000
0100
0000
0001
0000
1000
0000
0001
0000
0010
0000
0001
0010
0100
1000
,
0000
1000
0100
0010
0001
0000
0110
0000
0100
0000
0101
0000
0001
0000
1001
0000
,
1100
1000
0010
0110
0101
0001
0100
0010
,
1000
0100
1000
0100
1000
0000
0010
0100
0010
0000
0100
0001
0100
0000
0010
1000
,
0010
0000
1000
0010
0200
0000
0000
0000
0000
0000
0000
0000
0000
0000
0000
0000
,
0310
0101
0110
0101
,
0100
0000
0001
0100
0001
0000
0000
0000
0110
0000
0000
0000
1010
0000
0000
0000
,
1000
0000
0010
0100
0010
0000
0000
0000
0110
0000
0000
0000
1001
0000
0000
0000
,
1000
0000
0010
0100
0010
0000
0000
0000
1100
0000
0000
0000
0101
0000
0000
0000
,
1000
0000
0001
1000
0010
0000
0000
0000
1010
0000
0000
0000
0101
0000
0000
0000
,
0001
0000
0100
0010
0100
0000
0000
0000
1100
0000
0000
0000
1010
0000
0000
0000
,
1000
0000
0100
0010
0001
0000
0000
0000
0011
0000
0000
0000
0101
0000
0000
0000
,
0100
0000
0010
1000
0100
0000
0010
0000
0001
0000
0100
0000
0010
0000
1000
0000
,
0100
0000
0010
0001
4000
0400
0000
0000
0000
0000
0000
0000
0000
0000
0000
0000
,
0000
0000
0000
0000
0300
0004
0000
0000
0000
0000
0000
0000
0000
0000
0000
0000
,
0000
0000
0000
3000
0400
0000
0000
0000
0000
0000
0000
0000
0000
0000
0000
0000
,
0000
0000
0000
0300
0040
0000
0000
0000
0000
0000
0000
0000
0000
0000
0000
0000
,
0000
0000
0000
0000
0003
0400
0000
0000
0000
0000
0000
0000
0000
0000
0000
0000
,
0000
0000
0000
0030
1300
0100
1000
0100
1000
0100
1000
0100
1000
0100
1000
0100
,
1000
0100
1000
0100
1000
0100
0010
0001
1000
0100
0010
0001
1000
0100
0010
0001
,
1000
0000
0000
0000
0000
0000
MMMM
0000
0000
0000
0000
0000
0000
0000
0000
0000
0000
0000
0000
0000
0000
0000
0000
0000
1000
0000
0100
0000
0010
0000
0001
0000
0000
0010
0000
0000
0001
0000
0000
0000
0000
0000
0100
0000
0000
0010
0000
0000
,
1000
0000
0100
0000
0010
0001
0100
0000
0001
0100
0010
0000
2000
0000
3010
0100
,
0001
0000
0010
0000
0001
0000
0010
0000
0000
0001
0000
0000
0100
0000
0000
0010
0000
0000
0100
0000
0000
0010
0000
0000
1000
0000
0000
0000
0000
0000
0100
0000
0000
0000
0000
0000
0010
0000
0100
0000
0010
0000
0100
0000
0000
0010
0000
0000
,
0001
0000
1000
0010
1000
0000
0001
0000
0100
0010
0100
0010
0100
0010
4000
0000
,
3100
0000
1000
0000
0100
0000
1000
0000
0100
0000
1000
0000
0100
0000
0000
1000
0000
0000
0100
0000
0000
1000
0000
0000
0001
0000
0000
0100
0000
0000
0001
0000
0000
0000
0000
0000
1000
0000
0100
0000
0010
0000
0001
0000
0000
0000
0000
0000
,
1000
0000
0100
0000
1000
0100
1000
0000
0100
0000
0000
0000
0010
0000
0000
0000
0001
0000
0000
0000
0010
0000
0100
0000
1000
0000
0100
0000
0010
0000
0001
0000
,
1000
0000
0001
0000
0400
0000
0000
0000
0310
0000
1000
0000
0010
0100
0010
0100
0010
0000
0000
0000
1000
0000
0001
0000
0100
0000
0001
0000
4000
0000
0000
0000
,
3100
0000
0010
0000
0001
0000
0000
0000
0200
0000
0000
0000
0000
0000
0000
0000
0310
1000
0010
0000
1000
0000
0100
0000
0010
0000
0001
0000
1000
0000
0100
0000
,
0010
0001
1000
0010
0200
0000
0000
0000
0301
0000
0010
0000
0100
0000
1000
0000
,
0010
0000
0100
0000
0010
0000
1000
0000
0100
0000
0010
0000
0001
1000
0001
0000
,
1000
0010
0100
0001
0010
0100
0010
0001
,
0100
0000
0010
0000
1000
0000
0001
1000
0001
0000
0100
0000
0010
0000
1000
0000
,
0001
0100
0001
0100
0010
1000
0010
1000
0001
0000
0001
0000
1000
0000
1000
0000
,
0010
0100
0010
0100
0010
0100
0010
0100
0001
0000
0001
0000
1000
0100
1000
0000
,
0010
0000
0100
0000
0001
0000
0100
0000
0010
1000
0010
0000
0100
0000
0001
0010
,
0001
0000
0000
0000
0000
0000
1000
0000
0000
0010
0000
0000
1000
0000
0000
0000
0000
0000
0002
0000
0000
0000
0000
0000
1003
0000
0100
0000
0010
0000
0001
0000
0000
1000
0000
0000
0100
0000
0000
0010
0000
0000
0001
0000
0000
1000
0000
0000
,
0100
0000
0010
0000
0001
0000
1000
0000
0200
0000
0000
0000
1300
0000
0000
0100
0000
0000
0100
0000
0000
0100
0000
0000
,
0100
0000
0010
0000
0001
0000
1000
0000
0010
0100
0010
0100
0010
1000
0010
0000
,
1000
0000
0100
0000
0010
0001
0010
0100
1000
0000
0001
0100
0001
0000
1000
0000
,
0001
0100
0001
0010
0001
0100
0100
0100
,
0100
0000
0000
0000
0000
0000
0100
0000
0000
0000
0000
0000
0100
0000
0000
0000
0000
0000
0010
0000
0000
0000
0000
0000
1000
0000
0001
0000
1000
0000
0001
0000
0000
1000
0000
0000
0001
0000
0000
1000
0000
0000
0001
0000
0000
1000
0000
0000
,
0001
1000
0001
1000
0001
1000
0001
1000
0010
0100
0010
0100
0001
0100
0001
0100
,
0010
1000
0010
1000
0100
1000
0100
1000
0001
0010
0100
1000
0010
0100
0001
0010
,
0100
0010
0001
0010
0100
1000
0100
0010
0002
0000
0000
0000
0000
0000
0000
0000
,
0000
0000
0000
0000
0000
0000
0000
0000
1003
0000
0010
1000
0010
0000
1000
0100
,
1000
0000
0100
0010
0002
0000
1003
0000
0001
0000
0100
0001
0100
0000
0010
0100
,
0010
0000
1000
0001
2000
0000
3001
0000
1000
0000
0010
1000
0010
0000
1000
0100
,
1000
0000
0001
0100
0020
0000
1030
0000
0010
0000
0100
0010
1000
0000
0010
1000
,
0100
0000
0010
0001
0200
0000
0310
0000
0100
0000
0001
0010
0100
0000
1000
0010
,
0100
0000
0001
0010
0200
0000
1300
0000
0100
0000
0010
0100
1000
0000
0100
1000
,
0001
0000
0100
0010
1000
0000
0001
0100
0001
0000
0100
0001
1000
0000
0010
1000
,
0010
0000
0100
0001
0100
0000
0010
1000
0010
0000
0100
0001
0100
0000
0001
0000
,
1000
0000
0000
0000
0000
0000
0000
0000
0000
0000
0000
0000
0001
0000
0000
0000
0000
0000
0000
0000
0000
0000
0000
0000
1000
0000
0000
0000
0000
0000
0000
0000
0000
0000
0000
0000
0001
0000
0000
0000
0000
0000
0000
0000
0000
0000
0000
0000
1000
0000
0000
0000
0000
0000
0000
0000
0001
0000
0000
0000
0000
0000
0000
0000
1000
0000
0000
0000
0000
0000
0000
0000
0001
0000
0000
0000
0000
0000
1000
0000
0000
0000
0000
0000
0001
0000
0000
0000
0000
0000
2000
0000
0000
0000
0000
0000
0002
0000
0000
0000
0000
0000
0000
0000
0000
0000
0000
0000
0000
0000
0000
0000
0000
0000
0000
0000
0000
0000
0000
0000
0000
0000
0000
0000
0000
0000
0000
0000
0000
0000
0000
0000
0000
0000
0000
0000
0000
0000
0000
0000
0000
0000
0000
0000
0000
0000
0000
0000
0000
0000
0000
0000
0000
0000
0000
0000
0000
0000
0000
0000
0000
0000
0000
0000
0000
0000
0000
0000
0000
0000
0000
0000
0000
0000
0000
0000
0000
0000
0000
0000
0000
0000
0000
0000
0000
0000
0000
0000
0000
0000
0000
0000
,
0000
0000
3003
0000
;
