#TITLE:Cherokee;
#SUBTITLE:;
#ARTIST:xxdbxx;
#TITLETRANSLIT:;
#SUBTITLETRANSLIT:;
#ARTISTTRANSLIT:;
#GENRE:;
#CREDIT:Taka;
#BANNER:;
#BACKGROUND:;
#LYRICSPATH:;
#CDTITLE:;
#MUSIC:cherokee.mp3;
#OFFSET:-0.260;
#SAMPLESTART:100.017;
#SAMPLELENGTH:12.000;
#SELECTABLE:YES;
#BPMS:0.000=136.000;
#STOPS:;
#BGCHANGES:;
#KEYSOUNDS:;

//---------------dance-single - Taka----------------
#NOTES:
     dance-single:
     Taka:
     Challenge:
     10:
     0.701,0.763,0.033,0.115,0.845:
0000
0000
0000
0000
,
0000
0000
0000
0000
,
0000
0000
0000
0000
,
0000
0000
0000
0000
,
1000
0000
0001
0000
0100
0010
0000
0100
0001
0000
1000
0001
0000
0100
0001
0000
,
0001
0000
1000
0000
0010
0100
0000
0010
1000
0000
0001
1000
0000
0010
1000
0000
,
1000
0000
0001
0000
0100
0010
0000
0100
0001
0000
1000
0001
0000
0100
0001
0000
,
1000
0000
0001
0000
0100
0010
0000
0100
0001
0000
1000
0001
0000
0100
0001
0000
,
2000
0000
0000
0000
3001
0010
0100
1000
0002
0000
0000
0000
1003
0000
0000
0000
,
0002
0000
0000
0000
1003
0100
0010
0001
1000
0000
0001
0000
0100
0001
0000
0100
,
0020
0000
0000
0000
1030
0100
1000
0010
1000
0000
0001
0000
0100
0010
0000
1000
,
0010
0000
0000
0000
0100
0010
0100
1000
0100
0000
0001
0010
0100
0010
0001
0000
,
1100
0000
0001
0000
0100
0000
0010
0000
0100
0000
0001
0000
1000
0000
0000
0100
,
0000
0000
0010
0000
0000
0100
0000
0000
1000
0000
0100
0000
0001
0000
0100
1000
,
0000
0000
0010
0000
0100
0000
0010
0000
1000
0000
0010
0000
1000
0000
0000
0001
,
0000
0000
0100
0000
0000
0001
0000
0000
0100
0000
0010
1000
0000
0100
0010
0100
,
0000
0000
1000
0000
0100
0000
0010
0000
0100
0000
1000
0000
0001
0000
0000
0010
,
0000
0000
0001
0000
0000
1000
0000
0000
0001
0000
0100
0000
0001
0000
0000
0100
,
0000
0000
0010
0000
1000
0000
0100
0000
0001
0000
0100
0000
1000
0000
0000
0001
,
0000
0000
0100
0000
0000
0010
0000
0000
1000
0000
0001
0010
0000
0100
0010
0100
,
0000
0000
0010
0000
0100
0000
0010
0000
1000
0000
0010
0000
0001
0000
0000
0100
,
0000
0000
0010
0000
0000
0001
0000
0000
0010
0000
1000
0000
0010
0000
0000
0100
,
0000
0000
0010
0000
0100
0000
0001
0000
0100
0000
0001
0000
1000
0000
0000
0010
,
0000
0000
1000
0000
0000
0010
0000
0000
0100
0000
0001
0010
0000
0100
0010
0100
,
0000
0000
0010
0000
0100
0000
0010
0000
0100
0000
1000
0000
0001
0000
0000
0010
,
0000
0000
0100
0000
0000
0010
0000
0000
0001
0000
0010
0000
1000
0000
0010
0001
,
0000
0000
0100
0000
0010
0000
0100
0000
0001
0000
0100
0000
0001
0000
0000
1000
,
0000
0000
0010
0000
0000
1000
0000
0000
0010
0000
0100
0001
0000
0010
0100
0010
,
0000
0000
0001
0010
0001
0100
0001
0010
0001
0000
0100
0000
0001
0010
0000
0100
,
0000
0000
1000
0100
1000
0000
0001
0000
0100
0000
0010
0000
1000
0000
0001
0010
,
0000
0000
0100
0010
0100
0000
1000
0000
0001
0000
0100
0000
0010
1000
0000
0001
,
0000
0000
1000
0000
0010
0000
0100
0000
0001
0010
0000
0100
0000
1000
0100
0000
,
0000
0000
0100
0000
1000
0000
0010
0000
0100
0000
0001
0000
1000
0010
0000
0100
,
0000
0000
0010
0000
1000
0000
0001
0000
0010
0000
0001
0000
1000
0000
0010
0100
,
0000
0000
0010
0000
1000
0000
0100
0000
0010
0000
0100
0000
1000
0010
0000
0100
,
0000
0000
0001
0000
0010
0000
0100
0000
1000
0010
0000
0100
0000
0001
1000
0000
,
0000
0000
M000
0000
00M0
0000
0M00
0000
000M
M000
0000
00M0
0000
M000
000M
0000
,
1000
0001
0100
0010
1000
0100
0010
0100
1000
0000
0010
0000
0100
0000
0001
0010
,
0001
0010
0100
0000
1000
0000
1000
0010
0100
0001
1000
0100
1000
0100
0010
0001
,
1000
0100
0010
0100
1000
0100
0010
0001
1000
0000
0001
0000
0010
0000
0100
0010
,
0001
1000
0100
0010
0000
0000
0100
1000
0010
0100
0001
1000
0001
0100
0010
1000
,
0001
1000
0010
0100
0001
0010
0100
0010
0001
0000
0100
0000
0010
0000
1000
0100
,
1000
0100
0010
0000
0001
0000
0001
0100
0010
1000
0001
0010
0001
0010
0100
1000
,
0001
0010
0100
0010
0001
0010
0100
1000
0001
0000
1000
0000
0100
0000
0010
0100
,
1000
0001
0010
0100
0000
0000
0010
0001
0100
0010
1000
0001
1000
0010
0100
0010
,
0100
0001
1000
0100
0010
0100
1000
0010
0100
0000
0001
0000
0010
0000
0001
1000
,
0010
0100
0001
0010
0100
0000
0000
1000
0100
0010
0100
1000
0100
0001
0100
1000
,
0100
0010
0001
1000
0001
0100
0010
1000
0001
0000
1000
0000
0010
0000
0100
0000
,
0001
0010
0001
0100
0000
0000
0001
0010
0000
0100
1000
0000
0001
0100
0010
1000
,
0010
0100
0001
0000
0000
1000
0000
0100
0000
0001
0100
0000
0000
1000
0100
1000
,
0010
0100
0001
0000
1000
0100
0010
0100
0000
0010
0001
0000
0100
0000
0001
0000
,
1000
0010
0000
0100
0001
0000
1000
0100
1000
0100
0000
0010
0001
0000
1000
0000
,
0020
0000
0230
0000
,
0302
0000
0000
0000
0000
0000
0013
0200
,
0000
0000
0000
2300
0000
0000
3001
0020
,
0000
0000
0000
0000
0130
0000
0000
2000
,
3002
0203
0320
1030
,
1001
0000
1000
0100
1000
0010
1000
0100
1000
0000
0010
0000
1000
0100
0000
0010
,
0000
0000
0001
0010
0001
0000
1000
0000
0010
0000
0100
0000
0001
0000
1000
0100
,
0000
0000
0010
0100
0010
0000
0001
0000
1000
0000
0010
0000
0100
0001
0000
1000
,
0000
0000
0001
0000
0100
0000
0010
0000
1000
0100
0000
0010
0000
0001
0010
0000
,
1001
0000
1000
0100
1000
0010
1000
0100
1000
0000
0010
0000
1000
0100
0000
0010
,
0000
0000
0001
0010
0001
0000
1000
0000
0010
0000
0100
0000
0001
0000
1000
0100
,
0000
0000
0010
0100
0010
0000
0001
0000
1000
0000
0010
0000
0100
0001
0000
1000
,
0000
0000
0001
0000
0100
0000
0010
0000
1000
0100
0000
0010
0000
0001
0010
0000
,
1001
0000
1000
0010
0100
0001
0100
0010
1000
0000
0001
0000
0100
0010
0000
1000
,
0000
0000
0100
0010
0100
0000
1000
0000
0001
0000
0010
0000
0001
0000
0100
0010
,
0000
0000
1000
0000
0001
0000
1000
0000
0001
0000
0100
0000
0010
1000
0000
0001
,
0000
0000
1000
0000
0010
0000
0100
0000
0001
0000
0100
0000
0010
1000
0000
0001
;
