#TITLE:B4U;
#SUBTITLE:(BEMANI FOR YOU REMIX);
#ARTIST:Remixed by DJ Yoshitaka;
#TITLETRANSLIT:;
#SUBTITLETRANSLIT:;
#ARTISTTRANSLIT:;
#GENRE:;
#CREDIT:Taka;
#BANNER:b4u-bn.png;
#BACKGROUND:b4u-bg.png;
#LYRICSPATH:;
#CDTITLE:;
#MUSIC:B4U.mp3;
#OFFSET:-0.100;
#SAMPLESTART:100.000;
#SAMPLELENGTH:12.000;
#SELECTABLE:YES;
#DISPLAYBPM:170;
#BPMS:0.000=170.000,33.000=340.000,36.000=170.000,128.000=340.000,131.500=510.000,138.000=170.000,158.000=340.000,162.500=170.000,234.000=340.000,238.000=170.000,276.000=510.000,282.000=170.000;
#STOPS:33.000=0.180
,33.500=0.180
,34.000=0.160
,34.500=0.160
,35.000=0.100
,35.500=0.100
,128.000=0.180
,128.500=0.180
,129.000=0.180
,129.500=0.180
,130.000=0.100
,130.500=0.100
,131.000=0.480
,158.000=0.180
,159.000=0.180
,160.000=0.160
,161.000=0.100
,161.500=0.100
,162.000=0.100
,234.000=0.200
,235.000=0.180
,236.000=0.080
,236.500=0.080
,237.000=0.120
;
#BGCHANGES:;
#KEYSOUNDS:;

//---------------dance-single - Taka----------------
#NOTES:
     dance-single:
     Taka:
     Hard:
     9:
     0.000,0.000,0.000,0.000,0.000:
0000
0000
0000
0000
,
2000
3002
0000
0000
,
0000
0000
0000
0000
0000
0000
0000
2003
,
3020
0230
0302
0000
0000
2003
0000
0000
,
0000
0000
0000
0000
0000
3000
0020
0000
,
0230
0302
0000
0000
,
0000
0000
0000
0000
0003
0000
0000
0200
,
0320
2030
3200
0000
0000
0000
0000
0000
,
0000
0300
0010
0001
1000
0010
0100
0001
,
1000
0010
0100
0010
1000
0001
0010
0100
,
1000
0001
0010
0001
1000
0010
1000
0010
,
0100
0001
0010
0100
1000
0010
0100
0010
,
1000
0001
0010
0100
0010
0001
1000
0010
,
1000
0100
0010
0100
1000
0001
1000
0010
,
0100
0001
1000
0001
0100
0001
0010
0100
,
1000
0100
1000
0100
0010
0001
0010
0001
1000
0010
1000
0010
0100
0001
0100
0001
,
1000
0010
0000
0100
0001
1000
0010
0000
,
0010
0100
0010
0001
0010
1000
0010
0001
,
0010
1000
0010
0100
0001
1000
0010
0100
,
0010
0100
0001
1000
0010
0100
0010
1000
,
0001
0001
0000
0200
0000
0310
0010
0010
,
1000
0010
1000
0100
1000
0010
0100
0001
,
1000
0001
0100
0010
1000
0100
0001
0100
,
1000
0001
0010
1000
0010
0001
1000
0010
,
0100
0100
0000
0010
0000
0100
0100
0001
,
1000
0010
1000
0001
0010
0001
1000
0010
,
0100
0010
0100
0001
0100
0001
1000
0010
,
1000
0010
1000
0001
0010
0001
1000
0010
,
0100
0010
0100
0001
0100
0001
1000
0010
,
0100
0001
1000
0100
0001
0100
0001
0100
,
1000
0010
1000
0001
1000
0010
0100
0001
,
0010
0000
0000
0010
0000
0000
0010
0000
0000
0010
0000
0000
0001
0000
1000
0000
,
0010
0100
0001
1000
0010
0100
0001
2002
,
0000
0000
0000
0000
,
0000
0000
0000
3003
1000
0100
1000
0100
,
0010
0001
0010
0001
1000
0010
1000
0001
,
0100
0010
1000
0001
0100
0010
0100
0001
,
1000
0010
0100
0001
1000
0010
0100
0001
,
1000
0010
0001
0010
1000
0001
0100
0001
,
0100
0010
1000
0010
1000
0000
0010
0000
,
0100
0000
0001
0100
0010
1000
0010
0100
,
0001
1000
0010
0100
0010
1000
0100
0010
,
0001
0200
0000
0000
0301
0010
0001
0010
,
0100
1000
0100
1000
0001
0100
0001
1000
,
0010
0100
0001
1000
0010
0100
0010
1000
,
0001
0100
0010
1000
0001
0100
0010
1000
,
0001
0100
1000
0100
0001
1000
0010
1000
,
0010
0100
0001
0100
0001
0000
0100
0000
,
0010
0000
1000
0010
0100
0001
0100
0010
,
1000
0001
0100
0010
0100
0001
0010
0100
,
1000
0010
0000
0000
0100
0000
0001
0000
,
1000
0010
0100
0010
,
1000
0001
0100
0010
,
1000
0001
0100
0001
,
1000
0010
1000
0010
,
1000
0010
0100
0001
,
0100
0000
0001
0000
1000
0010
1000
0010
,
0100
0001
0100
0001
1000
0010
1000
0010
,
0100
0001
0100
0001
1000
0000
0010
0000
,
0100
0100
0002
0000
1003
0010
1000
0010
,
0100
0001
0100
0001
1000
0100
0001
1000
,
0010
0001
0010
0001
1000
0010
1000
0010
,
0100
0001
0100
0001
1000
0010
0100
0001
,
1000
0100
0010
0001
1000
0010
1000
0010
,
0100
0001
0100
0010
1000
0001
0100
0001
,
0100
0010
1000
0010
1000
0001
0100
0010
,
1000
0000
0001
0000
0100
0000
0010
0000
1000
0000
0000
1000
0000
0000
1000
0000
,
0000
1000
0000
0000
0001
0000
0001
0000
0100
0000
0000
0100
0000
0000
0100
0000
,
0000
0100
0000
0000
0010
0000
0010
0000
1000
0000
0000
0000
0000
0000
0000
0000
,
2002
0000
0000
0000
,
3003
0000
0000
0000
1000
0010
0100
0010
,
1000
0001
0010
0100
1000
0001
0010
0001
,
1000
0010
1000
0010
0100
0001
0010
0100
,
1000
0010
0100
0010
1000
0001
0010
0100
,
0010
0001
1000
0010
1000
0100
0010
0100
,
1000
0001
1000
0010
0100
0001
1000
0001
,
0100
0000
0001
0000
0010
0000
0100
0000
1000
0100
1000
0100
0010
0001
0010
0001
,
1000
0010
1000
0010
0100
0001
0100
0001
1000
0000
0010
0000
0100
0000
0001
0000
,
1000
0020
0000
0000
0130
0001
0100
1000
,
0100
0010
0100
0001
0100
0010
1000
0001
,
0100
0010
1000
0001
0100
0010
0100
0001
,
1000
0010
1000
0001
0100
0010
1000
0001
,
0100
0001
0100
0010
0100
1000
0100
0010
,
0100
0001
0100
0010
1000
0001
0100
0010
,
1000
0001
0100
0010
0100
0001
1000
0010
,
1000
0001
0100
0010
1000
0001
0100
0001
,
0100
0010
1000
0200
0000
0000
0000
0000
,
0000
0000
0000
0000
0000
M000
M300
0000
;

//---------------dance-single - Taka----------------
#NOTES:
     dance-single:
     Taka:
     Challenge:
     11:
     0.000,0.000,0.000,0.000,0.000:
0000
0000
0000
0000
,
2000
0000
0000
0000
3001
0000
0000
0100
0000
0000
0001
0000
0000
1000
0000
0000
,
0010
0000
0100
0000
0010
0000
0000
1000
0000
0000
0001
0000
0010
0000
2000
0000
,
3020
0000
0032
0000
2003
0000
3000
0002
0000
0003
1000
0000
0000
0010
0100
0000
,
0001
0000
1000
0000
0010
0000
0000
0100
0001
0000
1000
0000
0010
0000
0010
0000
,
0100
0100
0022
0033
0202
0000
0000
0000
,
0000
0303
2002
0000
0000
0000
3003
0200
,
0320
0032
0203
0000
0000
0000
0000
0000
,
0000
0300
0010
1000
0001
0100
0010
1000
,
0001
0100
0001
0010
0000
0000
0100
1000
0001
0100
0000
0000
0010
1000
0100
0010
,
0000
0000
0100
0010
0100
0010
0001
0000
1000
0010
1000
0100
1000
0001
0100
0010
,
1000
0010
0100
0001
0000
0000
0001
0010
0100
1000
0000
0000
0010
0100
0001
0010
,
0100
1000
0010
0100
0001
1000
0010
0100
0001
1000
0100
0010
0001
0010
0100
0000
,
1000
0100
0010
0100
0000
0000
0010
0001
1000
0100
0000
0000
0010
0001
0100
0010
,
0000
0000
1000
0001
1000
0010
1000
0100
0010
0001
1000
0010
0100
0010
1000
0001
,
0100
0010
1000
0100
0010
0000
0001
0100
0001
0100
0010
1000
0010
1000
0001
0100
,
0010
1000
0100
0000
0000
0000
0010
0000
0001
0000
1000
0000
0010
0000
0000
0000
,
0010
0100
0010
0001
0010
1000
0010
0001
,
0010
1000
0010
0100
0001
1000
0010
0100
,
0010
0100
0001
1000
0010
0100
0010
1000
,
0001
0001
0000
0200
0000
0310
0010
0010
,
1000
0010
1000
0100
1000
0010
0100
0001
,
1000
0001
0100
0010
1000
0100
0001
0100
,
1000
0001
0010
1000
0010
0001
1000
0010
,
0100
0100
0000
0010
0000
0100
0100
0100
,
0001
0100
0001
0100
0010
1000
0010
1000
0001
0010
0001
0010
0100
1000
0100
1000
,
0001
0100
0010
1000
0001
1000
0010
0100
,
0001
1000
0001
1000
0001
0010
0001
0010
0001
1000
0010
1000
0010
1000
0100
1000
,
0100
0010
0001
1000
0001
1000
0010
0100
,
0001
0100
0010
1000
0001
0010
0001
0010
0001
0010
0100
1000
0010
1000
0010
1000
,
0000
0010
1000
0001
1000
0010
0100
0001
,
0010
0000
0000
0010
0000
0000
0010
0000
0000
0010
0000
0000
0001
0000
1000
0000
,
0010
0100
0001
1000
0010
0100
0001
2002
,
0000
0000
0000
0000
,
0000
0000
0000
0000
0000
0000
3003
0000
1000
0100
1000
0000
0010
0000
0010
0000
,
0100
0010
0100
0000
0001
0000
0001
0000
1000
0010
1000
0010
0100
0001
0100
0001
,
0100
0010
1000
0001
0100
0010
0100
0001
,
1000
0000
0010
0000
0100
0000
0001
0000
1000
0100
0000
0010
0001
0000
1000
0010
,
0000
0100
0001
0000
1000
0000
0010
0000
1000
0000
0001
0000
0100
0000
0001
0000
,
1000
0100
0010
0100
1000
0000
0010
0000
,
0100
0000
0000
0000
0001
0000
0100
0000
0010
0000
1000
0100
0000
0010
0000
0001
,
0000
1000
0000
0010
0100
0000
0001
0000
0010
0000
0001
0000
1000
0000
0100
0000
,
1000
0000
0200
0000
0000
0000
0000
0000
1300
0010
1000
0010
0100
0001
0100
0001
,
1000
0001
0010
0001
1000
0010
1000
0001
,
0100
0000
0010
0000
1000
0000
0001
0000
1000
0100
1000
0100
0010
0001
0010
0001
,
0000
1000
0000
0010
0100
0000
0001
0000
1000
0000
0010
0000
0100
0000
0001
0000
,
1000
0000
0010
0000
0001
0000
0010
0000
1000
0010
0000
0100
0000
0001
0000
0100
,
0000
0100
0000
0010
1000
0000
0010
0000
1000
0000
0010
0100
0001
0000
1000
0100
,
0010
0000
0001
0100
0010
0000
0100
0000
0010
1000
0010
1000
0010
0100
0010
0100
,
0001
1000
0010
0100
0010
1000
0100
0010
0001
0000
1000
0000
0100
0000
0010
0000
,
0001
0100
0000
0000
0010
0010
1000
1000
,
0001
0001
0100
0100
0010
0010
0100
0100
,
0001
0001
1000
1000
0010
0010
0100
0100
,
0001
0001
1000
1000
0010
0010
1000
1000
,
0001
0001
0100
0100
0001
0001
0100
0100
,
0001
0001
0100
0100
0010
0010
1000
1000
,
0010
0010
1000
1000
0001
0100
0001
0100
,
0010
1000
0010
1000
0001
0100
0001
0100
,
0010
1000
0010
1000
0001
0000
0100
0000
,
0010
0010
2000
0000
3001
0100
0001
0100
,
0010
1000
0010
1000
0001
0010
1000
0001
,
0100
1000
0100
1000
0001
0100
0001
0100
,
0010
1000
0010
1000
0001
0100
0010
1000
,
0001
0010
0100
1000
0001
0100
0001
0100
,
0010
1000
0010
0100
0001
1000
0010
1000
,
0010
0100
0001
0100
0001
1000
0010
0100
,
0001
0000
1000
0000
0010
0000
0100
0000
0001
0100
0000
0001
0100
0000
0001
0100
,
0000
0001
0100
0000
0001
1000
0001
0000
0100
0001
0000
0100
0001
0000
0100
0001
,
0000
0100
0001
0000
0100
0000
0100
0000
0001
0000
0000
0000
0000
0000
0000
0000
,
2002
0000
0000
0000
,
3003
0000
0000
0000
0000
0000
0000
0000
1000
0100
1000
0000
0010
0000
0010
0000
,
0100
0010
0100
0000
0001
0000
0001
0000
1000
0010
1000
0010
0100
0001
0100
0001
,
0100
0010
1000
0001
0100
0010
0100
0001
,
1000
0000
0010
0000
0100
0000
0001
0000
1000
0100
0000
0010
0001
0000
1000
0010
,
0000
0100
0001
0000
1000
0000
0010
0000
1000
0000
0001
0000
0100
0000
0001
0000
,
1000
0100
0010
0100
1000
0000
0010
0000
,
0100
0000
0000
0000
0001
0000
0100
0000
0010
0000
1000
0100
0000
0010
0000
0001
,
0000
1000
0000
0010
0100
0000
0001
0000
0010
0000
0001
0000
1000
0000
0100
0000
,
1000
0200
0300
0000
0000
1000
0010
0001
,
0010
0100
0010
1000
0010
0100
0001
1000
,
0010
0100
0001
1000
0010
0100
0010
1000
,
0001
0100
0001
1000
0010
0100
0001
1000
,
0010
1000
0010
0100
0010
0001
0010
0100
,
0010
1000
0010
0100
0001
1000
0010
0100
,
0001
1000
0010
0100
0010
1000
0001
0100
,
0001
1000
0010
0100
0001
1000
0010
1000
,
0010
0100
0001
0020
0000
0000
0000
0000
,
0000
0000
0000
0000
0000
000M
003M
0000
;
