#TITLE:reunion;
#SUBTITLE:;
#ARTIST:Tatsh;
#TITLETRANSLIT:;
#SUBTITLETRANSLIT:;
#ARTISTTRANSLIT:;
#CREDIT:;
#BANNER:bn.png;
#BACKGROUND:bg.png;
#LYRICSPATH:;
#CDTITLE:cdtitle.png;
#MUSIC:reunion.mp3;
#OFFSET:-0.210;
#SAMPLESTART:35.000;
#SAMPLELENGTH:15.000;
#SELECTABLE:YES;
#BPMS:0.000=184.000;
#STOPS:;
#BGCHANGES:;

//---------------dance-single - ----------------
#NOTES:
     dance-single:
     :
     Hard:
     13:
     0.888,1.000,0.936,0.977,0.012:
0000
0000
0000
0000
,
0000
0000
0000
0000
,
0000
0000
0000
0000
0010
0010
0010
0000
,
2000
0100
0000
0001
0000
0010
3000
0100
,
0002
0010
0000
1000
0000
0100
0003
0010
,
0200
1000
0000
0001
0000
0010
0300
1000
,
0020
0001
0000
1000
0000
0100
0030
1000
,
0100
0011
0100
1010
,
0001
1100
1000
0101
,
0001
0100
0100
1000
0010
0010
0001
0000
,
2002
0000
0000
0000
3003
0000
0000
0000
0010
0000
0001
1000
0001
0000
0000
0000
,
1000
0100
0010
0001
0100
0010
0001
0010
,
1000
0100
0010
0001
0100
0010
0001
0010
,
0100
0001
0010
0100
1000
0010
0100
1000
,
0100
0010
1000
0100
0010
0010
0010
0000
,
0001
0100
0010
1000
0100
0010
1000
0010
,
0001
0100
0010
1000
0100
0010
1000
0010
,
0100
1000
0010
0100
0001
0010
0100
0001
,
0100
0010
0001
0100
0010
0010
0010
0000
,
1000
0010
1000
0100
1000
0001
1000
0010
,
0001
0100
0001
1000
0001
0010
0001
0001
,
0010
0001
0010
0100
0010
1000
0010
0001
,
0100
0010
0100
1000
0100
0001
0100
0100
,
0001
0100
0001
0010
0001
1000
0001
0100
,
1000
0010
1000
0001
1000
0100
1000
1000
,
0100
1000
0100
0010
0100
0001
0100
1000
,
0010
0100
0010
0001
0010
1000
0010
0000
,
1100
0011
0110
1010
,
0011
1010
0101
1010
,
0110
0101
1100
0101
,
1001
1100
0101
0110
,
0011
1010
1001
0101
,
1100
0000
0110
0000
1010
0000
0011
0001
,
1100
1010
0101
0011
,
1100
0011
0101
0011
,
1100
1010
0101
1010
,
0110
0011
0101
1100
,
1010
1001
0110
1010
,
1100
0000
0101
0000
0011
0000
2002
3003
,
0010
0001
0100
0010
0001
0100
0010
0001
,
0100
0010
0001
0100
0001
0010
0100
0010
,
1000
0100
0010
1000
0100
0010
1000
0100
,
0010
1000
0100
0010
0001
0100
0010
0100
,
0001
1000
0010
0001
1000
0010
0001
1000
,
0010
0001
1000
0010
0100
0001
1000
1000
,
0010
1000
0100
0001
,
0010
0000
0001
0100
1000
0000
1001
0000
,
0020
0001
0100
1030
,
0200
1000
0010
0301
,
2000
0001
0100
3010
,
0002
1000
0100
0013
,
2000
0000
3100
0010
0001
0010
0100
0000
,
0002
0000
0103
0010
1000
0010
0100
0000
,
0020
2030
3200
0301
,
1000
0000
0010
0000
0100
0000
0001
0000
0010
0100
0010
0000
0001
1000
0001
0000
,
0010
0100
0010
0010
1000
1000
0100
0010
,
0001
0100
0100
0010
1000
1000
0001
0010
,
0001
0100
1000
0100
0001
0100
1000
0100
,
0010
1000
0010
0001
0010
0100
0101
0000
,
0010
0100
0010
0010
0001
0001
0100
0010
,
1000
0100
0100
0010
0001
0001
1000
0010
,
1000
0100
0001
0100
1000
0100
0001
0100
,
0010
0001
0010
1000
0010
0100
1100
0000
,
0001
0001
0001
0001
0001
0001
0100
0010
,
1000
1000
1000
1000
1000
1000
0101
0000
,
0010
0001
0100
0010
0100
0001
0010
0100
,
1000
0010
0100
0010
1000
0100
0011
0000
,
1000
1000
1000
1000
1000
1000
0100
0010
,
0001
0001
0001
0001
0001
0001
1100
0000
,
0010
1000
0100
0010
0100
1000
0010
0100
,
0001
0010
0100
0010
0001
0100
1010
0000
,
2200
3300
0202
0303
0220
0330
2002
3003
,
0220
0330
2002
3003
0022
0033
2020
3030
,
2002
3003
0220
0330
2002
3003
2002
3003
,
2020
3030
2200
3300
2002
3003
0202
0303
,
0022
0033
0220
0330
0202
0303
0022
0033
,
2002
3003
2020
3030
2200
3300
0220
0330
,
0022
0033
0202
0303
2002
3003
2200
3300
,
2020
3030
0220
0330
2200
3300
2020
3030
,
2002
3003
0022
0033
0202
0303
0220
0330
,
2002
3003
2002
3003
2200
3300
0220
0330
,
0220
0330
0022
0033
2002
3003
2002
3003
,
0202
0303
0220
0330
0220
0330
2020
0000
,
0000
0000
3030
0000
1000
0001
0100
0001
,
1000
0100
0010
1000
0100
0010
0001
0100
,
0001
0010
1000
0010
0100
1000
0010
0100
,
0001
0010
0100
1000
0001
0100
0010
0100
,
0001
0010
0100
1000
1001
0000
0000
0000
,
0000
0220
0000
0330
1001
0000
0000
0000
,
0000
2002
0000
3003
0110
0220
0000
0000
,
0000
0000
0000
0000
,
0000
0330
0000
0000
;

//---------------dance-single - Copied from----------------
#NOTES:
     dance-single:
     Copied from:
     Medium:
     7:
     0.609,0.674,0.534,0.517,0.000:
0000
0000
0000
0000
,
0000
0000
0000
0000
,
0000
0000
0000
0000
0010
0010
0010
0000
,
2000
0001
0001
3001
,
0002
1000
1000
1003
,
0200
0010
0010
0310
,
0020
0100
0100
0130
,
1000
0001
0100
1000
,
0001
0010
1000
0010
,
0001
0100
0001
0000
1000
0010
1000
0000
,
2002
0000
3003
0000
0010
0010
0010
0000
,
0001
0100
0010
1000
,
0001
0000
0100
0000
1000
0100
1000
0000
,
0010
0100
0001
0010
,
0010
0000
0001
0000
0100
1000
0100
0000
,
1000
0100
0010
0001
,
1000
0000
0100
0000
0001
0100
0001
0000
,
0010
0100
1000
0010
,
0010
0000
1000
0000
0100
0001
0100
0000
,
0001
0100
0001
0000
0020
0000
0031
0000
,
1000
0010
1000
0000
0200
0000
1300
0000
,
0100
1000
0100
0000
2000
0000
3010
0000
,
0010
0001
0010
0000
0002
0000
0103
0000
,
1000
0010
1000
0000
0200
0000
1300
0000
,
0001
0100
0001
0000
0020
0000
0031
0000
,
0010
0001
0010
0000
0002
0000
0103
0000
,
0100
1000
0100
0000
2000
0000
3010
0000
,
0110
0110
0110
1001
,
1001
1001
0110
0110
,
0110
1001
1001
1001
,
1100
1100
1100
0101
,
0101
0101
0011
0011
,
0011
1010
1010
1010
,
0110
0110
0110
1001
,
1001
1001
0110
0110
,
0110
1001
1001
1001
,
0011
0011
0011
1010
,
1010
1010
1100
1100
,
1100
0101
0102
1003
,
0001
0000
0100
0010
0000
0100
0010
0000
,
0100
0010
0000
0100
0001
0000
1001
0000
,
1000
0000
0100
0010
0000
0100
0010
0000
,
0100
0010
0000
0100
1000
0000
1001
0000
,
0010
0000
0001
1000
0000
0001
1000
0000
,
0001
1000
0000
0001
0100
0000
1001
0000
,
0010
0010
0100
0100
,
1000
0000
0001
1000
0001
0000
0110
0000
,
0020
0001
0100
0031
,
0200
1000
0010
1300
,
2000
0001
0100
3001
,
0002
1000
0010
1003
,
2000
0000
3100
0000
1000
0010
0100
0000
,
0002
0000
0103
0000
0001
0010
0100
0000
,
2010
3002
0203
0310
,
1000
0100
0010
0001
0010
0100
1000
0000
,
0001
0100
0001
0000
0020
0000
1030
0000
,
0100
2000
3001
0010
,
1000
0100
1000
0000
0010
0000
0001
0000
,
0100
0000
1100
0000
0001
0100
1000
0000
,
1000
0100
1000
0000
0020
0000
0031
0000
,
0100
0002
1003
0010
,
0001
0100
0001
0000
0010
0000
1000
0000
,
0100
0000
0101
0000
1000
0100
0001
0000
,
0001
0001
0001
0000
1000
0000
0100
0000
,
1000
1000
1000
0000
0001
0000
0100
0000
,
0010
0001
0010
0000
0010
0001
0010
0000
,
1000
0101
1000
0011
,
1000
1000
1000
0000
0001
0000
0100
0000
,
0001
0001
0001
0000
1000
0000
0100
0000
,
0010
1000
0010
0000
0010
1000
0010
0000
,
0001
1100
0001
1010
,
0200
0320
0130
2000
,
3002
1003
0020
0032
,
0013
0200
2300
3100
,
0020
0230
0310
0002
,
2003
3001
0200
0302
,
0103
0020
2030
3010
,
2000
3200
0301
0002
,
0203
1300
0002
0023
,
1030
2000
3020
0031
,
0200
0302
0013
0200
,
2300
3010
0002
2003
,
3001
0020
0130
2002
,
0000
0000
3003
0000
1000
0000
0001
0100
,
0000
0001
0010
0000
0001
0100
0000
0001
,
0010
0100
1000
0000
0001
0000
1000
0100
,
0000
1000
0010
0000
1000
0100
0000
1000
,
0010
0100
0001
0000
0110
0000
0000
0000
,
0000
1001
0000
0000
1001
0000
0000
0000
,
0000
0110
0000
0000
1000
2002
0000
0000
,
0000
0000
0000
0000
,
0000
3003
0000
0000
;

//---------------dance-single - Copied from Copied f----------------
#NOTES:
     dance-single:
     Copied from Copied f:
     Easy:
     6:
     0.368,0.375,0.181,0.066,0.000:
0000
0000
0000
0000
,
0000
0000
0000
0000
,
0000
0000
0020
0030
,
0000
0001
1000
0001
,
0000
1000
0001
1000
,
0000
0010
0100
0010
,
0000
0100
0010
0100
,
1000
0000
0100
0000
,
0001
0000
0010
0000
,
0100
0100
0100
0000
,
1001
0000
0020
0030
,
0001
0100
0001
1000
,
0001
0100
1000
0000
,
0110
0000
0101
0000
,
0001
0010
1000
0000
,
1000
0100
1000
0001
,
1000
0100
0001
0000
,
0110
0000
1100
0000
,
1000
0010
0001
0000
,
0001
0001
0010
0000
,
1000
1000
0100
0000
,
0100
0100
1000
0000
,
0010
0010
0001
0000
,
1000
1000
0100
0000
,
0001
0001
0010
0000
,
0010
0010
0001
0000
,
0100
0100
1000
0000
,
0010
0010
0010
0001
,
0001
0001
0100
0100
,
0100
1000
1000
1000
,
0100
0100
0100
0001
,
0001
0001
1000
1000
,
1000
0010
0010
0010
,
0100
0100
0100
1000
,
1000
1000
0010
0010
,
0010
0001
0001
0001
,
0010
0010
0010
1000
,
1000
1000
0001
0001
,
0001
0100
0200
0300
,
0001
0100
0010
0100
,
1001
0000
0100
0100
,
1000
0100
0010
0100
,
1001
0000
0100
0100
,
0001
0010
0100
1000
,
0110
0000
0010
0010
,
1000
0001
1000
0001
,
0100
0010
0000
0110
,
0010
0001
0100
0000
,
0100
1000
0010
0000
,
1000
0001
0100
0000
,
0001
1000
0010
0000
,
1000
0100
1000
0100
,
0001
0100
0001
0100
,
0010
0010
0010
0010
,
1000
0000
1001
1001
,
0100
0100
0020
0030
,
0100
1000
0001
0000
,
1000
1000
0200
0300
,
0001
0010
0101
0000
,
0100
0100
0020
0030
,
0100
0001
1000
0000
,
0001
0001
0200
0300
,
1000
0010
1100
0000
,
0001
0000
0001
0100
,
1000
0000
1000
0100
,
0010
0001
0100
0000
,
0011
0000
1010
0000
,
1000
0000
1000
0100
,
0001
0000
0001
0100
,
0010
1000
0100
0000
,
1010
0000
0011
0000
,
0100
0010
0100
0100
,
0010
0100
0001
1000
,
0001
0001
1000
0001
,
0100
1000
0100
0100
,
1000
0100
0010
0001
,
0010
0010
0001
0010
,
1000
1000
0100
0001
,
0001
0100
1000
1000
,
0010
0001
0001
0010
,
0100
0100
1000
0010
,
0010
1000
0100
0100
,
0001
0010
0010
0001
,
0000
0000
0000
0000
1000
0000
0000
0100
,
0000
0000
0010
0000
0000
0001
0000
0000
,
0110
0000
0110
0000
0001
0000
0000
0100
,
0000
0000
0010
0000
0000
1000
0000
0000
,
1001
1001
0010
0000
,
0000
1000
0000
0000
0001
0000
0000
0000
,
0000
1001
0000
0000
0010
0020
0000
0000
,
0000
0000
0000
0000
,
0000
0030
0000
0000
;

//---------------dance-single - Copied from Copied from Copied f----------------
#NOTES:
     dance-single:
     Copied from Copied from Copied f:
     Beginner:
     4:
     0.224,0.225,0.049,0.016,0.000: // measure 1
0000
0000
0000
0000
,  // measure 2
0000
0000
0000
0000
,  // measure 3
0000
0000
0000
0000
,  // measure 4
1000
0000
1000
0000
,  // measure 5
0001
0000
0001
0000
,  // measure 6
0100
0000
0100
0000
,  // measure 7
0010
0000
0010
0000
,  // measure 8
0001
0001
0000
0000
,  // measure 9
1000
1000
0000
0000
,  // measure 10
0010
0010
0000
0000
,  // measure 11
1001
0000
0000
0000
,  // measure 12
1000
0000
1000
0000
,  // measure 13
0000
0000
0001
0000
,  // measure 14
0010
0000
0010
0000
,  // measure 15
0100
0000
1001
0000
,  // measure 16
0001
0000
0001
0000
,  // measure 17
0000
0000
1000
0000
,  // measure 18
0010
0000
0010
0000
,  // measure 19
0100
0000
1001
0000
,  // measure 20
1000
0000
1000
0000
,  // measure 21
1000
0000
1000
0000
,  // measure 22
0001
0000
0001
0000
,  // measure 23
0001
0000
0001
0000
,  // measure 24
0010
0000
0010
0000
,  // measure 25
0010
0000
0010
0000
,  // measure 26
0100
0000
0100
0000
,  // measure 27
0100
0000
0100
0000
,  // measure 28
1000
1000
1000
0000
,  // measure 29
0000
0000
0001
0001
,  // measure 30
0001
0000
0000
0000
,  // measure 31
0010
0010
0010
0000
,  // measure 32
0000
0000
0100
0100
,  // measure 33
0100
0000
0000
0000
,  // measure 34
0010
0010
0010
0000
,  // measure 35
0000
0000
0100
0100
,  // measure 36
0100
0000
0000
0000
,  // measure 37
0001
0001
0001
0000
,  // measure 38
0000
0000
1000
1000
,  // measure 39
1000
0000
0000
0000
,  // measure 40
0010
0010
0010
0000
,  // measure 41
0001
0000
0100
0000
,  // measure 42
0010
0010
0010
0000
,  // measure 43
1000
0000
0100
0000
,  // measure 44
1000
1000
0000
0000
,  // measure 45
0001
0001
0000
0000
,  // measure 46
0001
0001
0001
0000
,  // measure 47
0010
0000
0010
0000
,  // measure 48
1000
1000
1000
0000
,  // measure 49
0010
0000
0010
0000
,  // measure 50
0001
0001
0001
0000
,  // measure 51
0100
0000
0100
0000
,  // measure 52
1000
1000
1000
0000
,  // measure 53
0100
0000
0100
0000
,  // measure 54
0100
0100
0000
0000
,  // measure 55
0010
0000
1001
0000
,  // measure 56
0010
0000
0100
0000
,  // measure 57
0010
0000
0100
0000
,  // measure 58
0001
0000
1000
0000
,  // measure 59
1000
0000
0001
0000
,  // measure 60
0010
0000
0100
0000
,  // measure 61
0010
0000
0100
0000
,  // measure 62
1000
0000
0001
0000
,  // measure 63
0001
0000
1000
0000
,  // measure 64
0100
0100
0100
0000
,  // measure 65
1000
0000
1000
0000
,  // measure 66
0010
0010
0010
0000
,  // measure 67
0001
0000
0001
0000
,  // measure 68
0001
0001
0001
0000
,  // measure 69
0010
0000
0010
0000
,  // measure 70
1000
1000
1000
0000
,  // measure 71
0100
0000
0100
0000
,  // measure 72
0010
0010
0000
0010
,  // measure 73
0010
0000
0100
0100
,  // measure 74
0000
0100
0100
0000
,  // measure 75
0001
0001
0000
0001
,  // measure 76
0001
0000
1000
1000
,  // measure 77
0000
1000
1000
0000
,  // measure 78
0100
0100
0000
0010
,  // measure 79
0010
0000
0001
0001
,  // measure 80
0000
0100
0100
0000
,  // measure 81
0010
0010
0000
1000
,  // measure 82
1000
0000
0001
0001
,  // measure 83
0000
0020
0000
0030
,  // measure 84
0000
0000
0001
0000
,  // measure 85
0000
0100
0000
0000
,  // measure 86
0010
0000
1000
0000
,  // measure 87
0000
0100
0000
0000
,  // measure 88
0010
0000
1001
0000
,  // measure 89
0000
0000
1001
0000
,  // measure 90
0000
0000
0200
0000
,  // measure 91
0000
0000
0000
0000
,  // measure 92
0000
0300
0000
0000
;
