#TITLE:fffff;
#SUBTITLE:;
#ARTIST:Five Hammer;
#TITLETRANSLIT:;
#SUBTITLETRANSLIT:;
#ARTISTTRANSLIT:;
#CREDIT:;
#BANNER:bn.png;
#BACKGROUND:bg.png;
#LYRICSPATH:;
#CDTITLE:cdtitle.png;
#MUSIC:fffff.mp3;
#OFFSET:-1.192;
#SAMPLESTART:35.000;
#SAMPLELENGTH:13.000;
#SELECTABLE:YES;
#BPMS:0.000=138.000;
#STOPS:;
#BGCHANGES:;

//---------------dance-single - ----------------
#NOTES:
     dance-single:
     :
     Hard:
     12:
     0.643,0.667,0.363,0.049,0.122:
0000
0000
0000
0000
,
0000
0000
0000
0000
,
0010
0001
0010
0100
0010
1000
0100
0010
,
0100
1000
0100
0010
0100
1000
0110
0000
,
0100
0100
0010
0010
1000
1000
0001
0001
,
0010
0010
1000
1000
0010
0010
0100
0100
,
1000
1000
0010
0010
0100
0100
0010
0010
,
1000
1000
0001
0001
0100
0100
1001
0000
,
0100
0100
0010
0010
0001
0001
1000
1000
,
0010
0010
0001
0001
0010
0010
0100
0100
,
0001
0001
0010
0010
0100
0100
0010
0010
,
0001
0001
1000
1000
0100
0100
1001
0000
,
0100
0100
0001
0001
0010
0010
1000
1000
,
0010
0010
0100
0100
1000
1000
0010
0010
,
1000
1000
0100
0100
0010
0010
0001
0001
,
0100
0100
0100
0100
0100
0100
1100
0000
,
0100
0100
1000
1000
0010
0010
0001
0001
,
0010
0010
0100
0100
0001
0001
0010
0010
,
0001
0001
0100
0100
0010
0010
1000
1000
,
0100
0000
0100
0000
0100
0000
0100
0000
1001
0000
0000
1001
0000
0000
0110
0000
,
0100
1000
0100
0010
0001
0100
1000
0100
,
0001
0000
0010
0000
0100
0000
0010
0000
0100
0000
0100
1000
0000
0000
0000
0000
,
0001
0010
0100
0010
0100
1000
0010
0001
,
0010
0000
0010
0000
0010
0000
0010
0000
1010
0000
0000
0101
0000
0000
1100
0000
,
0000
0010
0100
0100
0010
0001
0100
0010
,
1000
0000
1000
0000
0100
0000
0010
0000
0001
0000
0001
1000
0000
0000
0000
0000
,
1000
0100
0010
0100
0010
0001
0100
1000
,
0100
0000
0100
0000
0100
0000
1100
0000
0000
0000
0011
0000
0000
1010
0000
0000
,
0100
0000
0100
0000
0010
0000
0010
0000
0001
0000
0001
1000
0000
1000
0100
0000
,
1000
0000
0000
0010
0000
0000
1100
0000
0001
0000
0000
0010
0000
0000
0101
0000
,
0100
0000
0100
0000
0010
0000
0010
0000
1000
0000
1000
0001
0000
0001
0100
0000
,
0001
0000
0000
0010
0000
0000
0101
0000
1000
0000
0000
0010
0000
0000
1100
0000
,
0001
0000
0001
0000
0100
0000
0100
0000
0010
0000
0010
1000
0000
0100
1000
0000
,
0001
0000
0010
0001
0000
0010
0001
0000
1000
0000
0010
1000
0000
0010
1000
0000
,
1000
0000
1000
0000
0100
0000
0100
0000
0010
0000
0010
0001
0000
0100
0001
0000
,
1000
0000
0010
1000
0000
0010
1000
0000
0001
0000
0010
0001
0000
0010
0001
0000
,
0000
1000
0010
0100
0001
0010
0100
1000
,
0010
0001
0010
1000
0100
0001
0100
1000
,
0010
0100
0001
0010
0100
0010
0001
1000
,
0100
0010
0010
0010
0001
1100
0101
0000
,
0200
0010
0010
0010
0010
0010
0310
0001
,
0020
0100
0100
0100
0100
0100
0130
1000
,
0002
1000
1000
1000
1000
1003
0100
0010
,
1100
1010
0011
0101
,
0001
0010
0001
1000
0001
0010
0001
0100
,
1000
0010
1000
0001
1000
0100
1000
0010
,
0100
1000
0100
0001
0100
1000
0100
0001
,
0010
1000
0010
0001
0010
1000
0010
0001
,
0100
0010
1000
0100
1000
0010
0100
0001
,
0010
0100
0010
0001
0100
0010
1000
0001
,
1000
0100
0010
0001
1000
0100
0010
0001
,
0011
1010
0110
1001
,
0010
0001
0010
0100
0010
1000
0100
0010
,
0100
1000
0100
0010
0100
1000
0100
0001
,
1000
0100
0001
0100
1000
0010
0100
0010
,
1100
1001
0101
0110
1010
1100
0011
2002
,
0000
3003
0000
0110
0000
0000
1001
0000
;
