#TITLE:Vairocana;
#SUBTITLE:;
#ARTIST:五条式改;
#TITLETRANSLIT:;
#SUBTITLETRANSLIT:;
#ARTISTTRANSLIT:Gojoushiki Kai;
#CREDIT:;
#BANNER:vairocanabn.png;
#BACKGROUND:vairocanabg.png;
#LYRICSPATH:;
#CDTITLE:cdtitle.png;
#MUSIC:vairocana.ogg;
#OFFSET:-1.120;
#SAMPLESTART:28.400;
#SAMPLELENGTH:15.000;
#SELECTABLE:YES;
#BPMS:0.000=145.000,59.000=153.000,60.000=179.000,61.000=200.000,62.000=216.000,63.000=235.000,64.000=254.000,65.000=263.999,66.000=290.000,166.000=131.000,172.000=288.000,196.000=290.000,252.000=145.000,282.000=179.000,283.000=216.000,284.000=254.000,285.000=289.999;
#STOPS:;
#BGCHANGES:;

//---------------dance-single - ----------------
#NOTES:
     dance-single:
     :
     Hard:
     10:
     0.645,0.754,0.248,0.291,0.030:
0000
0000
0000
0000
,
0000
0000
0000
0000
,
0000
0000
0000
0000
,
0000
0000
0000
0000
,
0200
0000
0000
0000
,
0302
0000
0000
0000
,
0023
0000
0000
0000
,
2030
0000
0000
3000
,
0210
0000
0000
0000
,
2300
0000
0000
0000
,
3020
0000
0000
0000
,
0032
0000
1000
0003
,
1001
0000
0100
0000
,
0001
0000
0000
0001
0100
0000
1000
0000
,
0020
0000
0000
0000
,
0000
0000
0000
0000
,
0000
0000
0200
0000
,
0000
0000
0330
0000
0010
0001
0010
0001
,
0010
0000
1000
0100
1000
0100
1000
0000
,
0010
0100
0010
0100
0010
0100
0001
1000
,
0001
1000
0001
0010
0100
1000
0100
1000
,
0100
0000
0001
0100
0001
0100
0001
0000
,
0010
0100
0010
0100
1000
0001
1000
0001
,
0200
0000
0300
0000
1000
0010
1000
0010
,
1000
0000
0100
0001
0100
0001
0100
0000
,
0010
0001
0010
0001
0010
0000
1000
0100
,
1000
0100
1000
0000
0001
0010
0001
1000
,
0100
1000
0001
0010
0001
1000
0010
1000
,
0001
0010
0100
1000
0001
0010
0100
1000
,
0001
0010
0100
0000
0010
0100
0010
0001
,
0100
0010
1000
0001
1000
0100
0010
0001
,
2000
0000
0000
0000
,
0000
0000
3000
0000
0001
0100
0010
1000
,
0100
0001
0100
1000
0010
0100
0010
1000
,
0002
0000
0000
0000
,
0000
0000
0003
0000
1000
0010
1000
0100
,
0010
0100
1000
0001
1000
0100
0010
0001
,
1000
0010
1000
0001
0100
0001
0010
0010
,
0000
1001
0000
0000
0001
0100
0001
0010
,
0100
0010
0001
1000
0001
0010
0100
1000
,
0001
0100
0001
1000
0010
1000
0100
0100
,
0000
0000
1001
0000
0000
0000
0000
0000
0002
0000
0000
0200
0003
0000
0020
0000
,
0000
0330
0000
0000
1100
0000
0000
0101
0000
0000
0011
0000
0000
1001
0000
0000
,
0010
0001
0100
0010
1000
0001
0010
0100
,
0010
0001
1000
0010
0200
0000
0000
0000
,
0000
0000
0000
0300
,
0001
1000
0100
0010
0100
0010
0001
0100
,
1000
0100
0010
1000
0002
0000
0000
0000
,
0000
0000
0000
0003
,
1100
0000
1001
0000
,
0101
0000
0000
0000
0000
0010
0001
1000
,
0100
1000
0010
0100
0010
1000
0100
0000
,
1001
1001
0101
0000
,
1001
0000
1100
0000
,
0000
0010
1000
0001
0100
0001
0010
0100
,
0010
0001
0100
0000
1001
0000
1001
0000
,
0011
0000
1001
0000
,
1010
0000
0000
0000
0000
0100
1000
0001
,
0010
0001
0100
0010
0100
0001
0010
0000
,
1001
1001
1010
0000
,
1001
0000
0011
0000
,
0000
0100
0001
1000
0010
1000
0100
0010
,
0100
1000
0010
0100
0001
1000
1000
0000
,
0020
0000
0000
1030
,
0200
0000
0000
0301
,
0020
0000
0000
0030
,
0002
0000
2003
3000
,
0010
0010
0000
0001
0000
1100
0000
0010
,
0000
0101
0000
1000
0000
0010
0100
0100
,
2000
0000
3010
0010
0002
0000
1003
1000
,
0001
0100
0001
0010
0100
1000
0010
0100
0002
0000
0000
0000
0000
0000
0000
0000
,
0003
0000
1000
0100
0010
0001
1000
0000
,
0001
0010
0100
1000
0001
0000
1000
0100
,
0010
0100
1000
0001
0100
0010
1000
0001
,
0010
0100
1000
0100
0010
0001
1000
0100
,
0010
0100
1000
0001
1000
0100
0010
0001
,
1000
0010
0100
0001
1000
0001
0010
0100
,
2000
0000
3001
0100
0010
1000
0001
0000
,
1000
0010
0100
0001
1000
0000
0001
0100
,
0010
0100
0001
1000
0100
0010
0001
1000
,
0001
0100
0020
0000
0000
0000
0000
0000
,
0000
0000
0000
0000
0000
0000
0000
0130
,
0010
0001
2000
0000
0000
0000
0000
0000
,
0000
0000
0000
0000
0000
0000
3001
0100
,
0010
1000
0200
0000
0000
0000
0000
0000
,
0000
0000
0000
0000
,
0301
1000
0020
0000
0000
0000
0000
0000
,
0000
0000
0000
0000
,
1030
0001
2000
0000
0000
0000
0000
0000
,
0000
0000
0000
0000
,
3010
0000
0100
0001
0010
0001
1000
0100
,
0010
0001
0100
0010
0100
0001
1000
0100
,
0001
0100
0010
0001
0100
0010
1000
0001
,
0010
0100
0010
0100
1000
0010
0100
0010
,
1000
0100
0010
0100
0010
0001
1000
0100
,
1000
0001
0010
0001
1000
0010
1000
0001
,
1000
0100
0010
0001
0100
0001
1000
0010
,
0100
0001
0010
0100
0010
0001
1000
0010
,
0001
0010
0100
0001
0010
0100
1000
0001
,
0100
0010
0100
0010
1000
0100
0010
0100
,
1000
0010
0100
0010
0100
0000
2002
0000
,
0000
0000
0000
0000
,
0000
0000
0000
0000
,
0000
0000
3003
0000
;

//---------------dance-single - Copied from----------------
#NOTES:
     dance-single:
     Copied from:
     Medium:
     9:
     0.472,0.621,0.420,0.291,0.009:
0000
0000
0000
0000
,
0000
0000
0000
0000
,
0000
0000
0000
0000
,
0000
0000
0000
0000
,
2000
0000
0000
0000
,
3002
0000
0000
0000
,
0023
0000
0000
0000
,
0230
0000
0000
0300
,
1002
0000
0000
0000
,
2003
0000
0000
0000
,
3020
0000
0000
0000
,
0230
0000
1300
0000
,
1001
0000
0100
0000
,
0010
0000
0000
0001
1000
0000
0100
0000
,
0020
0000
0000
0000
,
0000
0000
0000
0000
,
0000
0000
0000
0000
,
0000
0030
0001
0001
,
0001
1000
1000
1000
,
0010
0010
0010
0100
,
0100
0100
1000
1000
,
1000
0001
0001
0001
,
0100
0010
0100
0000
0001
1000
0001
0000
,
1001
0000
1000
1000
,
1000
0100
0100
0100
,
0010
0010
0010
0001
,
0001
0001
1000
0001
,
0100
0001
1000
0010
,
1000
0100
0001
0100
,
1000
0010
1000
0100
,
0010
0001
0100
0100
,
2002
0000
0000
0000
,
0000
3003
0001
0100
,
0010
1000
0100
0100
,
2002
0000
0000
0000
,
0000
0000
3003
0000
1010
0000
0000
0110
,
0000
0000
0101
0000
0000
1001
0000
0000
,
0011
0000
0000
0110
0000
0000
1000
0001
,
0000
1001
0000
0000
0011
0000
0000
0110
,
0000
0000
1100
0000
0000
1001
0000
0000
,
1010
0000
0000
0110
0000
0000
0001
1000
,
0000
1001
0000
0000
0200
0000
0000
0000
,
0300
0000
0000
0000
1000
0000
0000
0001
0000
0000
0010
0000
0000
0010
0000
0000
,
0001
0100
1000
0010
,
0001
1000
0220
0000
,
0000
0000
0000
0330
,
1000
0100
0001
0010
,
1000
0001
0220
0000
,
0000
0000
0000
0330
,
1001
0000
1001
0000
,
0110
0000
0000
0000
0000
0010
0001
0000
,
0100
1000
0100
0000
0010
0001
0010
0000
,
1001
1001
0110
0000
,
1001
0000
0110
0000
,
0000
0100
1000
0000
0010
0001
0010
0000
,
1000
0100
1000
0000
0110
0000
0110
0000
,
1001
0000
1001
0000
,
0110
0000
0000
0000
0000
0010
1000
0000
,
0100
0001
0100
0000
0010
1000
0010
0000
,
1001
1001
0110
0000
,
1001
0000
0110
0000
,
0000
0100
0001
0000
0010
1000
0010
0000
,
0001
0100
0001
0000
0110
0000
0110
0000
,
0020
0000
0000
1030
,
0200
0000
0000
0310
,
0002
0000
0000
0003
,
0220
0000
0000
0330
,
0010
0010
0000
0001
0000
1000
0000
0010
,
0000
0001
0000
1001
0000
0010
0100
0000
,
2000
3010
0002
1003
,
0001
0001
0100
0010
2000
0000
0000
0000
,
3000
0010
0010
0100
,
0001
0000
0001
0000
0100
0000
1000
0100
,
0010
0000
1000
0000
0100
0000
0001
1000
,
0010
0000
0100
0000
1000
0000
1000
0100
,
0001
0000
0100
0000
1001
0000
0010
0001
,
0010
0000
0100
1000
0100
1000
0100
0000
,
2000
3010
0010
0100
,
1000
0000
1000
0000
0100
0000
0001
0100
,
0010
0000
0001
0000
0100
0000
1000
0001
,
0010
0200
0000
0000
,
0000
0000
0000
0300
,
0010
2000
0000
0000
,
0000
0000
0000
3001
,
0010
0200
0000
0000
,
0000
0000
0000
0000
,
0301
0020
0000
0000
,
0000
0000
0000
0000
,
1030
2000
0000
0000
,
0000
0000
0000
0000
,
3010
0000
0100
0001
0010
0000
0100
1000
,
0100
0000
1000
0010
0100
0000
0001
0010
,
0001
0010
0100
1000
,
0010
0010
1000
0100
,
1000
0000
0010
0000
0010
0000
1000
0100
,
1000
0000
0001
0010
0001
0000
1000
0001
,
1000
0000
0100
1000
0010
0000
0100
0001
,
0100
0000
0001
0010
0100
0000
1000
0010
,
1000
0110
0110
0001
,
0110
0000
0110
0000
0001
0000
0100
1000
,
0001
0000
1000
0100
0001
0000
2002
0000
,
0000
0000
0000
0000
,
0000
0000
0000
0000
,
0000
0000
3003
0000
;

//---------------dance-single - Copied from Copied from----------------
#NOTES:
     dance-single:
     Copied from Copied from:
     Easy:
     6:
     0.368,0.531,0.377,0.240,0.000: // measure 1
0000
0000
0000
0000
,  // measure 2
0000
0000
0000
0000
,  // measure 3
0000
0000
0000
0000
,  // measure 4
0000
0000
0000
0000
,  // measure 5
0020
0000
0000
0000
,  // measure 6
0000
0000
0000
0030
,  // measure 7
0200
0000
0000
0000
,  // measure 8
0000
0000
0000
0300
,  // measure 9
1002
0000
0000
0000
,  // measure 10
2003
0000
0000
0000
,  // measure 11
3020
0000
0000
0000
,  // measure 12
0130
0000
0100
0000
,  // measure 13
1001
0000
0100
0000
,  // measure 14
0010
0000
1000
0100
,  // measure 15
0020
0000
0000
0000
,  // measure 16
0000
0000
0000
0000
,  // measure 17
0000
0000
0000
0000
,  // measure 18
0000
0030
0001
0000
,  // measure 19
0001
1000
0000
1000
,  // measure 20
0010
0000
0010
0100
,  // measure 21
0000
0100
1000
0000
,  // measure 22
1000
0001
0000
0001
,  // measure 23
0100
0100
0100
0000
,  // measure 24
1001
0000
1000
0000
,  // measure 25
1000
0100
0000
0100
,  // measure 26
0010
0000
0010
0001
,  // measure 27
0000
0010
0010
0010
,  // measure 28
0000
1001
0000
0000
,  // measure 29
0010
0010
0100
0100
,  // measure 30
1001
0000
0100
0010
,  // measure 31
0100
1000
0001
1000
,  // measure 32
0200
0000
0000
0000
,  // measure 33
0000
0300
0010
0100
,  // measure 34
0010
0001
1000
0001
,  // measure 35
0200
0000
0000
0000
,  // measure 36
0000
0300
1010
0000
,  // measure 37
0000
0101
0000
0000
,  // measure 38
0011
0000
0000
0100
,  // measure 39
0000
1001
0000
0000
0011
0000
0000
0000
,  // measure 40
0000
1100
0000
0000
,  // measure 41
1010
0000
0000
0100
,  // measure 42
0000
1001
0000
0000
0200
0000
0000
0000
,  // measure 43
0300
0000
1001
0000
0000
1001
0000
0000
,  // measure 44
0001
0100
0010
0001
,  // measure 45
0100
0010
0002
0000
,  // measure 46
0000
0000
0000
0003
,  // measure 47
1000
0100
0010
1000
,  // measure 48
0100
0010
2000
0000
,  // measure 49
0000
0000
0000
3000
,  // measure 50
1001
0000
1001
0000
,  // measure 51
0110
0000
0000
0001
,  // measure 52
0100
0100
0010
0010
,  // measure 53
1001
1001
0110
0000
,  // measure 54
1001
0000
0110
0000
,  // measure 55
0000
1000
0010
0010
,  // measure 56
1000
1000
0110
0110
,  // measure 57
1001
0000
1001
0000
,  // measure 58
0110
0000
0000
1000
,  // measure 59
0100
0100
0010
0010
,  // measure 60
1001
1001
0110
0000
,  // measure 61
1001
0000
0110
0000
,  // measure 62
0000
0001
0010
0010
,  // measure 63
0001
0001
0110
0110
,  // measure 64
0020
0000
0000
0030
,  // measure 65
0200
0000
0000
0300
,  // measure 66
0002
0000
0000
0003
,  // measure 67
0220
0000
0000
0330
,  // measure 68
0010
0001
1000
0010
,  // measure 69
0001
1001
0100
0100
,  // measure 70
2000
3000
0002
0003
,  // measure 71
0001
1000
0100
0000
2002
0000
0000
0000
,  // measure 72
3003
0010
0010
0000
,  // measure 73
0001
0001
0000
1000
,  // measure 74
0010
1000
0100
0001
,  // measure 75
0010
0100
1000
1000
,  // measure 76
0001
0100
1001
0010
,  // measure 77
0010
0000
1000
0000
0100
1000
0100
0000
,  // measure 78
2000
3010
0010
0000
,  // measure 79
1000
1000
0000
0001
,  // measure 80
0010
0001
0100
1000
,  // measure 81
0010
0200
0000
0000
,  // measure 82
0000
0000
0000
0300
,  // measure 83
0010
2000
0000
0000
,  // measure 84
0000
0000
0000
3000
,  // measure 85
0010
0200
0000
0000
,  // measure 86
0000
0000
0000
0300
,  // measure 87
0001
0020
0000
0000
,  // measure 88
0000
0000
0000
0030
,  // measure 89
0001
2000
0000
0000
,  // measure 90
0000
0000
0000
0000
,  // measure 91
3010
0100
0010
0100
,  // measure 92
0100
0000
1000
0000
0100
0000
0001
0010
,  // measure 93
0001
0010
0000
1000
,  // measure 94
0000
0010
0000
0100
,  // measure 95
0000
1001
1001
0010
,  // measure 96
0010
0001
0001
1000
,  // measure 97
1000
0100
0010
0100
,  // measure 98
0100
0001
0100
1000
,  // measure 99
1000
0010
0110
0001
,  // measure 100
0100
0000
0110
0000
0001
0000
0010
0100
,  // measure 101
0010
0000
1000
0001
1000
0000
0220
0000
,  // measure 102
0000
0000
0000
0000
,  // measure 103
0000
0000
0000
0000
,  // measure 104
0000
0330
0000
0000
;
