#TITLE:Turii;
#SUBTITLE:~Panta rhei~;
#ARTIST:Zectbach;
#TITLETRANSLIT:;
#SUBTITLETRANSLIT:;
#ARTISTTRANSLIT:;
#CREDIT:;
#BANNER:Turii-bn.png;
#BACKGROUND:Turii-bg.png;
#LYRICSPATH:;
#CDTITLE:cdtitle.png;
#MUSIC:Turii ~Panta rhei~.mp3;
#OFFSET:-1.220;
#SAMPLESTART:40.000;
#SAMPLELENGTH:12.000;
#SELECTABLE:YES;
#BPMS:0.000=147.960,48.000=73.980,64.000=147.960,192.000=73.980,208.000=147.960;
#STOPS:;
#BGCHANGES:;

//---------------dance-single - ----------------
#NOTES:
     dance-single:
     :
     Hard:
     9:
     0.613,0.766,0.122,0.427,0.355: // measure 1
0000
0000
0000
0000
,  // measure 2
0000
0000
0000
0000
,  // measure 3
0000
0000
0000
0000
,  // measure 4
0000
0000
0000
0000
,  // measure 5
1001
0000
0100
0010
0000
0010
0001
0000
0001
0100
0000
0100
,  // measure 6
1000
0000
1000
0100
0000
0100
0001
0010
0100
1000
0000
0000
,  // measure 7
1001
0000
0100
0010
0000
0010
1000
0000
1000
0100
0000
0100
,  // measure 8
0001
0000
0001
0100
0000
0100
1000
0010
0100
0001
0000
0000
,  // measure 9
0010
0100
1000
0001
0000
0000
0010
0100
0001
1000
0000
0000
,  // measure 10
0001
0100
0010
1000
0000
0000
1000
0100
0010
0001
0000
0000
,  // measure 11
0100
0010
0001
1000
0000
0000
0100
0010
1000
0001
0000
0000
,  // measure 12
1000
0010
0100
0001
0000
0000
0001
0010
0100
1000
0000
0000
,  // measure 13
0020
0000
2000
3000
0002
0030
0203
0000
,  // measure 14
0020
0300
0001
2030
0200
0000
0000
3300
,  // measure 15
2000
0000
3200
0320
0200
0000
0030
2300
,  // measure 16
0020
0000
3000
0031
2002
0000
0000
3003
,  // measure 17
1000
0100
0001
0100
1000
0010
0001
0010
,  // measure 18
1000
0000
0100
0000
0100
0000
0010
0000
0001
0100
0001
0100
0001
0000
0000
0000
,  // measure 19
0001
0100
1000
0100
0001
0010
1000
0010
,  // measure 20
0001
0000
0100
0000
0100
0000
0010
0000
1000
0100
1000
0100
1000
0000
0000
0000
,  // measure 21
0010
1000
0100
1000
0010
0100
0110
0100
,  // measure 22
0001
0010
0001
0010
0100
1000
1001
0001
,  // measure 23
0100
0010
0100
0010
1000
0100
1100
0100
,  // measure 24
0010
0001
0010
0001
1000
0001
1001
0000
,  // measure 25
0010
0001
0100
0001
0010
0100
0110
0100
,  // measure 26
1000
0010
1000
0010
0100
0001
1001
1000
,  // measure 27
0100
0010
0100
0010
0001
0100
0101
0100
,  // measure 28
0010
1000
0010
1000
0001
1000
1001
0000
,  // measure 29
1000
0100
0010
0002
1000
1000
1003
0100
,  // measure 30
0010
0001
0100
0020
1000
1000
1030
0001
,  // measure 31
1000
0010
0001
0020
0100
0100
0130
0001
,  // measure 32
0010
1000
0010
0002
1000
1000
1003
0000
,  // measure 33
0001
0100
0010
2000
0001
0001
3001
0100
,  // measure 34
0010
1000
0100
0020
0001
0001
0031
1000
,  // measure 35
0001
0010
1000
0020
0100
0100
0130
1000
,  // measure 36
0010
0001
0010
2000
0001
0001
3001
0000
,  // measure 37
0100
0000
0001
0000
0100
0000
0010
0000
1000
0100
1000
0000
0001
0100
0001
0000
,  // measure 38
0010
0000
0001
0000
0100
0000
0001
0000
1000
0010
1000
0000
0001
0010
0001
0000
,  // measure 39
0010
0100
0010
0000
0100
0010
0100
0000
1000
0000
1000
0000
0001
0000
0001
0000
,  // measure 40
0100
0010
0100
0000
0010
0100
0010
0000
0001
1000
0100
0000
1000
0001
0100
0000
,  // measure 41
0100
0000
1000
0000
0100
0000
0010
0000
0001
0100
0001
0000
1000
0100
1000
0000
,  // measure 42
0010
0000
1000
0000
0100
0000
1000
0000
0001
0010
0001
0000
1000
0010
1000
0000
,  // measure 43
0010
0100
0010
0000
0100
0010
0100
0000
0001
0000
0001
0000
1000
0000
1000
0000
,  // measure 44
0100
0010
0100
0000
0010
0100
0010
0000
1000
0001
0100
0000
0001
1000
0100
0000
,  // measure 45
0010
0001
0010
0001
0001
0100
0010
1000
,  // measure 46
1000
0000
0100
0000
0001
0000
0100
0000
1000
0010
0100
0010
1000
0000
0000
0000
,  // measure 47
0010
1000
0010
1000
1000
0100
0010
0001
,  // measure 48
0001
0000
0100
0000
1000
0000
0100
0000
0001
0010
0100
0010
0001
0000
0000
0000
,  // measure 49
2000
0000
0020
0030
0002
0003
3200
0000
0320
0000
0002
0003
2000
3000
0230
0000
,  // measure 50
0302
0000
0020
0030
0200
0300
2003
0000
3200
0000
0020
0000
0000
0000
0330
0000
,  // measure 51
0002
0000
0200
0300
2000
3000
0023
0000
0230
0000
2000
3000
0002
0003
0320
0000
,  // measure 52
2030
0000
0200
0300
0020
0030
3002
0000
0023
0000
0200
0000
0000
0000
0330
0000
,  // measure 53
0100
0001
0100
0010
0100
1000
0100
0010
,  // measure 54
1000
0100
0010
0001
1000
0100
0010
0001
,  // measure 55
0100
0001
0100
0010
0100
1000
0100
0010
,  // measure 56
1000
0000
0100
0000
0010
0000
0001
0000
1001
0000
0000
1100
0000
0000
0101
0000
,  // measure 57
0010
1000
0010
0100
0010
0001
0010
0100
,  // measure 58
0001
0010
0100
1000
0001
0010
0100
1000
,  // measure 59
0010
1000
0010
0100
0010
0001
0010
0100
,  // measure 60
0002
0000
0000
1003
2002
0000
3003
0000
,  // measure 61
1000
0000
0100
0000
0001
0000
1000
0000
0100
0000
0001
0000
,  // measure 62
1000
0000
0010
0000
0001
0000
1000
0000
0010
0000
0001
0000
,  // measure 63
0001
0000
0100
0000
1000
0000
0001
0000
0100
0000
1000
0000
,  // measure 64
0001
0000
0010
0000
1000
0000
0001
0000
0010
0000
1000
0000
,  // measure 65
0010
0000
0001
0000
0100
0000
0010
0000
1000
0000
0100
0000
,  // measure 66
0100
0000
1000
0000
0010
0000
0100
0000
0001
0000
0010
0000
,  // measure 67
1000
0000
0001
0000
0100
0000
0001
0000
1000
0000
0010
0000
,  // measure 68
0010
0000
1000
0000
0001
0000
0001
0000
1000
0000
0100
0000
,  // measure 69
2002
0000
0000
0000
,  // measure 70
0000
3003
0000
0000
;
