#TITLE:TITANS RETURN;
#SUBTITLE:;
#ARTIST:L.E.D.;
#TITLETRANSLIT:;
#SUBTITLETRANSLIT:;
#ARTISTTRANSLIT:;
#CREDIT:;
#BANNER:TITANS RETURN.png;
#BACKGROUND:TITANS RETURN-bg.png;
#LYRICSPATH:;
#CDTITLE:;
#MUSIC:TITANS RETURN.mp3;
#OFFSET:-1.728;
#SAMPLESTART:30.928;
#SAMPLELENGTH:15.000;
#SELECTABLE:YES;
#BPMS:0.000=194.000,128.000=97.000,144.000=194.000,224.000=97.000,240.000=194.000;
#STOPS:;
#BGCHANGES:;

//---------------dance-single - ----------------
#NOTES:
     dance-single:
     :
     Hard:
     14:
     0.758,1.000,0.485,0.373,0.191:
0001
0010
0001
0100
0000
1000
0000
0010
,
0000
0001
0000
0010
0000
0100
0010
0000
,
1000
0010
1000
0100
0000
0001
0000
0010
,
0000
1000
0000
0010
0000
0100
0000
0110
,
0001
1000
0100
0001
0000
0010
0000
0001
,
0000
1000
0000
0010
0000
0100
0010
0000
,
1000
0001
0100
1000
0000
0010
0000
1000
,
0001
0010
0001
0100
0010
1000
1001
0000
,
0010
0000
0000
0000
0001
0000
0000
0100
0000
0000
0100
0000
0010
0000
0000
0000
,
0100
0000
0100
0000
1000
0000
0000
0100
0000
0000
0100
0000
0010
0000
0000
0000
,
0002
0010
1003
0100
0010
0100
0101
0000
,
2000
0010
3001
0100
0010
0100
1100
0000
,
0010
0000
0000
0000
1000
0000
0000
0100
0000
0000
0100
0000
0010
0000
0000
0000
,
0100
0000
0100
0000
0001
0000
0000
0100
0000
0000
0100
0000
0010
0000
0000
0000
,
2000
0100
3001
0100
0010
1000
1010
0000
,
0002
0100
1003
0100
0010
0001
0101
0000
,
1000
0010
0100
1000
0000
0001
0000
0101
,
0000
1000
0000
0010
0000
1100
1000
0000
,
0001
0010
0100
0001
0000
1000
0000
1100
,
0000
0001
0000
0010
0000
1000
0000
0101
,
0001
0100
0010
0001
0000
1000
0000
1010
,
0000
0001
0000
0100
0000
0011
0001
0000
,
1000
0100
0010
1000
0001
0001
0001
0001
,
0100
0010
1000
0010
0100
0010
1001
0000
,
1010
0000
1010
0000
0000
0100
0000
1000
,
0000
0010
0000
0100
0000
1000
0010
0000
,
0011
0000
0011
0000
0000
0100
0000
1000
,
0000
0001
0000
1000
0000
0100
0000
0010
,
0100
0100
0101
0000
1000
1100
0000
0010
,
0000
0001
0000
0100
0000
0100
0010
0000
,
1000
1000
1000
0100
0100
0100
0001
0001
,
0100
0010
0001
1000
0010
0100
0110
0000
,
2000
0100
3020
0001
0230
0010
0302
1003
,
0002
0100
0023
1000
0230
0010
0302
1003
,
0200
0010
2300
0001
3020
0001
1030
1010
,
0200
0010
0302
1000
0023
1000
0031
0011
,
1000
0100
0001
0100
1000
0010
0001
0010
,
1000
0010
0001
0100
1000
0100
0001
0100
,
0020
1000
1000
1030
0200
0010
0010
0310
,
0001
0000
0100
0000
0010
0000
1000
0000
0100
0010
0100
0010
0100
0000
0000
0000
,
0010
0000
0000
0000
1001
0000
0000
0100
0000
0000
0100
0000
1000
0000
0000
0000
,
0010
0000
0010
0000
0101
0000
0000
1000
0000
0000
1000
0000
0010
0000
0000
0000
,
0100
0010
0001
0100
1000
1000
0100
0001
,
0010
0000
0010
0000
0001
0000
0100
0000
0010
1000
0000
0000
1000
0000
0000
0000
,
0010
0000
0000
0000
1001
0000
0000
0100
0000
0000
0100
0000
0001
0000
0000
0000
,
0010
0000
0010
0000
1100
0000
0000
0001
0000
0000
0001
0000
0010
0000
0000
0000
,
0102
0000
1003
0100
0001
0001
0100
1000
,
0010
0000
0010
0000
1000
0000
0100
0000
0010
0001
0000
0000
0001
0000
0000
0000
,
0010
0000
1001
0000
0100
0100
1001
0000
,
0001
0000
0001
0000
1100
0000
0000
0010
0000
0000
0010
0000
0101
0000
0000
0000
,
0010
0000
1001
0000
0100
0100
1001
0000
,
1000
0000
1000
0000
0101
0000
0000
0010
0000
0000
0010
0000
1100
0000
0000
0000
,
0010
0001
0100
1000
0100
1000
0100
0000
,
0010
1000
0100
0001
0100
0001
0100
0000
,
0010
0010
0010
0010
0100
0100
0100
0100
,
1000
0010
1000
0000
0001
0100
0001
0000
0010
0100
0010
0000
1001
0000
0000
0000
,
0020
0000
0032
0000
0203
0000
0320
0000
1030
0100
0010
0001
0100
0001
1000
0001
,
0200
0000
0320
0000
2030
0000
3002
0000
0013
0100
0010
0001
0100
0010
1000
1000
,
0002
0010
0013
0000
0002
0100
0103
0000
0010
1000
0100
1000
0010
0100
0002
0000
,
2003
0010
3010
0000
2000
0100
3100
0000
0010
0001
0100
0001
0010
0100
2000
0000
,
3001
0001
0100
0000
0010
0010
1000
0100
,
0010
0001
1000
0010
0100
1000
0100
0000
,
1000
0001
1000
0001
1000
0000
0000
0000
0200
0000
0000
0000
0320
0000
0000
0000
,
0031
1000
0002
0100
0013
0000
1001
0000
,
1000
0100
0010
0001
0000
0101
0000
0011
,
0000
1100
0000
0110
0000
1000
0010
0000
,
0001
0010
0100
1000
0000
1010
0000
0101
,
0000
0011
0000
0110
0000
1001
0000
1001
,
0100
0010
0100
0010
0000
0011
0000
1100
,
0000
1010
0000
0011
0000
0100
0010
0000
,
0001
0001
0001
0001
1000
1000
1000
1000
,
0001
0010
0001
0000
1000
0010
1000
0000
0100
0010
0100
0000
1000
0001
1000
0000
,
0220
0000
0000
0000
,
0330
0000
0000
0000
;
