#TITLE:Pluto The First;
#SUBTITLE:;
#ARTIST:White Wall;
#TITLETRANSLIT:;
#SUBTITLETRANSLIT:;
#ARTISTTRANSLIT:;
#CREDIT:;
#BANNER:bn.png;
#BACKGROUND:;
#LYRICSPATH:;
#CDTITLE:cdtitle.png;
#MUSIC:Pluto The First.ogg;
#OFFSET:-0.036;
#SAMPLESTART:18.780;
#SAMPLELENGTH:12.000;
#SELECTABLE:YES;
#BPMS:0.000=115.000,47.000=50.000,55.000=200.000,97.500=440.000,213.500=110.000,229.500=230.000,261.500=440.000,356.000=220.000;
#STOPS:35.000=0.522
,95.250=0.155
,95.750=0.155
,96.250=0.155
,117.500=0.136
,183.500=0.409
,273.500=0.273
,288.500=0.273
,301.500=0.273
,314.000=0.136
,316.000=0.273
,330.000=0.200
;
#BGCHANGES:;

//---------------dance-single - ----------------
#NOTES:
     dance-single:
     :
     Medium:
     14:
     0.608,1.000,0.219,0.109,0.080:
0000
0000
0000
0000
,
0000
0000
0000
0000
,
0000
0000
0000
0000
,
2010
0000
0010
0100
0100
3100
0021
0000
,
0001
0100
0100
0130
1002
0000
1000
0100
,
0100
0103
0011
0000
1000
1100
0000
0001
,
1100
0100
0010
0100
1000
0100
0010
0001
,
0010
0100
0010
0001
0110
1000
0100
0001
,
0100
1000
0010
0001
0010
1000
0000
0100
,
1000
0010
1000
0100
0010
0001
0100
0001
,
0010
0001
1010
0001
0010
1000
0010
0001
,
0110
0000
0000
0000
0100
0000
0000
0000
1000
0000
0000
0000
1100
0000
0000
0000
0010
0000
0000
0000
0001
0000
0000
0000
1000
0000
0000
0100
0000
0000
0010
0000
,
0000
0100
0000
0000
0001
0000
0100
0000
1000
0000
0000
0010
0000
0000
0100
0000
0000
0010
0000
0000
0001
0000
0010
0000
0101
0000
0000
0100
0000
0000
0010
0000
,
0000
0100
0000
0000
1000
0000
0100
0000
0011
0000
0000
0010
0000
0000
0100
0000
0000
0010
0000
0000
1000
0000
0010
0000
1000
0000
0000
0000
0000
0000
0000
0000
,
0100
0001
0100
1000
,
1001
0000
0010
0100
1000
0000
1000
0100
,
0001
0000
1000
0100
0001
0000
0100
1000
,
0010
0100
0001
0010
0100
0000
0001
0000
,
0110
1000
0110
0001
,
1001
0000
0100
0010
0001
0000
0001
0010
,
1000
0000
0001
0010
1000
0000
0010
0001
,
0100
0010
1000
0100
0010
0000
0001
0010
,
0100
1000
0001
0100
1000
0000
1000
0000
,
1010
0000
0100
0000
0011
0000
0000
0100
,
0010
0100
0001
0010
0000
0100
0000
1000
,
0000
0100
0000
0010
0000
0000
0000
0010
,
0000
0100
0000
1000
0000
0100
0000
0010
,
0000
0100
0000
1000
0000
0001
0000
0010
,
0000
0100
0000
1000
0000
0100
0000
0010
,
0000
0001
0000
0010
0000
0100
0000
0010
,
0000
0001
0000
0010
0000
0100
0000
1000
,
0000
0010
0000
1000
0000
0100
0000
1000
,
0000
0010
0000
1000
0000
0010
0000
0001
,
0000
0010
0000
1000
0000
0100
0000
0001
,
0000
0100
0000
1000
0000
0100
0000
0000
,
0000
0000
0000
1000
0000
0100
0000
1000
,
0000
0100
0000
0010
0000
0100
0000
0010
,
0000
0100
0000
0010
0000
0001
0000
0010
,
0000
0001
0000
0010
0000
1000
0000
0010
,
0000
1000
0000
0010
0000
0100
0000
0010
,
0000
0100
0000
0010
0000
0001
0000
1000
,
0000
0001
0000
1000
0000
0010
0000
1000
,
0000
0010
0000
1000
0000
0010
0000
0001
,
0000
0010
0000
0001
0000
0010
0000
1000
,
0000
0001
0000
1000
0000
0001
0000
1000
,
0000
0100
0000
0010
0000
0001
0000
0000
,
0000
0000
0000
1000
0000
0010
0000
1000
,
0000
0000
0000
0010
0000
0100
0000
1000
,
0000
0000
0000
0100
0000
0010
0000
0001
,
0000
0000
0000
0001
0000
0000
0000
1000
,
0000
0000
0000
0100
0000
0001
0000
0010
,
0000
0002
0000
0000
0000
0000
0000
0000
,
0000
0000
0000
0000
0000
0000
0000
0003
,
0000
0000
0000
2000
0000
0100
0000
0001
,
0001
3002
0000
0023
0100
0000
0100
0001
,
1000
0032
0000
2003
0000
0001
0000
0010
,
0010
3020
0000
0230
0001
1000
0001
0010
,
0010
0310
0000
1000
0100
1000
0100
1000
,
0000
1000
0000
1000
0010
1000
0010
0000
,
0100
0000
0001
0010
0001
0010
0001
0010
,
0000
0100
0000
0001
0000
0100
0000
1000
,
0000
0010
0000
0000
0000
0110
0000
0000
,
0000
0010
0100
0010
0100
0010
0100
0000
,
0010
0000
0000
0010
0000
0001
0000
0010
,
0000
1000
0000
0010
0001
0010
0001
1000
,
0100
1000
0100
0010
0000
0000
0000
0100
,
0000
0000
0000
0100
0000
0000
0000
0001
,
0000
0000
0000
0100
0000
0001
0000
0010
,
0000
1000
0000
0010
0000
0000
0000
0001
,
0000
1000
0000
0100
0000
0010
0000
0000
,
0000
1000
0000
0000
0000
0000
0000
0001
,
0000
0010
0000
0100
0000
0010
0000
0100
,
0000
1000
0000
0001
0000
0100
0000
0001
,
0000
0010
0000
0001
0000
1000
0000
0000
,
0000
0000
0000
0100
0000
1000
0000
0100
,
0000
0010
0000
0100
0000
0001
0000
1000
,
0000
0010
0000
1000
0000
0100
0000
1000
,
0000
0001
0000
0000
0000
0100
0000
0010
,
0000
0100
0000
0100
0000
0001
0000
0100
,
0000
0010
1000
0000
,
0010
0100
0000
0000
,
0001
0100
0010
1000
,
0100
0000
0010
0000
0100
0000
1000
0100
,
0000
0000
0000
0000
0000
0000
0100
0010
,
0000
0000
0000
0000
0000
0000
0010
0001
,
0000
0000
0000
0000
0000
0000
0001
0010
,
0000
0000
0110
0000
0000
0000
0001
0100
,
0000
0000
1010
0000
0000
0000
0001
1000
,
0000
1001
0000
0000
,
0100
1000
0010
0100
,
0001
0010
0100
0010
0001
0010
0100
1000
,
0010
1000
0100
0000
0000
0000
0000
0000
;

//---------------dance-single - ----------------
#NOTES:
     dance-single:
     :
     Easy:
     10:
     0.363,0.728,0.309,0.229,0.000: // measure 1
0000
0000
0000
0000
,  // measure 2
0000
0000
0000
0000
,  // measure 3
0000
0000
0000
0000
,  // measure 4
1000
0000
0000
1100
0000
0000
0100
0000
,  // measure 5
0000
0110
0000
0000
0001
0000
0000
0011
,  // measure 6
0000
0000
0110
0000
0000
1100
0000
0000
,  // measure 7
1001
0000
0000
1000
0100
0010
0001
0000
,  // measure 8
0000
0001
0010
0100
1000
0000
0000
1000
,  // measure 9
0001
1000
0001
0000
0010
0100
0000
0000
,  // measure 10
0000
1000
0100
0001
0001
0000
0000
0001
,  // measure 11
0100
1000
1100
0000
0000
1000
0010
0001
,  // measure 12
0001
0000
0001
0010
1000
1000
0101
0000
,  // measure 13
0010
0001
0011
0000
1000
0100
1010
0000
,  // measure 14
0100
1000
1100
0001
0100
0010
1000
0000
,  // measure 15
0000
0110
0000
0001
,  // measure 16
0000
1010
0000
1000
,  // measure 17
0010
1000
0100
1000
,  // measure 18
0010
1000
0100
0001
,  // measure 19
0010
0110
0000
1000
,  // measure 20
0010
1010
0000
0100
,  // measure 21
0001
0010
0001
0100
,  // measure 22
0001
0010
0001
0010
,  // measure 23
0100
1000
1000
1000
,  // measure 24
0100
0000
0010
0000
0001
0000
0000
1001
,  // measure 25
0000
0000
0000
1000
0000
0000
0000
0000
,  // measure 26
0000
0010
0000
0000
0000
0000
0000
1000
,  // measure 27
0000
0000
0000
0000
0000
0100
0000
0000
,  // measure 28
0000
0000
0000
0010
0000
0000
0000
0100
,  // measure 29
0000
0000
0000
0001
0000
0000
0000
0000
,  // measure 30
0000
0010
0000
0000
0000
0001
0000
0000
,  // measure 31
0000
0000
0000
0010
0000
0000
0000
0000
,  // measure 32
0000
1000
0000
0000
0000
0100
0000
0000
,  // measure 33
0000
0010
0000
0000
0000
0000
0000
0100
,  // measure 34
0000
0000
0000
0000
0000
0010
0000
0000
,  // measure 35
0000
0000
0000
1000
0000
0000
0000
0000
,  // measure 36
0000
0001
0000
0000
0000
0100
0000
0000
,  // measure 37
0000
0010
0000
0000
0000
0000
0000
0100
,  // measure 38
0000
0000
0000
0000
0000
0001
0000
0000
,  // measure 39
0000
0000
0000
1000
0000
0000
0000
0000
,  // measure 40
0000
0110
0000
0000
0000
0001
0000
0000
,  // measure 41
0000
1000
0000
0000
0000
0000
0000
0001
,  // measure 42
0000
0000
0000
0000
0000
0100
0000
0000
,  // measure 43
0000
0000
0000
0010
0000
0000
0000
0000
,  // measure 44
0000
1001
0000
0000
0000
0000
0000
0010
,  // measure 45
0000
0000
0000
0000
0000
1000
0000
0000
,  // measure 46
0000
0000
0000
0010
0000
0000
0000
1100
,  // measure 47
0000
0000
0000
0000
,  // measure 48
0000
1000
0000
0000
0000
0000
0000
0010
,  // measure 49
0000
0000
0000
0100
0000
0000
0000
0000
,  // measure 50
0000
0001
0000
0000
0000
0000
0000
0010
,  // measure 51
0000
0000
0000
1001
0000
0000
0000
0000
,  // measure 52
0000
0020
0000
0000
0000
0000
0000
0000
,  // measure 53
0000
0000
0000
0000
0000
0000
0000
0030
,  // measure 54
0000
0000
0000
0200
0000
0000
0000
0301
,  // measure 55
0000
0010
0000
0020
0000
0000
0000
0130
,  // measure 56
0000
1000
0000
2000
0000
0000
0000
3100
,  // measure 57
0000
0010
0000
0002
0000
0000
0000
0000
,  // measure 58
0000
0003
0000
1000
0000
0100
0000
1000
,  // measure 59
0000
0000
0000
1000
0000
0010
0000
1000
,  // measure 60
0000
0000
0000
1000
0000
0001
0000
1000
,  // measure 61
0000
0000
0000
1000
0000
0100
0000
0010
,  // measure 62
0000
0001
0000
0000
0000
1100
0000
0000
,  // measure 63
0000
0000
0000
0001
0000
1000
0000
0001
,  // measure 64
0000
0000
0000
0001
0000
0100
0000
0001
,  // measure 65
0000
0000
0000
0001
0000
0010
0000
0100
,  // measure 66
0000
1000
0000
0002
0000
0000
0000
0000
,  // measure 67
0000
0000
0000
0103
0000
0000
0000
0000
,  // measure 68
0000
0120
0000
0000
0000
0100
0000
0000
,  // measure 69
0000
0130
0000
0000
0000
0000
0000
2000
,  // measure 70
0000
0000
0000
0000
0000
3000
0000
0000
,  // measure 71
0000
0101
0000
0000
0000
0000
0000
2000
,  // measure 72
0000
0000
0000
0100
0000
0000
0000
3100
,  // measure 73
0000
0002
0000
0000
0000
0100
0000
0000
,  // measure 74
0000
0100
0000
0000
0000
0103
0000
0000
,  // measure 75
0000
1020
0000
0000
0000
0000
0000
0000
,  // measure 76
0000
0030
0000
0000
0000
0200
0000
0000
,  // measure 77
0000
0001
0000
0000
0000
0001
0000
0300
,  // measure 78
0000
0000
0000
0020
0000
0000
0000
0000
,  // measure 79
0000
0000
0030
0000
,  // measure 80
2000
0000
0000
3000
,  // measure 81
0000
1100
0000
0000
,  // measure 82
0000
1001
0000
0000
0000
0000
0000
0000
,  // measure 83
0001
0000
2000
0000
,  // measure 84
0000
0000
3000
0000
,  // measure 85
0210
0000
0300
0000
,  // measure 86
0021
0000
0030
0000
,  // measure 87
2020
0000
3030
0000
,  // measure 88
0202
0000
0303
0000
,  // measure 89
2002
0000
3003
0000
,  // measure 90
0010
1000
0001
0100
,  // measure 91
0010
1000
0010
1000
,  // measure 92
0100
0010
0001
0000
;

//---------------dance-single - ----------------
#NOTES:
     dance-single:
     :
     Hard:
     17:
     0.839,1.000,0.627,0.020,0.284:
0000
0000
0000
0000
,
0000
0000
0000
0000
,
0000
0000
0000
0000
,
1100
0100
0010
0001
1000
0010
0011
1000
,
0010
0001
1000
0010
0011
0010
0100
1000
,
0001
0100
1010
0100
0001
0011
0110
1100
,
1000
0100
0001
0000
0100
0000
1000
0000
0011
0000
0010
0000
0100
1000
0001
0000
,
1000
0000
0100
1000
0001
0000
1100
0000
0001
0010
1000
0000
0010
0000
0001
0000
,
1100
0000
0100
0000
0010
0001
1000
0000
0010
0000
0100
0000
0000
0100
0001
0000
,
0100
0000
0001
0100
1000
0000
1000
0000
1000
0010
0001
0000
0010
0000
0001
0010
,
1000
0000
1000
0000
0001
0010
0100
0000
0010
0000
1000
0100
0010
0000
0100
0000
,
0011
0000
0000
0000
0110
0000
0000
0000
0011
0000
0000
0000
1100
0000
0000
0000
0110
0000
0000
0000
1100
0000
0000
0000
1010
0000
0000
0100
0000
0000
0001
0000
,
0000
1000
0000
0000
0010
0000
0100
0000
1100
0000
0100
0000
0010
0000
1000
0000
1001
0000
0010
0000
0100
0000
1000
0000
0011
0000
0000
1100
0000
0000
0101
0000
,
0000
0011
0000
0000
1100
0000
0110
0000
0011
0000
0001
0000
0110
0000
0001
0000
1000
0100
0010
0001
0010
0100
0010
0001
1000
0000
0000
0000
0000
0000
0000
0000
,
0001
0000
0001
0100
1000
0000
1000
0100
,
1000
0010
0001
0010
1000
0000
1000
0100
,
0011
0000
1000
0010
0101
0000
1000
0100
,
0010
0001
0100
0010
0001
0010
1100
0000
,
0011
0000
1010
0000
0101
0000
0001
0010
,
0001
0100
1000
0100
0001
0000
0001
0100
,
1010
0000
0001
0010
1100
0000
0001
0010
,
0100
1000
0010
0100
1000
0010
1000
0100
,
1000
0010
0100
0001
0010
0001
0010
1000
,
0010
0000
0001
0000
1000
0100
1000
0000
0001
0010
0001
0000
1000
0000
0100
0000
,
0010
0000
1000
0001
0100
0000
1000
0000
0000
0000
0100
0000
0000
0000
0001
0000
,
0000
0100
0000
1010
0000
1000
0000
0001
,
0000
0110
0000
1000
0000
0110
0000
0001
,
0000
1000
0000
0001
0010
0001
0010
0100
,
1000
0000
0000
0001
0000
0100
0000
1000
,
0000
0100
0000
0001
0000
0110
0000
1000
,
0000
0110
0000
0001
0000
1000
0000
0000
,
0000
0001
0100
0001
0100
0010
1000
0000
,
0000
1000
0000
0010
0000
0001
0000
0010
,
0000
1100
0000
0001
0000
1000
0000
0110
,
0000
0001
0000
0110
0000
1000
0000
0000
,
0000
1000
0010
0000
0000
0100
0001
0000
,
0000
0001
0000
0100
0000
1010
0000
0100
,
0000
0001
0000
1000
0000
0001
0000
0010
,
0000
0001
0000
0010
0000
1000
0000
0001
,
0000
1000
0010
1000
0010
0100
0001
0000
,
0000
1000
0000
0100
0000
1000
0000
0010
,
0000
0001
0000
0010
0000
1000
0100
1000
,
0000
0001
0000
0010
0000
0001
0000
1000
,
0000
0001
0010
0001
0000
0100
0000
1000
,
0000
0001
0000
0100
0000
0001
0000
0010
,
0000
1000
0000
0010
0000
0001
0100
0001
,
0000
0010
0001
0000
0001
0010
0100
1000
,
0000
0000
0000
1000
0100
0010
0100
1000
,
0000
0000
0000
0001
0010
0100
0010
0001
,
0000
0000
0000
0010
0100
0000
0000
0001
,
1000
0000
0000
1000
0010
0100
0010
0100
,
0001
2000
0002
0000
0000
0000
0000
0000
,
0000
0000
0000
0000
,
0000
0000
3003
0000
0000
0000
1001
0000
0000
0000
0100
0000
0001
1000
0010
0100
,
0010
0000
0001
0000
0010
0000
1000
0100
1000
0010
0100
0001
0010
0100
1000
0100
,
0010
0100
0000
0000
0000
0000
0010
1000
0001
0100
0001
0000
0001
0010
0100
0010
,
0001
1000
0000
1000
0010
1000
0001
0010
0100
1000
0100
0010
0001
1000
0010
0100
,
0010
0100
0010
0000
0000
0000
1000
0000
0100
0000
1000
0000
0100
0000
1000
0000
,
0000
1000
0100
0010
0001
0010
0001
0000
,
0110
0100
1000
0100
0001
0100
1000
0001
,
0000
0001
1000
0010
1000
0010
0001
0010
,
0000
0100
0010
0000
0000
0011
1100
0000
,
0000
0100
0001
0100
0001
0000
0001
0000
,
0110
0100
0001
0100
1000
0100
0001
1000
,
0000
1000
0010
0100
0001
0100
1001
0000
,
1001
0000
0001
0100
0000
1000
0000
0010
,
0000
0100
0000
0001
0000
0010
0000
1000
,
0000
0010
0000
0001
0000
1000
0000
0100
,
0000
0001
0000
0110
0000
0000
0000
1000
,
0000
0001
0000
0010
0100
0010
0000
0000
,
0000
0011
0000
0000
0000
0000
0000
1000
,
0000
0100
0000
0010
0000
0100
0000
0010
,
0000
0001
0000
1000
0000
0010
0000
1000
,
0000
0100
0000
1000
0000
0100
0000
0101
,
0000
0000
0000
1000
0000
0001
0000
0010
,
0000
0100
1000
0100
0000
1010
0000
1010
,
0000
0001
0000
0001
0000
0010
0000
0010
,
0000
0100
0000
0100
0000
0110
0000
0110
,
0000
1001
0000
1001
0000
0011
0000
1100
,
0000
0000
1000
0100
0001
0100
0000
0000
,
0000
0010
0000
1001
0000
0000
0000
0000
,
0000
0010
0001
0010
0100
1000
0100
0010
,
0001
0010
0100
1000
0100
0000
0001
0100
,
0000
0000
0000
0000
0000
0000
0000
0100
,
1000
0100
1000
0000
0000
0000
0000
1000
,
0001
1000
0001
0000
0000
0000
0000
0000
,
0000
1000
0010
1000
0010
1000
0010
1000
,
0010
1000
0001
1000
0001
1000
0001
1000
,
0001
0100
0010
0100
0010
0000
0000
0000
,
0100
0010
0001
0000
0010
0100
1000
0000
,
0010
0001
0010
0000
1000
0000
0000
0000
0100
1000
0100
0000
0001
0000
0000
0000
,
0100
0010
0100
0000
0000
0000
0000
0000
;
