#TITLE:POSSESSION(Fake);
#SUBTITLE:;
#ARTIST:TAG underground?;
#TITLETRANSLIT:;
#SUBTITLETRANSLIT:;
#ARTISTTRANSLIT:;
#CREDIT:;
#BANNER:banner.jpg;
#BACKGROUND:background.jpg;
#LYRICSPATH:;
#CDTITLE:;
#MUSIC:possession-nise.mp3;
#OFFSET:-0.040;
#SAMPLESTART:1.320;
#SAMPLELENGTH:12.000;
#SELECTABLE:YES;
#BPMS:0.000=360.000,136.000=180.000,167.000=360.000,295.000=180.000,324.000=360.000;
#STOPS:166.000=0.333
,323.000=1.000
;
#BGCHANGES:;

//---------------dance-single - ----------------
#NOTES:
     dance-single:
     :
     Hard:
     18:
     0.992,1.000,1.000,0.221,0.556:
0000
0000
0000
0000
,
0000
0000
0000
0000
,
0000
0000
0000
0000
,
0000
0000
0000
0000
,
0000
0000
0000
0000
,
0000
0000
0000
0000
,
0000
0000
0000
0000
,
0000
0000
0000
0000
,
0000
0000
0000
0000
,
0000
0000
0000
0000
,
0010
1000
0100
0001
,
0010
0100
1000
0100
,
0001
0100
1000
0001
,
0010
1000
0010
0001
,
1000
0100
0010
0100
,
1000
0010
0001
0010
,
1000
0001
0100
1000
,
0100
0001
0010
0100
,
1000
0100
1000
0010
,
0001
0100
0001
0010
,
0100
1000
0100
0001
,
0100
1000
0100
0010
,
0001
0010
1000
0100
,
1000
0010
0001
0010
,
0100
0001
0100
1000
,
0100
0010
1000
0001
,
0100
0010
0001
0010
,
1000
0100
0001
0100
,
1000
0010
0100
0001
,
0100
0010
1000
0100
,
0010
0001
0100
0010
,
1000
0100
0001
0100
,
0010
1000
0010
0001
,
0100
0001
1000
0100
,
0220
0000
0000
0000
,
0000
0000
0000
0000
0000
0000
0330
0001
,
2000
0000
0000
0000
,
0002
0000
0000
0000
0000
0000
0000
3003
,
0100
0000
0010
0000
0100
0000
0001
0100
0010
0100
0001
0000
0100
0000
1000
0000
,
0010
0000
0100
0000
0001
0000
0010
0100
1000
0100
0010
0000
0001
0000
0100
0000
,
0001
0101
0000
1000
1010
0000
0001
0011
,
0000
1100
1000
0010
0110
0000
1000
0100
,
1000
0000
0010
0000
0100
0001
0100
0000
,
0001
0000
0010
0100
0010
0000
0100
0000
,
1000
0010
1000
0000
0001
0000
1000
0100
,
1000
0000
0010
0000
0100
0000
0001
0100
,
0001
0000
0010
0000
0100
1000
0100
0000
,
1000
0000
0010
0100
0010
0000
0100
0000
,
0001
0010
0001
0000
1000
0000
0001
0100
,
0001
0000
0010
0000
0100
0000
0010
0001
,
0200
0000
0301
0000
0100
0001
0020
0000
,
0130
0000
0010
0001
0200
0000
0301
0000
,
0100
0010
2000
0000
3001
0000
1000
0010
,
1000
0000
0001
0100
0001
0000
1000
0001
,
0200
0000
1300
0000
0100
0001
2000
0000
,
3100
0000
0001
0100
2000
0000
3010
0000
,
1000
0100
0002
0000
0103
0000
0010
0001
,
0010
0000
0100
1000
0100
0000
1100
0000
,
0000
0101
0000
0000
0000
1001
0000
0000
0000
1010
0000
0000
,
0000
0011
0000
0000
0000
1001
0000
0000
0000
0101
0000
0000
,
0000
1100
0000
0000
0000
1010
0000
0000
0000
0011
0000
0000
,
0000
0101
0000
0000
0000
1100
0000
0000
0000
0101
0000
0000
,
0000
1100
0000
0000
0000
1001
0000
0000
0000
0011
0000
0000
,
0000
1010
0000
0000
0000
1001
0000
0000
0000
1100
0000
0000
,
0000
0101
0000
0000
0000
0011
0000
0000
0000
1010
0000
0000
,
0000
1100
0000
0000
0000
0101
0000
0000
0000
1001
0000
0000
,
0000
1010
0000
0000
0000
0101
0000
0000
0000
1001
0000
0000
,
0000
0011
0000
0000
0000
1100
0000
0000
0000
1010
0000
0000
,
0000
0011
0000
0000
0000
1010
0000
0000
0000
0101
0000
0000
,
0000
1100
0000
0000
0000
0101
0000
0000
0000
1001
0000
0000
,
0000
1100
0000
0000
0000
1010
0000
0000
0000
1001
0000
0000
,
0000
0011
0000
0000
0000
0101
0000
0000
0000
1001
0000
0000
,
0000
1010
0000
0000
0000
0101
0000
0000
0000
1001
0000
0000
,
0000
0000
0010
0100
0010
0100
2000
0000
,
0010
0000
3010
0200
,
0001
0000
0301
0020
,
1000
0000
1030
0002
,
0100
0000
0000
0000
0103
0000
1000
0100
,
1000
0100
0010
0001
0010
0001
0100
0010
,
0100
0000
0010
0000
1000
0000
0001
0000
1000
0000
0001
0000
1000
0100
0010
0100
,
0010
0001
0100
0010
1000
0100
0010
0001
0100
0010
0100
0010
2000
0000
3000
0000
,
0001
0100
0001
0000
0010
0000
0100
1000
,
0100
0000
1000
0000
0010
0100
0010
0000
,
0100
0000
0001
0010
0001
0000
1000
0000
,
0001
0100
0001
0000
0010
0000
0100
0000
,
1000
0100
1000
0000
0010
0000
0100
0001
,
0100
0000
0001
0000
0010
0100
0010
0000
,
0100
0000
1000
0010
1000
0000
0001
0000
,
1000
0100
1000
0000
0010
0000
0100
0000
,
0010
1000
0200
0000
1300
0000
0100
1000
,
0020
0000
0130
0000
0010
1000
0200
0000
,
1300
0000
0100
0010
0002
0000
1003
0000
,
0001
0010
0001
0000
1000
0100
1000
0000
,
0001
1000
0200
0000
0301
0000
0100
1000
,
0002
0000
0103
0000
1000
0100
0002
0000
,
0013
0000
0001
0100
2000
0000
3100
0000
,
0010
1000
0010
0000
0100
0001
0100
0000
,
0001
0100
0010
0100
0001
0000
1000
0010
,
0100
0010
1000
0000
0001
0010
0100
0000
,
1000
0100
0001
0000
1000
0010
0001
0000
,
1000
0010
0001
0000
1000
0100
0001
0000
,
1000
0010
0100
0010
1000
0000
0001
0100
,
0010
0100
0001
0000
1000
0100
0010
0000
,
0001
0010
1000
0000
0001
0100
1000
0000
,
0001
0100
1000
0000
0001
0010
1000
0000
,
0001
0100
0001
1000
0001
0100
0001
1000
,
0100
0010
0100
1000
0100
0010
0100
1000
,
0001
0100
1000
0100
0001
0100
1000
0100
,
0001
0010
1000
0010
0001
0010
1000
0010
,
0001
0100
0010
1000
0100
0001
1000
0010
,
0001
0100
0001
0010
1000
0010
0001
0100
,
1000
0100
0010
1000
0100
0010
1000
0010
,
0001
0100
0010
1000
0100
1000
0001
0100
,
1010
0000
0000
0000
0011
0000
0000
0000
1001
0000
0000
0000
,
1100
0000
0000
0000
0101
0000
0000
0000
1001
0000
0000
0000
,
0011
0000
0000
0000
1010
0000
0000
0000
1100
0000
0000
0000
,
0101
0000
0000
0000
0011
0000
0000
0000
1010
0000
0000
0000
,
0011
0000
0000
0000
1010
0000
0000
0000
1001
0000
0000
0000
,
0101
0000
0000
0000
1100
0000
0000
0000
1001
0000
0000
0000
,
1010
0000
0000
0000
0011
0000
0000
0000
0101
0000
0000
0000
,
1100
0000
0000
0000
1010
0000
0000
0000
0011
0000
0000
0000
,
1001
0000
0000
0000
1100
0000
0000
0000
0011
0000
0000
0000
,
1001
0000
0000
0000
0101
0000
0000
0000
1010
0000
0000
0000
,
1100
0000
0000
0000
0101
0000
0000
0000
1100
0000
0000
0000
,
0011
0000
0000
0000
1010
0000
0000
0000
0011
0000
0000
0000
,
1001
0000
0000
0000
1010
0000
0000
0000
1100
0000
0000
0000
,
1001
0000
0000
0000
0101
0000
0000
0000
0011
0000
0000
0000
,
1001
0000
0000
0000
1100
0000
0000
0000
0011
0000
0000
0000
,
1001
0000
0000
0000
0110
0000
0000
0000
1001
0000
0000
0000
,
0011
0000
0001
0000
0100
0000
0010
0000
1000
0000
0100
0000
,
1100
0000
0000
0000
1001
0000
0000
0000
0011
0000
0000
0000
,
1010
0000
1000
0000
0100
0000
0010
0000
0001
0000
0100
0000
,
0101
0000
0000
0000
1001
0000
0000
0000
1010
0000
0000
0000
,
0110
0000
0001
0000
0100
0000
1000
0000
0100
0000
0010
0000
,
1100
0000
0000
0000
0011
0000
0000
0000
0101
0000
0000
0000
,
0110
0000
1000
0000
0100
0000
0001
0000
0100
0000
0010
0000
,
0101
0000
0000
0000
1010
0000
0000
0000
1100
0000
0000
0000
,
1001
0000
0100
0000
0010
0000
0001
0000
0100
0000
0010
0000
,
0101
0000
1000
0000
0010
0000
0001
0000
0010
0000
0100
0000
,
0110
0000
0001
0000
0100
0000
0010
0000
1000
0000
0100
0000
,
0011
0000
1000
0000
0010
0000
0100
0000
0001
0000
1000
0000
,
1010
0000
0100
0000
0001
0000
0100
0000
1000
0000
0001
0000
,
1001
0000
0001
0000
0100
0000
0010
0000
1000
0000
0100
0000
,
0110
0000
1000
0000
0010
0000
0100
0000
0001
0000
0010
0000
,
1001
0000
0000
0000
;

//---------------dance-single - Copied from----------------
#NOTES:
     dance-single:
     Copied from:
     Medium:
     12:
     0.680,0.826,0.538,0.123,0.441: // measure 1
0000
0000
0000
0000
,  // measure 2
0000
0000
0000
0000
,  // measure 3
0000
0000
0000
0000
,  // measure 4
0000
0000
0000
0000
,  // measure 5
0000
0000
0000
0000
,  // measure 6
0000
0000
0000
0000
,  // measure 7
0000
0000
0000
0000
,  // measure 8
0000
0000
0000
0000
,  // measure 9
0000
0000
0000
0000
,  // measure 10
0000
0000
0000
0000
,  // measure 11
0010
1000
0100
0000
,  // measure 12
0010
0001
0100
0000
,  // measure 13
0001
0100
1000
0000
,  // measure 14
0011
0000
1001
0000
,  // measure 15
0100
0001
0010
0000
,  // measure 16
0100
1000
0010
0000
,  // measure 17
1000
0010
0001
0000
,  // measure 18
1100
0000
1001
0000
,  // measure 19
1000
0100
1000
0001
,  // measure 20
0020
0000
0130
0000
,  // measure 21
0010
0001
0100
0001
,  // measure 22
1000
0000
0110
0000
,  // measure 23
0001
0010
0001
1000
,  // measure 24
0200
0000
0310
0000
,  // measure 25
0100
1000
0010
1000
,  // measure 26
0001
0000
0110
0000
,  // measure 27
1000
0001
0011
0000
,  // measure 28
1000
1010
0000
0100
,  // measure 29
0110
0000
1000
0000
,  // measure 30
0110
0000
1001
0000
,  // measure 31
0010
0100
0101
0000
,  // measure 32
0010
1010
0000
0100
,  // measure 33
1100
0000
0010
0110
,  // measure 34
0000
0001
1001
0000
,  // measure 35
0220
0000
0000
0000
,  // measure 36
0000
0000
0000
0330
,  // measure 37
2002
0000
0000
0000
,  // measure 38
0000
0000
0000
0000
0000
0000
0000
3003
,  // measure 39
0100
0000
0010
0000
0001
0100
0001
0000
,  // measure 40
0100
0000
0010
0000
1000
0100
1000
0001
,  // measure 41
0100
0010
0000
0100
0001
0000
0010
0100
,  // measure 42
0000
1000
0010
0100
1001
0000
1000
0000
,  // measure 43
0001
0101
0000
0100
,  // measure 44
1100
0000
0010
0011
,  // measure 45
0001
1000
0001
0100
,  // measure 46
0010
0000
1000
0100
1000
0000
0001
0000
,  // measure 47
1000
1100
0000
0100
,  // measure 48
0101
0000
0010
1010
,  // measure 49
1000
0001
1000
0100
,  // measure 50
0010
0000
0001
0100
0001
0000
0010
0000
,  // measure 51
1000
0200
0000
1300
,  // measure 52
0020
0000
0130
0001
,  // measure 53
0010
1000
0010
0001
,  // measure 54
0100
1001
0000
0010
,  // measure 55
0001
0200
0000
0301
,  // measure 56
0020
0000
0130
1000
,  // measure 57
0010
0001
0010
1000
,  // measure 58
0100
1001
0000
1000
,  // measure 59
0000
0100
0000
0000
0000
1000
0000
0000
0000
0001
0000
0000
,  // measure 60
0000
0100
0000
0000
0000
0001
0000
0000
0000
1000
0000
0000
,  // measure 61
0000
0010
0000
0000
0000
0001
0000
0000
0000
1000
0000
0000
,  // measure 62
0000
0100
0000
0000
0000
0001
0000
0000
0000
0010
0000
0000
,  // measure 63
0000
1000
0000
0000
0000
0100
0000
0000
0000
0010
0000
0000
,  // measure 64
0000
0001
0000
0000
0000
0100
0000
0000
0000
1000
0000
0000
,  // measure 65
0000
0010
0000
0000
0000
0100
0000
0000
0000
1000
0000
0000
,  // measure 66
0000
0001
0000
0000
0000
0010
0000
0000
0000
0001
0000
0000
,  // measure 67
0000
0001
0000
0000
0000
0001
0000
0000
0000
1000
0000
0000
,  // measure 68
0000
1000
0000
0000
0000
1000
0000
0000
0000
0010
0000
0000
,  // measure 69
0000
0010
0000
0000
0000
1000
0000
0000
0000
0100
0000
0000
,  // measure 70
0000
0100
0000
0000
0000
0001
0000
0000
0000
1000
0000
0000
,  // measure 71
0000
0010
0000
0000
0000
0001
0000
0000
0000
1000
0000
0000
,  // measure 72
0000
0100
0000
0000
0000
0001
0000
0000
0000
0100
0000
0000
,  // measure 73
0000
0010
0000
0000
0000
1000
0000
0000
0000
1001
0000
0000
,  // measure 74
0000
0000
0010
0100
0010
0000
2000
0000
,  // measure 75
0001
0000
3001
0002
,  // measure 76
1000
0000
1003
0020
,  // measure 77
0100
0000
0130
0200
,  // measure 78
0010
0000
0310
1000
,  // measure 79
0010
0000
0001
1000
0100
0000
0001
0000
,  // measure 80
0010
0000
1000
0001
0100
0000
0010
1000
,  // measure 81
0100
0010
0001
0100
0010
1000
0001
0000
,  // measure 82
0010
0001
0100
0001
,  // measure 83
0010
0100
1000
0010
,  // measure 84
1000
0100
0010
0001
,  // measure 85
0100
0010
1000
0100
,  // measure 86
1000
0010
0100
0010
,  // measure 87
1000
0100
0010
0001
,  // measure 88
0100
0010
1000
0100
,  // measure 89
0010
0001
1001
0000
,  // measure 90
0100
1000
0010
1000
,  // measure 91
0100
0010
0001
0100
,  // measure 92
0001
0010
0100
1000
,  // measure 93
0010
0100
0001
0010
,  // measure 94
0001
0100
0010
0100
,  // measure 95
0001
0010
0100
1000
,  // measure 96
0010
0100
0001
0010
,  // measure 97
0100
1000
1001
0000
,  // measure 98
0001
0100
0001
0000
0010
0000
1000
0100
,  // measure 99
1000
0010
1000
1000
,  // measure 100
0001
0001
0010
1000
,  // measure 101
0010
1000
0101
0000
,  // measure 102
1000
0100
1000
0000
0010
0000
0001
0100
,  // measure 103
0001
0010
0001
0001
,  // measure 104
1000
1000
0010
0001
,  // measure 105
0010
0001
1100
0000
,  // measure 106
0001
0010
1000
0010
,  // measure 107
0001
0100
0001
0000
0010
0001
0010
0000
,  // measure 108
1000
0100
0001
0100
,  // measure 109
1000
0010
1000
0000
0100
1000
0100
0000
,  // measure 110
0010
0001
0100
0001
,  // measure 111
1000
0000
0001
0000
0010
0100
0010
0000
,  // measure 112
0001
0100
0010
1000
,  // measure 113
0100
0010
0100
0010
,  // measure 114
0001
0000
0000
0000
1000
0000
0000
0000
0010
0000
0000
0000
,  // measure 115
1000
0000
0000
0000
0001
0000
0000
0000
0101
0000
0000
0000
,  // measure 116
0010
0000
0000
0000
1000
0000
0000
0000
0100
0000
0000
0000
,  // measure 117
0010
0000
0000
0000
0001
0000
0000
0000
1100
0000
0000
0000
,  // measure 118
0010
0000
0000
0000
0001
0000
0000
0000
0010
0000
0000
0000
,  // measure 119
1000
0000
0000
0000
0100
0000
0000
0000
1000
0000
0000
0000
,  // measure 120
0010
0000
0000
0000
0001
0000
0000
0000
1000
0000
0000
0000
,  // measure 121
0100
0000
0000
0000
0001
0000
0000
0000
0110
0000
0000
0000
,  // measure 122
1000
0000
0000
0000
1000
0000
0000
0000
1100
0000
0000
0000
,  // measure 123
0001
0000
0000
0000
0001
0000
0000
0000
0101
0000
0000
0000
,  // measure 124
0010
0000
0000
0000
0010
0000
0000
0000
0110
0000
0000
0000
,  // measure 125
1000
0000
0000
0000
1000
0000
0000
0000
1001
0000
0000
0000
,  // measure 126
0001
0000
0000
0000
0001
0000
0000
0000
0101
0000
0000
0000
,  // measure 127
1000
0000
0000
0000
1000
0000
0000
0000
1100
0000
0000
0000
,  // measure 128
0010
0000
0000
0000
0010
0000
0000
0000
0110
0000
0000
0000
,  // measure 129
0001
0000
0000
0000
0001
0000
0000
0000
1001
0000
0000
0000
,  // measure 130
0010
0000
1000
0000
0010
0000
0000
0000
1100
0000
0000
0000
,  // measure 131
0010
0000
0000
0000
0001
0000
0000
0000
0101
0000
0000
0000
,  // measure 132
0010
0000
0001
0000
0010
0000
0000
0000
0101
0000
0000
0000
,  // measure 133
0010
0000
0000
0000
1000
0000
0000
0000
1100
0000
0000
0000
,  // measure 134
0010
0000
0001
0000
0010
0000
0001
0000
0010
0000
0000
0000
,  // measure 135
0100
0000
1000
0000
0100
0000
1000
0000
0100
0000
0000
0000
,  // measure 136
0110
0000
0000
0000
1001
0000
0000
0000
0110
0000
0000
0000
,  // measure 137
0101
0000
0000
0000
1100
0000
0000
0000
1001
0000
0000
0000
,  // measure 138
0100
0000
0001
0000
0100
0000
0000
0000
0011
0000
0000
0000
,  // measure 139
0100
0000
0000
0000
1000
0000
0000
0000
1010
0000
0000
0000
,  // measure 140
0100
0000
1000
0000
0100
0000
0000
0000
1010
0000
0000
0000
,  // measure 141
0100
0000
0000
0000
0001
0000
0000
0000
0011
0000
0000
0000
,  // measure 142
0100
0000
0001
0000
0100
0000
0001
0000
0100
0000
0000
0000
,  // measure 143
0010
0000
1000
0000
0010
0000
1000
0000
0010
0000
0000
0000
,  // measure 144
0110
0000
0000
0000
1010
0000
0000
0000
0011
0000
0000
0000
,  // measure 145
1001
0000
0000
0000
;

//---------------dance-single - Copied from Copied f----------------
#NOTES:
     dance-single:
     Copied from Copied f:
     Easy:
     9:
     0.470,0.699,0.309,0.106,0.269:
0000
0000
0000
0000
,
0000
0000
0000
0000
,
0000
0000
0000
0000
,
0000
0000
0000
0000
,
0000
0000
0000
0000
,
0000
0000
0000
0000
,
0000
0000
0000
0000
,
0000
0000
0000
0000
,
0000
0000
0000
0000
,
0000
0000
0000
0000
,
0100
0000
1000
0000
,
1000
0000
1000
0000
,
0001
0000
0010
0000
,
1000
0000
1001
0000
,
0100
0000
0001
0000
,
0001
0000
0001
0000
,
1000
0000
0010
0000
,
0001
0000
1001
0000
,
0010
0000
0010
0000
,
0200
0000
1300
0000
,
0100
0000
1000
0001
,
1000
0000
0110
0000
,
0010
0000
0010
0000
,
0200
0000
0301
0000
,
0100
0000
0001
1000
,
0001
0000
0110
0000
,
0010
0000
0101
0000
,
0000
1100
0000
0000
,
1010
0000
0001
0000
,
0110
0000
1001
0000
,
0010
0000
1100
0000
,
0000
0101
0000
0000
,
0011
0000
1000
0000
,
0110
0000
1001
0000
,
2000
0000
0000
0000
,
0000
0000
0000
3000
,
0002
0000
0000
0000
,
0000
0000
0000
0000
0000
0000
0000
0003
,
1000
0100
0001
0001
,
1000
0010
0001
0001
,
0100
0010
0000
0100
0010
0000
1000
0001
,
0000
0001
1000
0000
0110
0000
0010
0000
,
0000
1001
0000
0000
,
0110
0000
0000
0101
,
0000
0010
0000
1000
,
1000
0100
0000
0010
,
0000
1001
0000
0000
,
0110
0000
0000
1100
,
0000
0010
0000
0001
,
0001
0100
0000
0001
,
0000
2100
0000
3000
,
0210
0000
0300
0001
,
0010
0001
1000
0001
,
0000
1100
0000
0001
,
0000
0102
0000
0003
,
0210
0000
0300
1000
,
0010
1000
0001
1000
,
0000
0101
0000
0010
,
0000
0000
0000
0000
0000
0010
0000
0000
0000
0001
0000
0000
,
0000
0000
0000
0000
0000
0001
0000
0000
0000
0100
0000
0000
,
0000
0000
0000
0000
0000
0100
0000
0000
0000
0010
0000
0000
,
0000
0000
0000
0000
0000
0010
0000
0000
0000
1000
0000
0000
,
0000
0000
0000
0000
0000
1000
0000
0000
0000
0100
0000
0000
,
0000
0000
0000
0000
0000
0100
0000
0000
0000
0010
0000
0000
,
0000
0000
0000
0000
0000
0010
0000
0000
0000
0100
0000
0000
,
0000
0000
0000
0000
0000
0100
0000
0000
0000
1000
0000
0000
,
0000
0000
0000
0000
0000
0001
0000
0000
0000
0001
0000
0000
,
0000
0000
0000
0000
0000
0010
0000
0000
0000
0010
0000
0000
,
0000
0000
0000
0000
0000
0100
0000
0000
0000
0100
0000
0000
,
0000
0000
0000
0000
0000
1000
0000
0000
0000
1000
0000
0000
,
0000
0000
0000
0000
0000
0010
0000
0000
0000
0010
0000
0000
,
0000
0000
0000
0000
0000
0001
0000
0000
0000
0001
0000
0000
,
0000
0000
0000
0000
0000
0100
0000
0000
0000
0100
0000
0000
,
0000
1001
0000
0020
,
0000
0000
0030
0002
,
0000
0000
0003
0200
,
0000
0000
0300
2000
,
0000
0000
3000
0010
,
0100
0001
0001
0100
,
0010
0000
1000
0000
1000
0000
0100
0010
,
0100
0010
0001
1000
0001
1000
0001
0000
,
0100
0001
1000
0000
,
0100
1000
0010
0000
,
0010
1000
0100
0000
,
1000
0100
0010
0000
,
0001
0100
1000
0000
,
0010
1000
0100
0000
,
0010
0001
1000
0000
,
1010
0000
1001
0000
,
0100
1000
0001
0000
,
0100
0001
0010
0000
,
0010
0001
0100
0000
,
0001
0100
0010
0000
,
1000
0100
0001
0000
,
0010
0001
0100
0000
,
0010
1000
0001
0000
,
0011
0000
1001
0000
,
0001
0001
0100
0010
,
1000
0000
0001
0000
,
1000
1000
0100
0010
,
0001
0000
1000
0000
,
0010
0010
0010
0000
,
0100
0100
0100
0000
,
0001
1000
0100
1000
,
0001
0000
0110
0000
,
1000
1000
0010
0100
,
0001
0000
1000
0000
,
0001
0001
0010
0100
,
1000
0000
0001
0000
,
0100
0100
0100
0000
,
0010
0010
0010
0000
,
1000
0001
0010
0001
,
1000
0000
0110
0000
,
0010
0000
0000
0000
0000
0000
0000
0000
0001
0000
0000
0000
,
1000
0000
0000
0000
0000
0000
0000
0000
0100
0000
0000
0000
,
1000
0000
0000
0000
0000
0000
0000
0000
0010
0000
0000
0000
,
0100
0000
0000
0000
0000
0000
0000
0000
0001
0000
0000
0000
,
0010
0000
0000
0000
0000
0000
0000
0000
1000
0000
0000
0000
,
0001
0000
0000
0000
0000
0000
0000
0000
0100
0000
0000
0000
,
0010
0000
0000
0000
0000
0000
0000
0000
0010
0000
0000
0000
,
0100
0000
0000
0000
0000
0000
0000
0000
0010
0000
0000
0000
,
0100
0000
0000
0000
0000
0000
0000
0000
1000
0000
0000
0000
,
0001
0000
0000
0000
0000
0000
0000
0000
0010
0000
0000
0000
,
0001
0000
0000
0000
0000
0000
0000
0000
0100
0000
0000
0000
,
0010
0000
0000
0000
0000
0000
0000
0000
1000
0000
0000
0000
,
0100
0000
0000
0000
0000
0000
0000
0000
0001
0000
0000
0000
,
1000
0000
0000
0000
0000
0000
0000
0000
0010
0000
0000
0000
,
0100
0000
0000
0000
0000
0000
0000
0000
0100
0000
0000
0000
,
0010
0000
0000
0000
0000
0000
0000
0000
0100
0000
0000
0000
,
1000
0000
0000
0000
0010
0000
0000
0000
1000
0000
0000
0000
,
0010
0000
0000
0000
1000
0000
0000
0000
0010
0000
0000
0000
,
0100
0000
0000
0000
0001
0000
0000
0000
0100
0000
0000
0000
,
0001
0000
0000
0000
0100
0000
0000
0000
0001
0000
0000
0000
,
0010
0000
0000
0000
0001
0000
0000
0000
0010
0000
0000
0000
,
0001
0000
0000
0000
0010
0000
0000
0000
0001
0000
0000
0000
,
1000
0000
0000
0000
0100
0000
0000
0000
1000
0000
0000
0000
,
0100
0000
0000
0000
1000
0000
0000
0000
0100
0000
0000
0000
,
0010
0000
0000
0000
0010
0000
0000
0000
0010
0000
0000
0000
,
0001
0000
0000
0000
0001
0000
0000
0000
0001
0000
0000
0000
,
0100
0000
0000
0000
0100
0000
0000
0000
0100
0000
0000
0000
,
0010
0000
0000
0000
0010
0000
0000
0000
0010
0000
0000
0000
,
1000
0000
0000
0000
1000
0000
0000
0000
1000
0000
0000
0000
,
0001
0000
0000
0000
0010
0000
0000
0000
1000
0000
0000
0000
,
0100
0000
0000
0000
1000
0000
0000
0000
0001
0000
0000
0000
,
1001
0000
0000
0000
;
